osu file format v11

[General]
AudioFilename: Reisen.mp3
AudioLeadIn: 0
PreviewTime: 96942
Countdown: 0
SampleSet: Normal
StackLeniency: 0.7
Mode: 0
LetterboxInBreaks: 1

[Editor]
DistanceSpacing: 1.5
BeatDivisor: 4
GridSize: 4

[Metadata]
Title:Yoru Naku Usagi wa Yume wo Miru
TitleUnicode:夜啼く兎は夢を見る
Artist:UNDEAD CORPORATION
ArtistUnicode:UNDEAD CORPORATION
Creator:Strawberry
Version:BakaNA
Source:Touhou
Tags:Ranko Nakamura Masaki Reisen Udongein Inaba a3272509123 bakabaka jomnhnk Twice ZUN instrumental Lunatic Red Eyes Invisible Full Moon Imperishable Night th08
BeatmapID:214248
BeatmapSetID:59049

[Difficulty]
HPDrainRate:7
CircleSize:4
OverallDifficulty:7
ApproachRate:9
SliderMultiplier:2.4
SliderTickRate:2

[Events]
//Background and Video events
0,0,"BG.jpg"
//Break Periods
2,39489,41967
2,57767,61767
2,106967,107967
2,126167,128967
2,180167,184167
//Storyboard Layer 0 (Background)
//Storyboard Layer 1 (Fail)
//Storyboard Layer 2 (Pass)
//Storyboard Layer 3 (Foreground)
//Storyboard Sound Samples
//Background Colour Transformations
3,100,163,162,255

[TimingPoints]
4017,685.714285714286,4,2,1,20,1,0
7788,-100,4,2,1,25,0,0
8645,-100,4,2,1,15,0,0
8817,-100,4,2,1,20,0,0
9502,-100,4,2,1,25,0,0
9845,-100,4,2,1,20,0,0
10531,-100,4,2,1,25,0,0
10702,-100,4,2,1,10,0,0
10788,-100,4,2,1,15,0,0
10874,-100,4,2,1,20,0,0
12074,-100,4,2,1,10,0,0
12160,-100,4,2,1,15,0,0
12245,-100,4,2,1,20,0,0
12760,-100,4,2,1,15,0,0
12931,-100,4,2,1,20,0,0
13617,-100,4,2,1,25,0,0
14302,-100,4,2,1,20,0,0
14817,-100,4,2,1,10,0,0
14897,-100,4,2,1,15,0,0
14988,750,4,2,1,15,1,0
15550,-100,4,2,1,15,0,0
15738,-100,4,2,1,20,0,0
16488,-100,4,2,1,15,0,0
17983,674.157303370787,4,2,1,20,1,0
18320,-100,4,2,1,20,0,0
18994,-100,4,2,1,25,0,0
19668,-100,4,2,1,20,0,0
20342,-100,4,2,1,25,0,0
21016,-100,4,2,1,20,0,0
21859,-100,4,2,1,15,0,0
22027,-100,4,2,1,30,0,0
22196,-100,4,2,1,20,0,0
22702,-100,4,2,1,25,0,0
23039,-100,4,2,1,20,0,0
23376,-100,4,2,1,25,0,0
23713,-100,4,2,1,20,0,0
24387,-100,4,2,1,25,0,0
25061,-100,4,2,1,20,0,0
25567,-100,4,2,1,15,0,0
25904,-100,4,2,1,25,0,0
26409,-100,4,2,1,20,0,0
27252,-100,4,2,1,15,0,0
27421,-100,4,2,1,30,0,0
27758,-100,4,2,1,20,0,0
28095,-100,4,2,1,25,0,0
28600,-100,4,2,1,20,0,0
28769,-100,4,2,1,25,0,0
29106,-100,4,2,1,20,0,0
29443,-100,4,2,1,25,0,0
29949,-100,4,2,1,20,0,0
30117,-100,4,2,1,25,0,0
30454,-100,4,2,1,15,0,0
30791,-100,4,2,1,20,0,0
30960,-100,4,2,1,25,0,0
31297,-100,4,2,1,20,0,0
31466,-100,4,2,1,25,0,0
31803,-100,4,2,1,20,0,0
32140,-100,4,2,1,25,0,0
32477,-100,4,2,1,20,0,0
32814,-100,4,2,1,30,0,0
33320,-100,4,2,1,20,0,0
33488,662.983425414365,4,2,1,25,1,0
33653,-100,4,2,1,15,0,0
39289,-100,4,2,0,10,0,0
41967,300,4,2,1,20,1,0
42567,-200,4,2,1,60,0,0
43167,-100,4,1,1,70,0,0
43467,-100,4,1,1,50,0,0
43617,-100,4,1,1,70,0,0
43917,-100,4,1,1,50,0,0
44067,-100,4,1,1,70,0,0
44217,-100,4,1,1,50,0,0
44367,-100,4,1,1,50,0,0
44667,-100,4,1,1,70,0,0
44817,-100,4,1,1,50,0,0
44967,-100,4,1,1,70,0,0
45117,-100,4,1,1,50,0,0
45567,-100,4,1,1,70,0,0
45717,-100,4,1,1,50,0,0
46017,-100,4,1,1,70,0,0
46167,-100,4,1,1,50,0,0
46467,-100,4,1,1,70,0,0
46617,-100,4,1,1,50,0,0
47067,-100,4,1,1,70,0,0
47217,-100,4,1,1,50,0,0
47367,-100,4,1,1,70,0,0
47442,-100,4,1,1,50,0,0
47967,-100,4,1,1,70,0,0
48567,-100,4,1,2,70,0,0
48717,-100,4,1,2,50,0,0
49017,-100,4,1,1,50,0,0
49317,-100,4,1,2,70,0,0
49467,-100,4,1,2,50,0,0
49767,-100,4,1,2,70,0,0
49917,-100,4,1,2,50,0,0
50217,-100,4,1,1,50,0,0
50367,-100,4,1,1,70,0,0
50967,-100,4,1,2,70,0,0
51117,-100,4,1,2,50,0,0
51417,-100,4,1,1,50,0,0
51567,-100,4,1,2,70,0,0
51717,-100,4,1,2,50,0,0
52017,-100,4,1,1,50,0,0
52092,-100,4,1,2,50,0,0
52167,-100,4,1,2,70,0,0
52317,-100,4,1,1,50,0,0
52767,-100,4,1,1,70,0,0
52917,-100,4,1,1,50,0,0
53217,-100,4,1,1,70,0,0
53367,-100,4,1,1,50,0,0
53667,-100,4,1,1,70,0,0
53817,-100,4,1,1,50,0,0
54267,-100,4,1,1,70,0,0
54417,-100,4,1,1,50,0,0
54567,-100,4,1,1,70,0,0
54717,-100,4,1,1,50,0,0
55167,-100,4,1,1,70,0,0
55317,-100,4,1,1,50,0,0
55617,-100,4,1,1,70,0,0
55767,-100,4,1,1,50,0,0
56067,-100,4,1,1,70,0,0
56217,-100,4,1,1,50,0,0
56367,-100,4,1,2,70,0,0
56517,-100,4,1,1,50,0,0
56667,-100,4,1,1,40,0,0
56967,-100,4,1,1,50,0,0
57117,-100,4,1,1,30,0,0
57417,-100,4,1,1,40,0,0
57567,-100,4,2,1,50,0,0
62367,-133.333333333333,4,2,0,40,0,0
62667,-133.333333333333,4,1,1,30,0,0
62967,-133.333333333333,4,1,1,35,0,0
63267,-133.333333333333,4,1,1,30,0,0
63567,-133.333333333333,4,1,1,40,0,0
64167,-133.333333333333,4,1,1,45,0,0
64467,-133.333333333333,4,1,1,40,0,0
64767,-133.333333333333,4,1,1,50,0,0
65067,-133.333333333333,4,1,1,45,0,0
65817,-133.333333333333,4,1,1,50,0,0
65967,-133.333333333333,4,2,0,50,0,0
66042,-133.333333333333,4,2,1,50,0,0
66267,-133.333333333333,4,1,1,40,0,0
66567,-133.333333333333,4,3,1,50,0,0
66717,-133.333333333333,4,1,1,50,0,0
67017,-133.333333333333,4,1,1,40,0,0
67167,-133.333333333333,4,2,1,60,0,0
67767,-133.333333333333,4,2,1,50,0,0
67842,-133.333333333333,4,2,1,60,0,0
68967,-133.333333333333,4,1,2,60,0,0
69267,-66.6666666666667,4,2,1,60,0,0
69567,-133.333333333333,4,2,1,60,0,0
69867,-133.333333333333,4,2,1,50,0,0
70017,-133.333333333333,4,2,1,60,0,0
70467,-133.333333333333,4,2,1,50,0,0
70617,-133.333333333333,4,2,1,60,0,0
71367,-133.333333333333,4,1,2,60,0,0
71667,-66.6666666666667,4,2,1,60,0,0
71967,-133.333333333333,4,2,1,60,0,0
72567,-133.333333333333,4,2,1,50,0,0
72717,-133.333333333333,4,2,1,60,0,0
73767,-133.333333333333,4,1,2,60,0,0
74067,-133.333333333333,4,2,1,60,0,0
74667,-133.333333333333,4,2,1,50,0,0
74817,-133.333333333333,4,2,1,60,0,0
75567,-66.6666666666667,4,2,1,60,0,0
76167,-66.6666666666667,4,1,2,60,0,0
76467,-66.6666666666667,4,3,1,40,0,0
76617,-66.6666666666667,4,3,1,50,0,0
76767,-100,4,2,0,70,0,0
76917,-100,4,1,2,60,0,0
81117,-100,4,2,0,60,0,0
81267,-100,4,2,0,70,0,0
81417,-100,4,1,2,60,0,0
85542,-100,4,1,2,55,0,0
85617,-100,4,1,2,50,0,0
85692,-100,4,1,2,60,0,0
85767,-100,4,1,2,55,0,0
86067,-100,4,1,2,50,0,0
86367,-100,4,2,0,60,0,0
86517,-100,4,1,1,60,0,0
86667,-100,4,2,0,60,0,0
86817,-100,4,1,1,60,0,0
86967,-100,4,2,0,60,0,0
87117,-100,4,1,2,60,0,0
87417,-100,4,1,2,60,0,1
105567,-100,4,3,1,50,0,1
105717,-100,4,3,1,60,0,1
105867,-100,4,1,2,60,0,1
106017,-100,4,3,1,60,0,1
106167,-100,4,1,2,60,0,1
106467,-100,4,1,2,70,0,1
106767,-100,4,2,0,60,0,0
108567,-133.333333333333,4,1,1,60,0,0
109167,-100,4,1,1,60,0,0
109767,-100,4,1,2,70,0,0
109917,-100,4,1,1,60,0,0
110367,-100,4,1,2,70,0,0
110517,-100,4,1,1,60,0,0
110967,-100,4,1,2,50,0,0
111117,-100,4,1,2,60,0,0
111567,-100,4,1,1,70,0,0
111867,-100,4,1,1,50,0,0
112017,-100,4,1,1,70,0,0
112167,-100,4,1,1,50,0,0
112467,-100,4,1,1,70,0,0
112617,-100,4,1,1,50,0,0
113067,-100,4,1,1,70,0,0
113217,-100,4,1,1,50,0,0
113367,-100,4,1,1,70,0,0
113517,-100,4,1,1,50,0,0
113967,-100,4,1,1,70,0,0
114117,-100,4,1,1,50,0,0
114417,-100,4,1,1,70,0,0
114567,-100,4,1,1,50,0,0
114867,-100,4,1,1,70,0,0
115017,-100,4,1,1,50,0,0
115467,-100,4,1,1,70,0,0
115617,-100,4,1,1,50,0,0
115767,-100,4,1,1,70,0,0
115917,-100,4,1,1,50,0,0
116367,-100,4,1,1,70,0,0
116817,-100,4,1,2,70,0,0
117117,-100,4,1,2,50,0,0
117417,-100,4,1,1,50,0,0
117717,-100,4,1,2,70,0,0
117867,-100,4,1,2,50,0,0
118167,-100,4,1,2,70,0,0
118317,-100,4,1,2,50,0,0
118617,-100,4,1,1,50,0,0
118767,-100,4,1,1,70,0,0
119217,-100,4,1,1,50,0,0
119367,-100,4,1,2,70,0,0
119517,-100,4,1,1,50,0,0
119967,-100,4,1,2,70,0,0
120117,-100,4,1,1,50,0,0
120567,-100,4,1,2,70,0,0
120717,-100,4,1,1,50,0,0
121167,-100,4,1,1,50,0,0
121617,-100,4,1,1,70,0,0
121767,-100,4,1,1,50,0,0
122067,-100,4,1,1,70,0,0
122217,-100,4,1,1,50,0,0
122667,-100,4,1,1,70,0,0
122817,-100,4,1,1,50,0,0
122967,-100,4,1,1,70,0,0
123117,-100,4,1,1,50,0,0
123567,-100,4,1,1,70,0,0
123717,-100,4,1,1,50,0,0
124017,-100,4,1,1,70,0,0
124167,-100,4,1,1,50,0,0
124467,-100,4,1,1,70,0,0
124617,-100,4,1,1,50,0,0
124767,-100,4,1,2,70,0,0
124917,-100,4,1,2,50,0,0
125067,-100,4,1,2,40,0,0
125367,-100,4,1,1,50,0,0
125517,-100,4,1,1,30,0,0
125817,-100,4,1,1,40,0,0
125967,-100,4,2,0,60,0,0
129867,-100,4,1,1,40,0,0
130167,-100,4,3,1,30,0,0
130467,-100,4,3,1,20,0,0
130767,-133.333333333333,4,2,1,60,0,0
131367,-133.333333333333,4,2,1,50,0,0
131517,-133.333333333333,4,2,1,60,0,0
132567,-133.333333333333,4,1,2,60,0,0
132867,-133.333333333333,4,2,1,60,0,0
133467,-133.333333333333,4,2,1,50,0,0
133617,-133.333333333333,4,2,1,60,0,0
133767,-133.333333333333,4,2,1,50,0,0
133917,-133.333333333333,4,2,1,60,0,0
134067,-133.333333333333,4,2,1,30,0,0
134217,-133.333333333333,4,2,1,60,0,0
134367,-66.6666666666667,4,2,1,60,0,0
134967,-133.333333333333,4,1,2,60,0,0
135267,-133.333333333333,4,1,1,60,0,0
135567,-100,4,2,0,70,0,0
135717,-100,4,1,2,60,0,0
140367,-100,4,2,0,70,0,0
140517,-100,4,1,2,60,0,0
143967,-100,4,2,0,60,0,0
144042,-100,4,1,2,60,0,0
144417,-100,4,2,0,70,0,0
144492,-100,4,1,2,60,0,0
144867,-100,4,2,0,60,0,0
144942,-100,4,1,2,60,0,0
145167,-100,4,2,0,70,0,0
145242,-100,4,1,2,60,0,0
145767,-100,4,3,1,40,0,0
145917,-100,4,3,1,30,0,0
146067,-100,4,1,2,60,0,0
146217,-100,4,1,2,60,0,1
163767,-100,4,1,2,40,0,1
163917,-100,4,1,2,50,0,1
164217,-100,4,1,2,60,0,1
164667,-100,4,2,0,60,0,1
164817,-100,4,1,2,60,0,1
164967,-100,4,1,2,70,0,1
165042,-100,4,1,2,60,0,1
165192,-100,4,1,2,50,0,1
165417,-100,4,1,2,60,0,1
165567,300,3,1,1,60,1,0
165567,-133.333333333333,3,1,1,70,0,0
165867,-133.333333333333,3,1,1,50,0,0
166467,-133.333333333333,3,1,1,70,0,0
166617,-133.333333333333,3,1,1,50,0,0
167367,-133.333333333333,3,1,1,70,0,0
167517,-133.333333333333,3,1,1,50,0,0
168267,-133.333333333333,3,1,1,70,0,0
168417,-133.333333333333,3,1,1,50,0,0
169167,-133.333333333333,3,1,2,70,0,0
169317,-133.333333333333,3,1,1,50,0,0
170067,-133.333333333333,3,1,1,70,0,0
170217,-133.333333333333,3,1,1,50,0,0
170967,-133.333333333333,3,1,2,70,0,0
171117,-133.333333333333,3,1,1,50,0,0
171867,-133.333333333333,3,1,1,70,0,0
172017,-133.333333333333,3,1,1,50,0,0
172317,-133.333333333333,3,1,1,70,0,0
172467,-133.333333333333,3,1,1,50,0,0
172767,-133.333333333333,3,1,1,50,0,0
172917,-133.333333333333,3,1,1,50,0,0
173667,-133.333333333333,3,1,1,70,0,0
173817,-133.333333333333,3,1,1,50,0,0
174567,-133.333333333333,3,1,1,50,0,0
174717,-133.333333333333,3,1,1,50,0,0
175467,-133.333333333333,3,1,1,70,0,0
175617,-133.333333333333,3,1,1,50,0,0
176367,-133.333333333333,3,1,1,50,0,0
176517,-133.333333333333,3,1,1,50,0,0
177267,-133.333333333333,3,1,1,70,0,0
177417,-133.333333333333,3,1,1,50,0,0
178167,-133.333333333333,3,1,1,50,0,0
178467,-133.333333333333,3,1,2,60,0,0
179067,-133.333333333333,3,1,1,70,0,0
179817,-133.333333333333,3,2,1,70,0,0
179967,300,4,2,1,60,1,0
184767,-133.333333333333,4,1,1,60,0,0
185367,-133.333333333333,4,1,2,60,0,0
185517,-133.333333333333,4,1,1,60,0,0
186567,-133.333333333333,4,1,2,60,0,0
186717,-133.333333333333,4,1,1,60,0,0
187767,-133.333333333333,4,1,2,50,0,0
187917,-133.333333333333,4,1,2,60,0,0
188067,-133.333333333333,4,1,1,60,0,0
188967,-200,4,2,1,60,0,0
189567,-100,4,1,1,70,0,0
189717,-100,4,1,1,50,0,0
190017,-100,4,1,1,70,0,0
190167,-100,4,1,1,50,0,0
190467,-100,4,1,1,70,0,0
190617,-100,4,1,1,50,0,0
191067,-100,4,1,1,70,0,0
191217,-100,4,1,1,50,0,0
191367,-100,4,1,1,70,0,0
191517,-100,4,1,1,50,0,0
191967,-100,4,1,1,70,0,0
192117,-100,4,1,1,50,0,0
192417,-100,4,1,1,70,0,0
192567,-100,4,1,1,50,0,0
192867,-100,4,1,1,70,0,0
193017,-100,4,1,1,50,0,0
193467,-100,4,1,1,70,0,0
193617,-100,4,1,1,50,0,0
193767,-100,4,1,1,70,0,0
193842,-100,4,1,1,50,0,0
194367,-100,4,1,1,70,0,0
194967,-100,4,1,2,70,0,0
195117,-100,4,1,1,50,0,0
195717,-100,4,1,2,70,0,0
195867,-100,4,1,2,50,0,0
196167,-100,4,1,2,70,0,0
196317,-100,4,1,1,50,0,0
196767,-100,4,1,1,70,0,0
197217,-100,4,1,2,70,0,0
197517,-100,4,1,1,50,0,0
197967,-90.9090909090909,4,1,2,70,0,0
198117,-90.9090909090909,4,1,1,50,0,0
198567,-83.3333333333333,4,1,2,70,0,0
198717,-83.3333333333333,4,1,1,50,0,0
199167,-100,4,1,1,70,0,0
199317,-100,4,1,1,50,0,0
199617,-100,4,1,1,70,0,0
199767,-100,4,1,1,50,0,0
200067,-100,4,1,1,70,0,0
200217,-100,4,1,1,50,0,0
200667,-100,4,1,1,70,0,0
200817,-100,4,1,1,50,0,0
200967,-100,4,1,1,70,0,0
201117,-100,4,1,1,50,0,0
201567,-100,4,1,1,70,0,0
201717,-100,4,1,1,50,0,0
202017,-100,4,1,1,70,0,0
202167,-100,4,1,1,50,0,0
202467,-100,4,1,1,70,0,0
202617,-100,4,1,1,50,0,0
202767,-100,4,1,2,70,0,0
202917,-100,4,1,1,50,0,0
203217,-100,4,3,1,40,0,0
203367,-100,4,1,1,50,0,0
203967,-100,4,2,0,70,0,0
204117,-100,4,1,2,60,0,0
211167,-100,4,2,0,70,0,0
211317,-100,4,1,2,60,0,0
213267,-100,4,3,1,40,0,0
213417,-100,4,3,1,50,0,0
213567,-100,4,1,2,60,0,0
214617,-100,4,1,2,60,0,1
233667,-100,4,1,2,40,0,0
233817,-200,4,2,1,60,0,0
234117,-100,4,1,2,60,0,1
236217,-133.333333333333,4,1,2,60,0,1
236667,-100,4,1,2,60,0,1
242217,-90.9090909090909,4,1,2,60,0,1
242817,-83.3333333333333,4,1,2,60,0,1
243417,-100,4,1,2,60,0,1
251517,-100,4,1,2,55,0,1
251667,-100,4,1,2,60,0,1
252267,-100,4,2,0,60,0,1
252417,-133.333333333333,4,1,2,60,0,1
252887,300,4,1,1,60,1,1
253221,375,4,1,0,60,1,0
253221,-133.333333333333,4,2,1,30,0,0
253596,-133.333333333333,4,2,1,40,0,0
253783,-133.333333333333,4,2,1,30,0,0
254533,-133.333333333333,4,2,1,40,0,0
254721,-133.333333333333,4,2,1,15,0,0
255096,-133.333333333333,4,2,1,30,0,0
255481,408.163265306122,4,2,1,30,1,0
255889,-100,4,2,1,20,0,0
256093,-100,4,2,1,30,0,0
256308,444.444444444444,4,2,1,30,1,0
257196,461.538461538462,4,2,1,25,1,0
257657,500,4,2,1,25,1,0
258157,600,4,2,1,60,1,0
259357,-100,4,2,1,30,0,0
262357,-100,4,2,1,25,0,0

[Colours]
Combo1 : 68,134,242
Combo2 : 255,176,216
Combo3 : 140,199,247
Combo4 : 243,109,180
SliderBorder : 255,255,255

[HitObjects]
448,112,6588,1,0,0:0:0
460,128,6674,1,0,0:0:0
472,144,6759,2,0,B|408:188|444:256|444:256|448:320|384:336,1,240,0|0,0:0|0:0,0:0:0
192,364,8131,2,0,B|140:328|136:252|184:204,1,180
220,176,8817,2,0,B|180:224|112:212,1,120
28,168,9502,5,0,0:0:0
172,40,10188,1,0,0:0:0
256,88,10531,1,0,0:0:0
340,136,10702,37,0,0:0:0
360,124,10788,1,0,0:0:0
380,112,10874,1,0,0:0:0
432,211,11217,6,0,B|468:192,2,40
392,236,11560,2,0,B|364:296|404:348,1,120
284,364,12074,37,0,0:0:0
276,340,12160,1,0,0:0:0
268,316,12245,2,0,B|312:268|292:184|228:172,1,180
192,200,12931,2,0,B|136:232|76:200,1,120
36,88,13617,5,0,0:0:0
100,56,13789,1,0,0:0:0
32,224,14302,38,0,B|36:292|100:316,1,120
216,328,14817,5,0,0:0:0
208,304,14902,1,0,0:0:0
200,280,14988,2,0,B|200:216|256:168|324:184,1,180
344,224,15738,2,0,B|396:248|396:248|440:292,1,120
256,192,16488,12,0,17983,0:0:0
408,88,18657,37,0,0:0:0
224,32,19331,1,0,0:0:0
52,120,20005,1,0,0:0:0
20,308,20679,6,0,B|80:328|136:292,1,120
176,204,21353,2,0,B|230:168|290:188,1,120
336,244,21859,1,0,0:0:0
384,300,22027,37,0,0:0:0
476,192,22365,1,0,0:0:0
416,60,22702,2,0,B|368:88|368:88|304:96,1,120
208,108,23376,5,0,0:0:0
36,192,24050,1,0,0:0:0
120,364,24724,1,0,0:0:0
292,280,25398,1,0,0:0:0
368,340,25735,1,0,0:0:0
456,300,26072,38,0,B|504:260|492:188,1,120
464,100,26747,2,0,B|405:78|349:124,1,120
300,176,27252,1,0,0:0:0
272,244,27421,5,0,0:0:0
320,380,27758,1,0,0:0:0
180,352,28095,2,0,B|116:348|64:296|64:236,1,180
124,192,28769,38,0,B|152:140|152:140|136:80,1,120
232,84,29443,2,0,B|248:148|248:148|288:184|356:172,1,180
424,148,30117,2,0,B|408:89|408:89|436:37,2,120
448,216,30960,2,0,B|464:288|404:320,1,120
340,352,31466,5,0,0:0:0
208,296,31803,1,0,0:0:0
76,240,32140,1,0,0:0:0
96,384,32477,1,0,0:0:0
208,296,32814,2,0,B|232:240|216:164|168:132,1,180
76,240,33488,37,0,0:0:0
256,192,33653,12,0,37797,0:0:0
256,192,38460,12,2,39289,0:0:0
196,200,42567,6,0,B|256:220|316:200,1,120,0|0,0:0|0:0,0:0:0
132,44,43167,6,0,B|96:48|80:80|80:80|88:108|124:124|124:124|80:168|96:224,1,240,8|0,0:0|0:0,0:0:0
380,44,43617,2,0,B|416:48|432:80|432:80|424:108|388:124|388:124|432:168|416:224,1,240,8|0,0:0|0:0,0:0:0
196,200,44067,1,8,0:0:0
416,223,44217,1,4,0:0:0
288,368,44367,5,0,0:0:0
252,336,44442,1,0,0:0:0
216,304,44517,1,0,0:0:0
180,316,44592,1,2,0:0:0
144,328,44667,2,0,B|77:325|48:266,1,120,8|0,0:0|0:0,0:0:0
244,124,44967,2,0,B|275:183|238:237,1,120,8|0,0:0|0:0,0:0:0
16,140,45267,2,0,B|51:83|116:88,1,120
238,237,45567,5,8,0:0:0
348,184,45717,2,0,B|388:196|388:196|404:216|404:216|456:216,1,120
348,296,46017,5,8,0:0:0
247,227,46167,2,0,B|237:186|237:186|246:162|246:162|220:117,1,120
368,164,46467,5,8,0:0:0
358,285,46617,2,0,B|327:313|327:313|302:317|302:317|276:362,1,120,4|0,0:0|0:0,0:0:0
252,352,46842,1,0,0:0:0
228,344,46917,1,0,0:0:0
204,336,46992,1,2,0:0:0
180,328,47067,1,8,0:0:0
128,220,47217,1,0,0:0:0
248,228,47367,6,0,B|284:220|284:220|316:192,1,80,8|0,0:0|0:0,0:0:0
288,116,47567,2,0,B|320:88|320:88|356:80,1,80,0|2,0:0|0:0,0:0:0
396,152,47767,2,0,B|432:144|432:144|464:116,1,80,0|2,0:0|0:0,0:0:0
476,36,47967,5,8,0:0:0
116,52,48267,1,8,0:0:0
312,356,48567,1,8,0:0:0
368,248,48717,1,0,0:0:0
248,252,48867,1,0,0:0:0
312,356,49017,6,0,B|376:344|376:344|400:348|400:348|436:344,1,120,2|0,0:0|0:0,0:0:0
130,227,49317,2,0,B|66:215|66:215|42:219|42:219|12:216,1,120,8|0,0:0|0:0,0:0:0
248,252,49617,1,0,0:0:0
116,52,49767,6,0,B|168:84|168:84|196:136,1,120,8|0,0:0|0:0,0:0:0
312,356,50067,2,0,B|364:324|364:324|392:272,1,120,0|2,0:0|0:0,0:0:0
412,228,50292,1,0,0:0:0
432,184,50367,5,8,0:0:0
132,336,50667,1,8,0:0:0
468,340,50967,1,8,0:0:0
312,356,51117,1,0,0:0:0
244,216,51267,2,0,B|184:208|124:224,1,120,0|2,0:0|0:0,0:0:0
56,56,51567,2,0,B|116:48|176:64,1,120,8|0,0:0|0:0,0:0:0
244,216,51867,1,0,0:0:0
412,192,52017,5,2,0:0:0
444,156,52092,1,0,0:0:0
476,120,52167,1,8,0:0:0
388,40,52317,1,2,0:0:0
308,132,52467,1,0,0:0:0
412,192,52617,1,0,0:0:0
388,308,52767,6,0,B|344:344|276:348,1,120,8|0,0:0|0:0,0:0:0
88,308,53067,1,0,0:0:0
24,180,53217,6,0,B|68:216|136:220,1,120,8|0,0:0|0:0,0:0:0
308,132,53517,1,0,0:0:0
144,32,53667,1,8,0:0:0
24,180,53817,1,4,0:0:0
308,132,53967,5,0,0:0:0
348,104,54042,1,0,0:0:0
384,76,54117,1,0,0:0:0
420,80,54192,1,2,0:0:0
456,84,54267,2,0,B|496:128|496:128|508:188,1,120,8|0,0:0|0:0,0:0:0
332,348,54567,2,0,B|344:288|344:288|384:244,1,120,8|0,0:0|0:0,0:0:0
144,104,54867,2,0,B|184:148|184:148|196:208,1,120,0|0,0:0|0:0,0:0:0
152,344,55167,5,8,0:0:0
32,260,55317,1,0,0:0:0
196,208,55467,1,0,0:0:0
152,344,55617,6,0,B|104:332|104:332|88:344|88:344|40:332,1,120,8|0,0:0|0:0,0:0:0
28,188,55917,1,0,0:0:0
196,208,56067,2,0,B|244:220|244:220|260:208|260:208|308:220,1,120,8|4,0:0|0:0,0:0:0
472,256,56367,5,8,0:0:0
364,352,56517,1,0,0:0:0
308,220,56667,1,0,0:0:0
424,96,56817,5,0,0:0:0
396,212,56967,1,4,0:0:0
312,296,57117,1,0,0:0:0
200,340,57267,1,0,0:0:0
84,316,57417,1,4,0:0:0
304,284,57567,5,2,0:0:0
212,152,62367,5,4,0:0:0
300,144,62667,1,0,0:0:0
308,232,62967,1,0,0:0:0
220,240,63267,1,0,0:0:0
292,56,63567,5,0,0:0:0
396,224,63867,1,0,0:0:0
228,328,64167,1,0,0:0:0
124,160,64467,1,0,0:0:0
316,308,64767,5,0,0:0:0
36,180,65067,1,0,0:0:0
484,204,65367,1,0,0:0:0
204,76,65667,5,0,0:0:0
292,56,65817,1,0,0:0:0
380,36,65967,2,0,B|432:80|424:160,1,135.000005149841,4|0,0:0|0:0,0:0:0
360,192,66267,1,0,0:0:0
356,208,66342,1,0,0:0:0
356,224,66417,1,0,0:0:0
360,240,66492,1,0,0:0:0
368,256,66567,5,4,0:0:0
452,288,66717,1,0,0:0:0
260,276,66867,1,2,0:0:0
324,364,67017,1,0,0:0:0
144,228,67167,6,0,B|84:252|92:352|160:368,1,180.000006866455,4|2,0:0|0:0,0:0:0
260,276,67617,1,0,0:0:0
248,140,67767,2,0,B|257:76|166:32|118:83,1,180.000006866455,2|2,0:0|0:0,0:0:0
52,168,68217,5,2,0:0:0
144,228,68367,1,0,0:0:0
248,140,68517,1,0,0:0:0
264,148,68592,1,0,0:0:0
280,156,68667,1,2,0:0:0
420,220,68817,1,0,0:0:0
404,68,68967,1,8,0:0:0
316,324,69267,6,0,B|368:360|444:344|472:284,1,180.000006866455
404,68,69567,6,0,B|376:32,2,45.0000017166138,2|0|0,0:0|0:0|0:0,0:0:0
420,220,69867,1,2,0:0:0
488,136,70017,1,0,0:0:0
332,152,70167,2,0,B|288:140|268:92,1,90.0000034332277,2|0,0:0|0:0,0:0:0
100,192,70467,2,0,B|120:144|164:132,1,90.0000034332277,2|2,0:0|0:0,0:0:0
204,232,70767,5,0,0:0:0
120,300,70917,1,0,0:0:0
104,292,70992,1,0,0:0:0
88,284,71067,1,2,0:0:0
304,192,71217,5,0,0:0:0
272,316,71367,1,8,0:0:0
484,56,71667,6,0,B|432:20|356:36|328:96,1,180.000006866455,2|0,0:0|0:0,0:0:0
392,280,71967,6,0,B|432:320,2,45.0000017166138,4|0|0,0:0|0:0|0:0,0:0:0
304,192,72267,1,2,0:0:0
272,316,72417,1,0,0:0:0
392,280,72567,6,0,B|432:256|448:208,1,90.0000034332277,2|2,0:0|0:0,0:0:0
256,36,72867,2,0,B|277:78|265:123,1,90.0000034332277,0|2,0:0|0:0,0:0:0
92,316,73167,2,0,B|52:289|39:245,1,90.0000034332277
36,220,73392,1,0,0:0:0
32,192,73467,1,2,0:0:0
112,96,73617,1,0,0:0:0
156,212,73767,1,8,0:0:0
156,212,74067,5,0,0:0:0
112,96,74217,1,0,0:0:0
32,192,74367,2,0,B|0:148,2,45.0000017166138,2|0|0,0:0|0:0|0:0,0:0:0
176,300,74667,1,2,0:0:0
236,168,74817,1,0,0:0:0
320,284,74967,2,0,B|348:320,2,45.0000017166138,2|0|0,0:0|0:0|0:0,0:0:0
464,268,75267,1,2,0:0:0
464,268,75417,1,2,0:0:0
476,160,75567,6,0,B|484:96|432:44|364:56,1,180.000006866455,4|0,0:0|0:0,0:0:0
232,264,75867,2,0,B|224:328|276:380|344:368,1,180.000006866455,4|0,0:0|0:0,0:0:0
380,152,76167,5,8,0:0:0
264,64,76317,1,0,0:0:0
148,196,76467,1,4,0:0:0
232,264,76617,1,8,0:0:0
132,304,76767,6,0,B|80:304|36:268|40:212|40:212|80:184|72:128,1,240,4|8,0:0|0:0,0:0:0
280,112,77217,2,0,B|215:97|159:153|163:237|231:265,1,240
348,292,77667,1,8,0:0:0
460,252,77817,2,0,B|492:224|492:176|456:148|456:148|488:120|488:120|488:76|448:60,1,240
280,112,78267,1,8,0:0:0
348,292,78417,2,0,B|336:352|272:352|272:352|264:308|216:280|168:292,1,240
132,300,78792,1,0,0:0:0
100,320,78867,2,0,B|64:344|12:328|4:288,1,120,8|0,0:0|0:0,0:0:0
192,32,79167,6,0,B|216:80|184:120|184:120|232:144|244:204|200:244,1,240,0|8,0:0|0:0,0:0:0
32,144,79617,2,0,B|44:88|116:68,1,120
201,242,79917,1,0,0:0:0
80,252,80067,1,8,0:0:0
237,58,80217,6,0,B|296:68|296:68|352:96,1,120
480,156,80517,1,0,0:0:0
444,184,80592,1,0,0:0:0
408,212,80667,1,8,0:0:0
272,316,80817,2,0,B|324:308|364:336|364:336|384:304|424:304|424:304|464:296|484:264,1,240,0|4,0:0|0:0,0:0:0
348,96,81267,1,4,0:0:0
344,260,81417,5,0,0:0:0
308,288,81492,1,0,0:0:0
272,316,81567,2,0,B|156:352,1,120,8|0,0:0|0:0,0:0:0
348,96,81867,2,0,B|232:132,1,120,8|0,0:0|0:0,0:0:0
480,312,82167,2,0,B|364:348,1,120,8|0,0:0|0:0,0:0:0
180,56,82467,2,0,B|64:92,1,120,8|0,0:0|0:0,0:0:0
32,208,82767,5,0,0:0:0
148,176,82917,1,0,0:0:0
332,328,83067,5,8,0:0:0
192,288,83217,1,0,0:0:0
292,188,83367,1,0,0:0:0
332,328,83517,1,0,0:0:0
432,228,83667,5,8,0:0:0
456,204,83742,1,0,0:0:0
480,180,83817,1,0,0:0:0
472,144,83892,1,0,0:0:0
464,108,83967,2,0,B|436:52|364:52,1,120,0|0,0:0|0:0,0:0:0
292,188,84267,2,0,B|264:244|192:244,1,120,8|0,0:0|0:0,0:0:0
48,184,84567,1,0,0:0:0
172,88,84717,1,0,0:0:0
204,264,84867,5,8,0:0:0
28,192,85017,1,0,0:0:0
180,72,85167,1,0,0:0:0
212,56,85242,1,0,0:0:0
248,52,85317,1,0,0:0:0
284,64,85392,1,0,0:0:0
312,88,85467,5,8,0:0:0
296,128,85542,1,8,0:0:0
304,168,85617,1,8,0:0:0
336,196,85692,1,0,0:0:0
376,204,85767,5,0,0:0:0
416,228,85842,1,0,0:0:0
436,272,85917,1,0,0:0:0
428,320,85992,1,0,0:0:0
396,356,86067,1,0,0:0:0
348,364,86142,1,0,0:0:0
304,344,86217,1,0,0:0:0
280,304,86292,1,0,0:0:0
284,256,86367,5,4,0:0:0
452,160,86517,1,0,0:0:0
280,304,86667,1,4,0:0:0
124,240,86817,1,0,0:0:0
84,268,86892,1,0,0:0:0
44,296,86967,1,4,0:0:0
304,344,87117,5,8,0:0:0
372,216,87267,1,0,0:0:0
256,128,87417,6,0,B|192:132|168:196|168:196|200:252|276:244,1,240,4|0,0:0|0:0,0:0:0
452,160,87867,1,8,0:0:0
372,40,88017,1,0,0:0:0
272,244,88167,2,0,B|252:300|192:328,1,120
72,352,88467,1,8,0:0:0
48,128,88617,6,0,B|64:56|136:40|208:68|204:148,1,240,4|0,0:0|0:0,0:0:0
192,328,89067,1,8,0:0:0
72,352,89217,1,0,0:0:0
48,128,89367,5,0,0:0:0
204,148,89517,1,0,0:0:0
256,116,89592,1,0,0:0:0
308,84,89667,1,8,0:0:0
476,108,89817,2,0,B|512:144|504:196|452:220|452:220|400:252|424:312,1,240,4|0,0:0|0:0,0:0:0
288,364,90267,6,0,B|336:328|324:256,1,120,8|0,0:0|0:0,0:0:0
312,208,90492,1,0,0:0:0
288,168,90567,1,0,0:0:0
48,128,90717,1,0,0:0:0
68,160,90792,1,0,0:0:0
88,192,90867,1,8,0:0:0
324,256,91017,6,0,B|360:204|424:212|424:212|484:184|476:104,1,240,4|0,0:0|0:0,0:0:0
404,304,91467,1,8,0:0:0
288,168,91617,2,0,B|244:144|192:156|192:156|152:192|152:192|108:216|68:192,1,240,4|0,0:0|0:0,0:0:0
40,168,91992,1,0,0:0:0
24,136,92067,1,8,0:0:0
148,60,92217,6,0,B|200:96|192:156|192:156|168:224|212:276,1,240,4|0,0:0|0:0,0:0:0
308,352,92667,1,8,0:0:0
96,308,92817,1,0,0:0:0
328,244,92967,2,0,B|384:204|368:140,1,120
300,40,93267,1,8,0:0:0
500,64,93417,6,0,B|488:100|452:120|452:120|504:180|480:276,1,240,4|0,0:0|0:0,0:0:0
308,352,93867,1,8,0:0:0
368,140,94017,1,0,0:0:0
480,276,94167,5,0,0:0:0
256,288,94317,1,0,0:0:0
204,320,94392,1,0,0:0:0
152,352,94467,1,8,0:0:0
4,244,94617,2,0,B|-4:188|36:144|36:144|84:144|124:108|124:60,1,240,4|0,0:0|0:0,0:0:0
256,288,95067,2,0,B|200:246|224:181,1,120,8|4,0:0|0:0,0:0:0
400,32,95367,6,0,B|423:96|368:138,1,120,0|0,0:0|0:0,0:0:0
320,148,95592,1,0,0:0:0
276,132,95667,1,8,0:0:0
400,32,95817,1,4,0:0:0
504,164,95967,6,0,B|449:206|472:270,1,120,0|0,0:0|0:0,0:0:0
488,304,96192,1,0,0:0:0
512,332,96267,1,8,0:0:0
360,256,96417,1,0,0:0:0
296,356,96567,5,8,0:0:0
368,244,96717,1,0,0:0:0
320,212,96792,1,0,0:0:0
272,180,96867,1,8,0:0:0
80,192,97017,6,0,B|26:223|40:299|40:299|113:310|147:259,1,240,4|0,0:0|0:0,0:0:0
136,120,97467,1,8,0:0:0
168,348,97617,5,0,0:0:0
204,316,97692,1,0,0:0:0
228,272,97767,1,0,0:0:0
224,104,97917,1,0,0:0:0
80,192,98067,1,8,0:0:0
336,308,98217,6,0,B|396:316|448:288|448:288|424:260|424:260|464:244|476:192,1,240,4|0,0:0|0:0,0:0:0
480,72,98667,1,8,0:0:0
324,132,98817,1,0,0:0:0
336,308,98967,5,0,0:0:0
204,252,99117,1,0,0:0:0
164,280,99192,1,0,0:0:0
124,308,99267,1,8,0:0:0
20,180,99417,6,0,B|16:156|24:128|24:128|80:120|88:64|88:64|128:40|176:48,1,240,4|0,0:0|0:0,0:0:0
204,252,99867,2,0,B|152:216|160:148,1,120,8|0,0:0|0:0,0:0:0
448,116,100167,2,0,B|392:74|335:101,1,120
292,124,100392,1,0,0:0:0
264,164,100467,1,8,0:0:0
316,336,100617,6,0,B|348:344|376:340|376:340|372:312|392:288|392:288|432:300|480:276|488:232,1,240,4|0,0:0|0:0,0:0:0
292,124,101067,1,8,0:0:0
0,296,101217,2,0,B|56:284|64:224|64:224|64:148|140:120,1,240,4|0,0:0|0:0,0:0:0
176,152,101592,1,0,0:0:0
212,180,101667,1,8,0:0:0
136,304,101817,6,0,B|84:284|56:220|56:220|56:192|72:164|72:164|44:152|36:116,1,240,4|0,0:0|0:0,0:0:0
160,44,102267,1,8,0:0:0
212,180,102417,5,0,0:0:0
256,200,102492,1,0,0:0:0
304,196,102567,1,0,0:0:0
476,96,102717,1,0,0:0:0
428,92,102792,1,0,0:0:0
384,112,102867,1,8,0:0:0
348,300,103017,6,0,B|364:362|432:373|483:322|472:254|410:237,1,240,4|0,0:0|0:0,0:0:0
256,304,103467,1,8,0:0:0
124,248,103617,1,0,0:0:0
164,220,103692,1,0,0:0:0
204,192,103767,1,0,0:0:0
160,348,103917,5,0,0:0:0
32,284,104067,1,8,0:0:0
64,120,104217,2,0,B|104:44|192:20|272:56,1,240,4|0,0:0|0:0,0:0:0
476,192,104667,5,8,0:0:0
472,144,104742,1,0,0:0:0
432,116,104817,1,0,0:0:0
384,124,104892,1,0,0:0:0
356,164,104967,5,0,0:0:0
352,212,105042,1,0,0:0:0
368,256,105117,1,0,0:0:0
364,304,105192,1,0,0:0:0
328,336,105267,5,8,0:0:0
280,340,105342,1,8,0:0:0
240,312,105417,1,0,0:0:0
56,124,105567,6,0,B|120:132|144:196,1,120,8|8,0:0|0:0,0:0:0
120,288,105867,2,0,B|56:280|32:216,1,120,0|8,0:0|0:0,0:0:0
44,172,106092,1,0,0:0:0
56,124,106167,5,8,0:0:0
148,48,106317,1,8,0:0:0
268,36,106467,1,8,0:0:0
380,76,106617,1,8,0:0:0
452,172,106767,5,4,0:0:0
212,284,108567,6,0,B|176:368,2,90.0000034332277,8|0|8,0:0|0:0|0:0,0:0:0
248,200,109017,1,0,0:0:0
300,272,109167,6,0,B|212:284|212:284|124:268|104:192,2,240,12|12|8,0:0|0:0|0:0,0:0:0
412,224,109917,1,0,0:0:0
316,152,110067,1,12,0:0:0
300,272,110217,5,2,0:0:0
328,292,110292,1,0,0:0:0
356,312,110367,1,8,0:0:0
512,180,110517,1,6,0:0:0
472,152,110592,1,0,0:0:0
432,124,110667,2,0,B|408:104|408:76|408:76|384:56|348:52,1,120,8|0,0:0|0:0,0:0:0
300,272,110967,2,0,B|372:268|400:216,1,120,8|0,0:0|0:0,0:0:0
256,72,111267,5,8,0:0:0
216,96,111342,1,0,0:0:0
192,136,111417,1,0,0:0:0
192,184,111492,1,0,0:0:0
212,228,111567,2,0,B|196:272|208:308|208:308|152:372|64:332,1,240,8|0,0:0|0:0,0:0:0
20,56,112017,2,0,B|40:116|116:136|116:136|152:100|216:96,1,240,8|0,0:0|0:0,0:0:0
444,168,112467,2,0,B|388:204|328:188,1,120,8|4,0:0|0:0,0:0:0
352,44,112767,5,0,0:0:0
380,68,112842,1,0,0:0:0
412,84,112917,1,0,0:0:0
448,88,112992,1,2,0:0:0
484,84,113067,1,8,0:0:0
480,252,113217,1,0,0:0:0
360,332,113367,2,0,B|296:324|260:272,1,120,8|0,0:0|0:0,0:0:0
252,104,113667,2,0,B|316:112|352:164,1,120
360,332,113967,5,8,0:0:0
224,376,114117,1,0,0:0:0
64,328,114267,1,0,0:0:0
16,144,114417,2,0,B|60:100|124:100,2,120,8|0|0,0:0|0:0|0:0,0:0:0
104,228,114867,5,8,0:0:0
196,132,115017,1,4,0:0:0
288,36,115167,1,0,0:0:0
320,48,115242,1,0,0:0:0
356,60,115317,1,0,0:0:0
396,88,115392,1,2,0:0:0
436,116,115467,2,0,B|476:160|476:160|492:224,1,120,8|0,0:0|0:0,0:0:0
248,348,115767,6,0,B|252:328|252:328|292:284,1,80,8|0,0:0|0:0,0:0:0
348,224,115967,2,0,B|344:204|344:204|304:160,1,80,0|2,0:0|0:0,0:0:0
248,100,116167,2,0,B|244:120|244:120|204:164,1,80,0|2,0:0|0:0,0:0:0
148,220,116367,6,0,B|152:240|152:240|188:281|188:281|168:336|96:348|52:304,2,240,8|8|8,0:0|0:0|0:0,0:0:0
152,100,117117,1,0,0:0:0
44,156,117267,1,0,0:0:0
148,220,117417,6,0,B|208:208|208:208|256:172,1,120,2|0,0:0|0:0,0:0:0
448,136,117717,2,0,B|388:148|388:148|340:184,1,120,8|0,0:0|0:0,0:0:0
324,352,118017,1,0,0:0:0
476,284,118167,1,8,0:0:0
340,183,118317,5,0,0:0:0
332,304,118467,1,0,0:0:0
440,252,118617,1,2,0:0:0
224,356,118767,6,0,B|160:380|112:336|112:336|88:268|20:276,1,240,8|8,0:0|0:0,0:0:0
104,192,119217,1,0,0:0:0
236,212,119367,6,0,B|248:144|196:104,1,120,8|0,0:0|0:0,0:0:0
92,44,119667,1,0,0:0:0
68,68,119742,1,0,0:0:0
44,92,119817,1,2,0:0:0
112,336,119967,6,0,B|164:380|225:355,1,120,8|0,0:0|0:0,0:0:0
356,296,120267,1,0,0:0:0
380,312,120342,1,0,0:0:0
404,328,120417,1,2,0:0:0
440,60,120567,6,0,B|375:83|366:148,1,120,8|2,0:0|0:0,0:0:0
236,212,120867,1,0,0:0:0
264,172,120942,1,0,0:0:0
280,128,121017,1,0,0:0:0
276,80,121092,1,0,0:0:0
256,36,121167,6,0,B|200:32|200:32|140:52,1,120,8|0,0:0|0:0,0:0:0
24,88,121467,1,0,0:0:0
120,196,121617,2,0,B|180:216|180:216|236:212,1,120,8|0,0:0|0:0,0:0:0
356,196,121917,1,0,0:0:0
472,280,122067,2,0,B|416:276|416:276|356:296,1,120,8|4,0:0|0:0,0:0:0
224,356,122367,5,0,0:0:0
180,332,122442,1,0,0:0:0
140,308,122517,1,0,0:0:0
100,284,122592,1,2,0:0:0
60,260,122667,2,0,B|16:216|44:148,1,120,8|0,0:0|0:0,0:0:0
452,124,122967,2,0,B|496:168|468:236,1,120,8|0,0:0|0:0,0:0:0
120,196,123267,6,0,B|124:132|188:104,2,120,0|0|8,0:0|0:0|0:0,0:0:0
240,216,123717,1,0,0:0:0
308,116,123867,1,0,0:0:0
60,260,124017,5,8,0:0:0
200,296,124167,1,0,0:0:0
348,216,124317,1,0,0:0:0
112,344,124467,5,8,0:0:0
300,304,124617,1,4,0:0:0
172,160,124767,6,0,B|140:112|140:112|152:48,1,120,8|0,0:0|0:0,0:0:0
436,80,125067,2,0,B|468:128|468:128|456:192,1,120
416,328,125367,5,4,0:0:0
300,304,125517,1,0,0:0:0
184,280,125667,1,0,0:0:0
68,256,125817,1,0,0:0:0
276,132,125967,5,4,0:0:0
236,252,129567,5,0,0:0:0
236,252,129867,5,0,0:0:0
208,256,129942,1,0,0:0:0
180,260,130017,1,0,0:0:0
152,264,130092,1,0,0:0:0
124,268,130167,6,8,B|64:256,3,60
16,144,130467,2,4,B|76:132,3,60
180,76,130767,6,0,B|228:56|272:72|272:72|312:48|356:52,1,180.000006866455,4|2,0:0|0:0,0:0:0
476,88,131217,1,0,0:0:0
404,192,131367,2,0,B|356:212|312:196|312:196|272:220|228:216,1,180.000006866455,2|2,0:0|0:0,0:0:0
124,188,131817,1,2,0:0:0
200,112,131967,1,0,0:0:0
256,320,132117,5,0,0:0:0
232,332,132192,1,0,0:0:0
208,344,132267,1,2,0:0:0
68,320,132417,1,0,0:0:0
124,188,132567,1,8,0:0:0
412,184,132867,5,0,0:0:0
348,352,133017,1,0,0:0:0
444,304,133167,6,0,B|480:280,2,45.0000017166138,2|0|0,0:0|0:0|0:0,0:0:0
348,352,133467,1,2,0:0:0
256,296,133617,1,0,0:0:0
168,236,133767,2,0,B|132:260,2,45.0000017166138,2|0|2,0:0|0:0|0:0,0:0:0
292,160,134067,1,2,0:0:0
412,84,134217,1,2,0:0:0
496,244,134367,6,0,B|452:288|376:288|332:244,1,180.000006866455,4|0,0:0|0:0,0:0:0
256,84,134667,2,0,B|212:40|136:40|92:84,1,180.000006866455,4|0,0:0|0:0,0:0:0
4,236,134967,6,0,B|48:280|124:280|168:236,1,180.000006866455,8|4,0:0|0:0,0:0:0
232,172,135417,1,0,0:0:0
256,84,135567,6,0,B|304:56|368:48|368:48|428:64|472:108,1,240,4|8,0:0|0:0,0:0:0
348,316,136017,2,0,B|288:292|276:188|372:156|424:192,1,240
468,304,136467,1,8,0:0:0
228,324,136617,2,0,B|204:280|212:228|212:228|180:168|92:164,1,240
0,304,137067,1,8,0:0:0
116,280,137217,2,0,B|168:268|212:232|212:232|216:160|288:132,1,240
320,124,137592,1,0,0:0:0
356,124,137667,2,0,B|424:132|460:80,1,120,8|0,0:0|0:0,0:0:0
284,320,137967,6,0,B|308:240|396:196|480:224,1,240,0|8,0:0|0:0,0:0:0
388,368,138417,2,0,B|324:368|284:320|284:320|220:296|164:320,1,240
24,356,138867,1,8,0:0:0
196,192,139017,2,0,B|256:136|356:136|412:200,1,240
432,232,139392,1,0,0:0:0
444,268,139467,1,8,0:0:0
464,32,139617,2,0,B|428:80|364:76|364:76|320:56|320:56|280:52|240:64,1,240
196,80,139992,1,0,0:0:0
152,96,140067,1,8,0:0:0
72,236,140217,5,0,0:0:0
52,192,140292,1,0,0:0:0
32,148,140367,2,0,B|12:84|40:28,1,120,4|0,0:0|0:0,0:0:0
480,236,140667,2,0,B|500:300|472:356,1,120,8|0,0:0|0:0,0:0:0
196,80,140967,2,0,B|241:30|303:26,1,120,8|0,0:0|0:0,0:0:0
316,304,141267,2,0,B|271:354|209:358,1,120,8|0,0:0|0:0,0:0:0
376,88,141567,5,0,0:0:0
480,236,141717,1,0,0:0:0
316,304,141867,1,8,0:0:0
252,176,142017,1,0,0:0:0
396,184,142167,1,0,0:0:0
316,304,142317,1,0,0:0:0
172,296,142467,2,0,B|108:288|72:236,1,120,8|0,0:0|0:0,0:0:0
60,200,142692,1,0,0:0:0
52,164,142767,6,0,B|60:100|112:63,1,120
228,36,143067,1,8,0:0:0
336,88,143217,1,0,0:0:0
500,324,143367,5,0,0:0:0
416,208,143517,1,0,0:0:0
304,316,143667,1,8,0:0:0
208,180,143817,1,0,0:0:0
72,300,143967,5,4,0:0:0
40,264,144042,1,0,0:0:0
24,220,144117,1,0,0:0:0
32,172,144192,1,0,0:0:0
60,132,144267,1,8,0:0:0
100,108,144342,1,0,0:0:0
116,140,144417,5,4,0:0:0
168,160,144492,1,0,0:0:0
224,160,144567,1,0,0:0:0
276,144,144642,1,0,0:0:0
316,108,144717,1,8,0:0:0
340,60,144792,1,0,0:0:0
308,48,144867,5,4,0:0:0
316,108,144942,1,0,0:0:0
352,156,145017,1,8,0:0:0
408,180,145092,1,0,0:0:0
468,180,145167,5,4,0:0:0
460,196,145242,1,0,0:0:0
452,212,145317,1,0,0:0:0
444,228,145392,1,0,0:0:0
436,244,145467,1,8,0:0:0
428,260,145542,1,0,0:0:0
420,276,145617,1,8,0:0:0
412,292,145692,1,0,0:0:0
404,308,145767,2,4,B|348:328,3,60
276,348,146067,5,8,0:0:0
112,316,146217,2,0,B|64:288|64:236|64:236|100:216|100:216|136:180|128:120,1,240,4|0,0:0|0:0,0:0:0
36,44,146667,1,8,0:0:0
224,196,146817,1,0,0:0:0
336,108,146967,2,0,B|388:76|452:84,1,120
504,268,147267,1,8,0:0:0
384,348,147417,2,0,B|320:356|272:324|272:324|288:260|348:228,1,240,4|0,0:0|0:0,0:0:0
504,268,147867,5,8,0:0:0
384,348,148017,1,0,0:0:0
216,368,148167,2,0,B|160:336|144:276,1,120
140,228,148392,1,0,0:0:0
152,180,148467,1,8,0:0:0
432,48,148617,6,0,B|488:80|464:144|464:144|408:108|340:128,1,240,4|0,0:0|0:0,0:0:0
140,228,149067,2,0,B|196:248|196:248|256:244,1,120,8|0,0:0|0:0,0:0:0
292,240,149292,1,0,0:0:0
328,236,149367,1,0,0:0:0
208,84,149517,1,0,0:0:0
160,76,149592,1,0,0:0:0
112,68,149667,1,8,0:0:0
24,268,149817,6,0,B|48:344|128:352|128:352|160:316|216:320,1,240,4|0,0:0|0:0,0:0:0
380,368,150267,1,8,0:0:0
484,236,150417,2,0,B|460:160|380:152|380:152|348:188|292:184,1,240,4|0,0:0|0:0,0:0:0
244,180,150792,1,0,0:0:0
200,160,150867,1,8,0:0:0
88,32,151017,6,0,B|24:52|8:112|8:112|40:164|112:164,1,240,4|0,0:0|0:0,0:0:0
264,96,151467,1,8,0:0:0
400,192,151617,1,0,0:0:0
248,264,151767,1,0,0:0:0
264,96,151917,1,0,0:0:0
308,76,151992,1,0,0:0:0
352,56,152067,1,8,0:0:0
492,148,152217,6,0,B|512:208|480:252|480:252|436:316|476:376,1,240,4|0,0:0|0:0,0:0:0
248,264,152667,1,8,0:0:0
168,356,152817,1,0,0:0:0
356,316,152967,2,0,B|380:256|348:200,1,120
324,172,153192,1,0,0:0:0
292,152,153267,1,8,0:0:0
60,312,153417,6,0,B|16:268|32:204|32:204|64:168|64:168|40:144|40:100,1,240,4|0,0:0|0:0,0:0:0
200,40,153867,1,8,0:0:0
172,64,153942,1,0,0:0:0
144,88,154017,1,4,0:0:0
356,316,154167,2,0,B|288:324|256:264,1,120,0|0,0:0|0:0,0:0:0
408,144,154467,1,8,0:0:0
436,168,154542,1,0,0:0:0
464,192,154617,1,4,0:0:0
344,44,154767,6,0,B|304:60|304:60|288:80|288:80|240:100,1,120,0|0,0:0|0:0,0:0:0
56,156,155067,1,8,0:0:0
196,288,155217,1,0,0:0:0
216,260,155292,1,0,0:0:0
236,232,155367,1,8,0:0:0
20,260,155517,1,0,0:0:0
48,300,155592,1,0,0:0:0
76,340,155667,1,8,0:0:0
120,96,155817,6,0,B|168:60|168:60|228:64|228:64|276:40|344:44,1,240,4|0,0:0|0:0,0:0:0
496,280,156267,2,0,B|436:292|388:244,1,120,8|0,0:0|0:0,0:0:0
344,44,156567,5,0,0:0:0
444,164,156717,1,0,0:0:0
416,204,156792,1,0,0:0:0
388,244,156867,1,8,0:0:0
172,348,157017,6,0,B|108:336|112:272|112:272|96:224|32:236|24:180,1,240,4|0,0:0|0:0,0:0:0
388,244,157467,1,8,0:0:0
172,348,157617,1,0,0:0:0
316,368,157767,2,0,B|324:304|284:256,1,120
252,220,157992,1,0,0:0:0
212,192,158067,1,8,0:0:0
40,68,158217,6,0,B|56:100|96:112|96:112|188:132|248:64,1,240,4|0,0:0|0:0,0:0:0
472,80,158667,2,0,B|412:68|356:100,1,120,8|0,0:0|0:0,0:0:0
328,124,158892,1,0,0:0:0
304,152,158967,1,0,0:0:0
376,332,159117,1,0,0:0:0
408,296,159192,1,0,0:0:0
440,260,159267,1,8,0:0:0
168,240,159417,6,0,B|100:284|140:376|232:380|256:304,1,240,4|0,0:0|0:0,0:0:0
256,160,159867,1,8,0:0:0
100,44,160017,2,0,B|88:76|88:112|88:112|16:156|0:252,1,240,4|0,0:0|0:0,0:0:0
4,300,160392,1,0,0:0:0
12,348,160467,1,8,0:0:0
320,364,160617,6,0,B|356:320|348:264|348:264|348:192|408:152,1,240,4|0,0:0|0:0,0:0:0
436,364,161067,2,0,B|376:388|320:364,1,120,8|0,0:0|0:0,0:0:0
188,300,161367,1,0,0:0:0
120,172,161517,1,0,0:0:0
148,132,161592,1,0,0:0:0
176,92,161667,1,8,0:0:0
292,248,161817,6,0,B|252:296|188:300|188:300|132:268|72:272,1,240,4|0,0:0|0:0,0:0:0
176,92,162267,2,0,B|228:124|300:120,1,120,8|0,0:0|0:0,0:0:0
324,108,162492,1,0,0:0:0
356,96,162567,1,0,0:0:0
508,252,162717,1,0,0:0:0
464,232,162792,1,0,0:0:0
420,212,162867,1,8,0:0:0
196,356,163017,6,0,B|260:360|304:308|304:308|292:252|228:224,1,240,4|0,0:0|0:0,0:0:0
180,212,163392,1,0,0:0:0
132,212,163467,1,8,0:0:0
52,332,163617,1,0,0:0:0
196,356,163767,5,0,0:0:0
232,352,163842,1,0,0:0:0
268,340,163917,1,8,0:0:0
296,320,163992,1,0,0:0:0
320,292,164067,1,8,0:0:0
336,260,164142,1,0,0:0:0
340,224,164217,1,0,0:0:0
132,212,164367,6,0,B|72:204|48:136,1,120
40,88,164592,1,0,0:0:0
48,40,164667,1,4,0:0:0
240,32,164817,1,0,0:0:0
416,108,164967,5,8,0:0:0
456,136,165042,1,8,0:0:0
488,172,165117,1,0,0:0:0
508,216,165192,1,8,0:0:0
508,264,165267,1,0,0:0:0
492,308,165342,1,0,0:0:0
464,348,165417,1,0,0:0:0
416,360,165492,1,0,0:0:0
368,348,165567,6,0,B|324:272|212:276,1,180.000006866455,6|0,0:0|0:0,0:0:0
44,332,166167,1,2,0:0:0
80,156,166467,5,8,0:0:0
196,224,166617,1,4,0:0:0
252,100,166767,1,2,0:0:0
236,92,166842,1,0,0:0:0
220,84,166917,1,0,0:0:0
204,76,166992,1,2,0:0:0
188,68,167067,1,0,0:0:0
80,48,167217,1,2,0:0:0
80,156,167367,6,0,B|140:216|248:188,1,180.000006866455,4|0,0:0|0:0,0:0:0
392,80,167967,1,2,0:0:0
392,80,168042,1,0,0:0:0
392,80,168117,1,2,0:0:0
412,260,168267,5,8,0:0:0
280,204,168417,1,4,0:0:0
296,348,168567,1,2,0:0:0
412,260,168717,1,0,0:0:0
280,204,168867,2,0,B|236:200|200:236|200:236|160:260|112:244,1,180.000006866455,0|8,0:0|0:0,0:0:0
4,100,169467,5,2,0:0:0
184,80,169767,1,4,0:0:0
112,244,170067,1,8,0:0:0
256,356,170367,5,2,0:0:0
276,336,170442,1,0,0:0:0
296,316,170517,1,2,0:0:0
316,296,170592,1,0,0:0:0
336,276,170667,1,4,0:0:0
432,168,170817,1,2,0:0:0
476,304,170967,5,8,0:0:0
196,248,171117,1,4,0:0:0
316,208,171267,5,2,0:0:0
304,196,171342,1,0,0:0:0
292,184,171417,1,0,0:0:0
192,80,171567,1,4,0:0:0
332,44,171717,1,2,0:0:0
80,168,171867,6,0,B|44:136|48:88,1,90.0000034332277,8|4,0:0|0:0,0:0:0
52,68,172092,1,0,0:0:0
60,52,172167,1,2,0:0:0
196,248,172317,2,0,B|186:295|142:315,1,90.0000034332277,8|4,0:0|0:0,0:0:0
123,322,172542,1,0,0:0:0
105,323,172617,1,2,0:0:0
208,104,172767,6,0,B|184:64,2,45.0000017166138,8|0|0,0:0|0:0|0:0,0:0:0
256,200,173067,1,4,0:0:0
456,116,173367,1,2,0:0:0
428,332,173667,2,0,B|404:292|416:244,1,90.0000034332277,8|4,0:0|0:0,0:0:0
336,172,173967,5,2,0:0:0
344,200,174042,1,0,0:0:0
344,228,174117,1,0,0:0:0
340,256,174192,1,2,0:0:0
328,280,174267,1,0,0:0:0
212,364,174417,1,2,0:0:0
80,304,174567,6,0,B|76:264|99:230|138:224|138:224|158:195|152:156,1,180.000006866455,8|4,0:0|0:0,0:0:0
108,56,175017,1,2,0:0:0
44,144,175167,1,0,0:0:0
268,32,175467,6,0,B|224:56|228:100|228:100|260:136|256:192,1,180.000006866455,8|2,0:0|0:0,0:0:0
228,312,175917,1,0,0:0:0
348,276,176067,2,0,B|408:252|428:184|412:120,1,180.000006866455,4|8,0:0|0:0,0:0:0
256,32,176667,5,0,0:0:0
80,72,176967,1,2,0:0:0
36,284,177267,5,8,0:0:0
128,340,177417,1,0,0:0:0
236,328,177567,1,2,0:0:0
244,312,177642,1,0,0:0:0
252,296,177717,1,4,0:0:0
356,228,177867,1,0,0:0:0
476,264,178017,1,2,0:0:0
376,368,178167,1,8,0:0:0
128,224,178467,5,0,0:0:0
112,200,178542,1,0,0:0:0
108,172,178617,1,8,0:0:0
116,144,178692,1,0,0:0:0
136,124,178767,1,8,0:0:0
144,96,178842,1,0,0:0:0
140,68,178917,1,0,0:0:0
32,76,179067,5,8,0:0:0
220,184,179367,1,8,0:0:0
408,292,179667,5,8,0:0:0
396,96,179817,1,0,0:0:0
396,96,179967,1,4,0:0:0
364,312,184767,5,4,0:0:0
156,256,185067,1,0,0:0:0
208,348,185217,1,0,0:0:0
100,348,185367,2,0,B|56:324|52:276,1,90.0000034332277,8|0,0:0|0:0,0:0:0
204,184,185667,2,0,B|200:232|156:256,1,90.0000034332277,4|4,0:0|0:0,0:0:0
60,172,185967,5,0,0:0:0
140,76,186117,1,4,0:0:0
256,32,186267,1,0,0:0:0
272,56,186342,1,0,0:0:0
288,80,186417,1,0,0:0:0
356,184,186567,6,0,B|420:204|484:168|492:100,1,180.000006866455,8|0,0:0|0:0,0:0:0
288,80,187017,1,0,0:0:0
212,216,187167,2,0,B|192:280|228:344|296:352,1,180.000006866455,4|0,0:0|0:0,0:0:0
472,40,187767,5,8,0:0:0
356,184,187917,1,8,0:0:0
272,48,188067,1,4,0:0:0
164,140,188217,1,12,0:0:0
40,104,188367,2,0,B|16:140|24:192,1,90.0000034332277,2|0,0:0|0:0,0:0:0
256,352,188667,2,0,B|264:300|240:264,1,90.0000034332277,2|0,0:0|0:0,0:0:0
476,68,188967,6,0,B|460:112|492:136|472:188,1,120
208,44,189567,6,0,B|196:104|228:156|228:156|280:124|348:136,1,240,8|0,0:0|0:0,0:0:0
256,364,190017,2,0,B|192:376|140:344,1,120,8|0,0:0|0:0,0:0:0
20,264,190317,1,0,0:0:0
148,200,190467,1,8,0:0:0
140,344,190617,1,4,0:0:0
4,120,190767,5,0,0:0:0
44,96,190842,1,0,0:0:0
84,72,190917,1,0,0:0:0
128,56,190992,1,2,0:0:0
172,40,191067,2,0,B|232:32|284:72,1,120,8|0,0:0|0:0,0:0:0
336,300,191367,2,0,B|299:252|307:187,1,120,8|0,0:0|0:0,0:0:0
480,32,191667,2,0,B|456:87|396:112,1,120
184,228,191967,5,8,0:0:0
336,300,192117,2,0,B|400:300|400:300|452:276,1,120
176,156,192417,5,8,0:0:0
464,268,192567,2,0,B|487:217|487:217|487:153,1,120
316,76,192867,2,0,B|292:126|292:126|292:190,1,120,8|4,0:0|0:0,0:0:0
196,328,193167,5,0,0:0:0
156,356,193242,1,0,0:0:0
108,360,193317,1,0,0:0:0
64,340,193392,1,2,0:0:0
36,300,193467,2,0,B|12:244|48:184,1,120,8|0,0:0|0:0,0:0:0
472,196,193767,6,0,B|472:236|444:268,1,80,8|0,0:0|0:0,0:0:0
336,300,193967,2,0,B|336:260|364:228,1,80,0|2,0:0|0:0,0:0:0
396,136,194167,2,0,B|396:96|368:64,1,80,0|2,0:0|0:0,0:0:0
292,32,194367,5,8,0:0:0
412,348,194667,1,8,0:0:0
80,292,194967,1,8,0:0:0
200,212,195117,1,0,0:0:0
208,356,195267,1,0,0:0:0
80,292,195417,6,0,B|48:264|48:264|48:240|48:240|20:196,1,120,2|0,0:0|0:0,0:0:0
68,60,195717,1,8,0:0:0
212,72,195867,2,0,B|244:100|244:100|244:124|244:124|272:168,1,120
304,336,196167,6,0,B|364:336|364:336|416:308,1,120,8|0,0:0|0:0,0:0:0
472,92,196467,2,0,B|412:92|412:92|360:120,1,120,0|2,0:0|0:0,0:0:0
316,144,196692,1,0,0:0:0
272,168,196767,2,0,B|204:172|168:120|168:120|192:56|252:44,1,240,8|8,0:0|0:0,0:0:0
208,320,197367,6,0,B|148:316|104:268,1,120,8|0,0:0|0:0,0:0:0
304,236,197667,1,0,0:0:0
352,244,197742,1,0,0:0:0
392,268,197817,1,2,0:0:0
208,336,197967,6,0,B|144:328|92:276,1,132.00000402832,8|0,0:0|0:0,0:0:0
324,168,198267,1,0,0:0:0
376,176,198342,1,0,0:0:0
424,200,198417,1,2,0:0:0
208,356,198567,6,0,B|136:344|80:292,1,143.999995605469,8|2,0:0|0:0,0:0:0
292,104,198867,1,0,0:0:0
348,96,198942,1,0,0:0:0
404,108,199017,1,0,0:0:0
456,132,199092,1,0,0:0:0
492,176,199167,6,0,B|424:200|424:200|376:240|384:308|440:340,1,240,8|0,0:0|0:0,0:0:0
296,140,199617,2,0,B|311:74|251:38,1,120,8|0,0:0|0:0,0:0:0
204,228,199917,1,0,0:0:0
68,184,200067,2,0,B|8:148|23:82,1,120,8|4,0:0|0:0,0:0:0
204,228,200367,5,0,0:0:0
232,268,200442,1,0,0:0:0
224,316,200517,1,0,0:0:0
188,348,200592,1,2,0:0:0
140,344,200667,1,8,0:0:0
324,168,200817,1,0,0:0:0
204,228,200967,5,8,0:0:0
432,308,201117,1,0,0:0:0
388,72,201267,5,0,0:0:0
280,168,201417,1,0,0:0:0
416,212,201567,2,0,B|476:196|484:124,1,120,8|0,0:0|0:0,0:0:0
388,72,201867,1,0,0:0:0
268,232,202017,2,0,B|251:291|310:334,1,120,8|0,0:0|0:0,0:0:0
432,308,202317,1,0,0:0:0
324,96,202467,2,0,B|280:52|213:81,1,120,8|4,0:0|0:0,0:0:0
148,264,202767,5,8,0:0:0
32,240,202917,1,0,0:0:0
4,124,203067,1,0,0:0:0
120,148,203217,1,8,0:0:0
148,264,203367,5,0,0:0:0
268,212,203517,1,4,0:0:0
344,332,203667,1,0,0:0:0
488,268,203817,1,4,0:0:0
336,312,203967,6,0,B|292:304|256:328|256:328|192:356|140:316|148:264,1,240,4|8,0:0|0:0,0:0:0
256,96,204417,2,0,B|316:116|324:176|324:176|388:216|440:156,1,240,0|0,0:0|0:0,0:0:0
372,32,204867,1,8,0:0:0
136,148,205017,2,0,B|76:132|76:132|20:88,1,120
80,272,205317,2,0,B|140:288|140:288|196:332,1,120,0|8,0:0|0:0,0:0:0
324,276,205617,2,0,B|360:224|428:224,2,120,0|0|0,0:0|0:0|0:0,0:0:0
424,344,206067,5,8,0:0:0
504,256,206217,1,0,0:0:0
512,136,206367,2,0,B|468:96|404:92|360:124|360:124|320:124|296:88,1,240,0|8,0:0|0:0,0:0:0
56,100,206817,1,0,0:0:0
172,64,206967,1,0,0:0:0
232,180,207117,1,0,0:0:0
96,224,207267,1,8,0:0:0
88,356,207417,6,0,B|148:376|204:344,1,120
308,244,207717,2,0,B|368:224|424:256,1,120,0|8,0:0|0:0,0:0:0
356,356,208017,1,0,0:0:0
280,248,208167,1,8,0:0:0
256,208,208242,1,0,0:0:0
248,160,208317,1,0,0:0:0
256,112,208392,1,0,0:0:0
276,68,208467,1,8,0:0:0
472,40,208617,5,0,0:0:0
460,88,208692,1,0,0:0:0
448,136,208767,2,0,B|444:196|444:196|472:252,1,120,8|0,0:0|0:0,0:0:0
316,360,209067,2,0,B|320:300|320:300|292:244,1,120,8|0,0:0|0:0,0:0:0
196,24,209367,6,0,B|192:84|192:84|220:140,1,120,8|0,0:0|0:0,0:0:0
80,332,209667,2,0,B|133:305|133:305|168:253,1,120,8|0,0:0|0:0,0:0:0
404,284,209967,6,0,B|354:250|354:250|291:246,1,120
57,216,210267,2,0,B|107:250|107:250|167:254,1,120,8|0,0:0|0:0,0:0:0
202,42,210567,2,0,B|142:46|142:46|92:80,1,120
324,156,210867,1,8,0:0:0
368,180,210942,1,0,0:0:0
416,184,211017,1,0,0:0:0
460,168,211092,1,0,0:0:0
496,136,211167,5,4,0:0:0
400,64,211317,1,0,0:0:0
324,156,211467,1,8,0:0:0
324,156,211617,1,0,0:0:0
424,288,211767,5,0,0:0:0
280,376,211917,1,0,0:0:0
180,240,212067,1,8,0:0:0
180,240,212217,1,0,0:0:0
36,324,212367,5,4,0:0:0
324,156,212517,1,0,0:0:0
324,156,212592,1,8,0:0:0
48,48,212817,5,0,0:0:0
280,376,212967,1,0,0:0:0
280,376,213042,1,8,0:0:0
500,140,213267,5,8,0:0:0
376,212,213417,1,4,0:0:0
248,144,213567,2,0,B|268:84|320:52,1,120,8|0,0:0|0:0,0:0:0
216,320,213867,2,0,B|268:288|288:228,1,120,8|0,0:0|0:0,0:0:0
20,196,214167,1,8,0:0:0
216,320,214317,1,8,0:0:0
72,328,214467,1,0,0:0:0
224,168,214617,6,0,B|276:148|320:180|320:180|396:208|452:156,1,240,4|0,0:0|0:0,0:0:0
368,68,215067,1,8,0:0:0
264,240,215217,1,0,0:0:0
180,92,215367,2,0,B|120:80|64:112,1,120
32,144,215592,1,0,0:0:0
8,184,215667,1,8,0:0:0
76,364,215817,6,0,B|144:356|168:284|168:284|200:240|264:240,1,240,4|0,0:0|0:0,0:0:0
448,344,216267,2,0,B|384:352|336:308,1,120,8|0,0:0|0:0,0:0:0
240,144,216567,1,0,0:0:0
432,140,216717,1,0,0:0:0
464,104,216792,1,0,0:0:0
496,68,216867,1,8,0:0:0
312,76,217017,6,0,B|316:112|340:128|340:128|336:192|388:240|456:232,1,240,4|0,0:0|0:0,0:0:0
172,336,217467,2,0,B|152:276|196:224,1,120,8|0,0:0|0:0,0:0:0
220,200,217692,1,0,0:0:0
252,180,217767,1,0,0:0:0
32,192,217917,1,0,0:0:0
60,232,217992,1,0,0:0:0
76,276,218067,1,8,0:0:0
120,124,218217,6,0,B|136:64|180:32|180:32|224:80|300:64,1,240,4|0,0:0|0:0,0:0:0
416,44,218667,1,8,0:0:0
504,192,218817,2,0,B|456:200|416:168|416:168|384:208|336:208|336:208|304:256,1,240,4|0,0:0|0:0,0:0:0
288,296,219192,1,0,0:0:0
268,340,219267,1,8,0:0:0
408,300,219417,6,0,B|356:288|356:288|308:252|308:252|252:220|184:232,1,240,4|0,0:0|0:0,0:0:0
56,300,219867,1,8,0:0:0
268,340,220017,1,0,0:0:0
148,116,220167,2,0,B|108:72|36:64,1,120
104,224,220467,1,8,0:0:0
256,156,220617,6,0,B|312:136|336:88|336:88|368:104|368:104|416:88|464:112,1,240,4|0,0:0|0:0,0:0:0
432,372,221067,1,8,0:0:0
224,80,221217,1,0,0:0:0
504,248,221367,1,0,0:0:0
292,232,221517,1,0,0:0:0
260,268,221592,1,0,0:0:0
228,304,221667,1,8,0:0:0
16,220,221817,6,0,B|48:224|64:256|52:280|52:280|24:308|68:356|124:344|144:284,1,240,4|0,0:0|0:0,0:0:0
128,96,222267,1,8,0:0:0
176,88,222342,1,0,0:0:0
224,80,222417,1,4,0:0:0
492,252,222567,2,0,B|428:264|376:236,1,120
332,212,222792,1,0,0:0:0
296,180,222867,1,8,0:0:0
448,144,223017,6,0,B|396:176|396:176|376:236|376:236|356:300|292:308,1,240,4|0,0:0|0:0,0:0:0
248,312,223392,1,0,0:0:0
200,300,223467,1,8,0:0:0
8,156,223617,2,0,B|40:136|68:156|68:156|100:108|164:108|164:108|184:76|224:76,1,240,0|0,0:0|0:0,0:0:0
264,72,223992,1,0,0:0:0
312,84,224067,1,8,0:0:0
200,300,224217,6,0,B|176:340|136:328|136:328|80:356|24:316|20:252,1,240,4|0,0:0|0:0,0:0:0
36,60,224667,2,0,B|68:108|140:108,1,120,8|0,0:0|0:0,0:0:0
312,84,224967,1,0,0:0:0
500,192,225117,1,0,0:0:0
472,232,225192,1,0,0:0:0
444,272,225267,1,8,0:0:0
280,352,225417,6,0,B|336:328|348:272|348:272|340:232|340:232|364:196|360:144,1,240,4|0,0:0|0:0,0:0:0
176,44,225867,1,8,0:0:0
368,32,226017,1,0,0:0:0
228,164,226167,2,0,B|200:220|132:232,1,120
84,236,226392,1,0,0:0:0
36,224,226467,1,8,0:0:0
56,56,226617,6,0,B|144:60|192:152|134:231,1,240,4|0,0:0|0:0,0:0:0
272,344,227067,2,0,B|233:288|253:228,1,120,8|0,0:0|0:0,0:0:0
268,196,227292,1,0,0:0:0
284,164,227367,1,0,0:0:0
500,56,227517,1,0,0:0:0
480,98,227592,1,0,0:0:0
460,142,227667,1,8,0:0:0
392,360,227817,6,0,B|336:336|272:344|272:344|208:348|152:320,1,240,4|0,0:0|0:0,0:0:0
116,300,228192,1,0,0:0:0
76,276,228267,1,8,0:0:0
4,116,228417,2,0,B|56:156|120:136|120:136|160:112|160:112|196:116|228:96,1,240,4|0,0:0|0:0,0:0:0
264,68,228792,1,0,0:0:0
296,32,228867,1,8,0:0:0
460,142,229017,6,0,B|520:232|428:308|344:236,1,240,4|0,0:0|0:0,0:0:0
228,96,229467,2,0,B|184:56|112:64,1,120,8|0,0:0|0:0,0:0:0
48,336,229767,1,0,0:0:0
196,260,229917,1,0,0:0:0
56,168,230067,1,8,0:0:0
48,336,230217,6,0,B|96:364|96:364|148:336|200:360|200:360|240:360|268:324,1,240,4|0,0:0|0:0,0:0:0
360,132,230667,1,8,0:0:0
265,326,230817,1,0,0:0:0
480,312,230967,2,0,B|460:252|396:228,1,120
352,212,231192,1,0,0:0:0
304,204,231267,1,8,0:0:0
80,256,231417,2,0,B|116:212|176:200|176:200|220:148|196:80,1,240,4|0,0:0|0:0,0:0:0
28,64,231867,5,8,0:0:0
36,88,231942,1,0,0:0:0
44,112,232017,1,0,0:0:0
124,352,232167,6,0,B|144:292,2,60,8|0|0,0:0|0:0|0:0,0:0:0
256,192,232467,5,8,0:0:0
268,156,232542,1,0,0:0:0
280,120,232617,1,0,0:0:0
464,40,232767,6,0,B|482:96,2,60,8|0|0,0:0|0:0|0:0,0:0:0
440,360,233067,5,8,0:0:0
428,312,233142,1,0,0:0:0
416,264,233217,1,0,0:0:0
352,96,233367,6,0,B|388:48,2,60,8|0|8,0:0|0:0|0:0,0:0:0
216,256,233667,1,0,0:0:0
8,156,233817,6,0,B|52:116|52:116|112:96,1,120,0|0,0:0|0:0,0:0:0
156,80,234192,5,0,0:0:0
200,64,234267,1,8,0:0:0
256,248,234417,1,0,0:0:0
136,228,234567,6,0,B|72:232|24:280,1,120
192,380,234867,1,8,0:0:0
372,312,235017,2,0,B|400:254|384:193|384:193|372:128|420:88,1,240,4|0,0:0|0:0,0:0:0
504,260,235467,5,8,0:0:0
372,312,235617,1,0,0:0:0
100,312,235767,5,0,0:0:0
256,248,235917,2,0,B|276:192,2,60,0|0|8,0:0|0:0|0:0,0:0:0
168,56,236217,6,0,B|64:44|20:140,1,180.000006866455,4|0,0:0|0:0,0:0:0
100,312,236667,5,8,0:0:0
120,324,236742,1,0,0:0:0
140,336,236817,1,0,0:0:0
320,208,236967,5,8,0:0:0
288,228,237042,1,0,0:0:0
256,248,237117,1,0,0:0:0
396,356,237267,5,8,0:0:0
436,332,237342,1,0,0:0:0
476,304,237417,1,0,0:0:0
256,168,237567,5,8,0:0:0
288,188,237642,1,0,0:0:0
320,208,237717,1,0,0:0:0
492,112,237867,5,8,0:0:0
452,88,237942,1,0,0:0:0
412,64,238017,1,0,0:0:0
256,168,238167,5,8,0:0:0
212,184,238242,1,0,0:0:0
168,200,238317,1,0,0:0:0
124,184,238392,1,0,0:0:0
80,164,238467,1,8,0:0:0
320,116,238617,6,0,B|392:120|424:172|424:172|432:236|384:280,1,240,4|0,0:0|0:0,0:0:0
244,368,239067,2,0,B|216:312|144:312,1,120,8|0,0:0|0:0,0:0:0
24,328,239367,5,0,0:0:0
145,312,239517,1,0,0:0:0
244,228,239667,1,8,0:0:0
256,84,239817,6,0,B|200:92|180:144|180:144|144:128|104:152|104:152|52:128,1,240,4|0,0:0|0:0,0:0:0
164,36,240267,1,8,0:0:0
348,132,240417,1,0,0:0:0
340,360,240567,5,0,0:0:0
376,348,240642,1,0,0:0:0
404,328,240717,1,0,0:0:0
436,316,240792,1,0,0:0:0
464,296,240867,1,8,0:0:0
500,180,241017,1,4,0:0:0
112,296,241317,5,0,0:0:0
256,304,241467,1,8,0:0:0
352,196,241617,2,0,B|402:116|350:26|255:30,1,240,4|0,0:0|0:0,0:0:0
208,36,241992,1,0,0:0:0
164,52,242067,1,8,0:0:0
112,296,242217,6,0,B|156:392|276:388|308:284,1,264.000008056641,4|0,0:0|0:0,0:0:0
320,232,242592,1,0,0:0:0
320,180,242667,1,8,0:0:0
156,36,242817,6,0,B|48:8|-32:144|60:220,1,287.999991210938,4|0,0:0|0:0,0:0:0
104,252,243192,1,0,0:0:0
160,268,243267,1,8,0:0:0
252,136,243417,6,0,B|296:88|348:104|348:104|377:121|377:121|429:145|470:108,1,240,4|0,0:0|0:0,0:0:0
320,180,243867,1,8,0:0:0
184,92,244017,1,0,0:0:0
260,324,244167,5,0,0:0:0
460,244,244317,2,0,B|508:280,2,60,0|0|8,0:0|0:0|0:0,0:0:0
204,216,244617,6,0,B|144:236|128:300|128:300|80:344|16:332,1,240,4|0,0:0|0:0,0:0:0
56,196,245067,1,8,0:0:0
260,324,245217,1,0,0:0:0
268,84,245367,1,0,0:0:0
56,196,245517,5,0,0:0:0
76,208,245592,1,0,0:0:0
96,220,245667,1,8,0:0:0
260,324,245817,1,4,0:0:0
468,48,246117,5,0,0:0:0
268,84,246267,1,8,0:0:0
260,324,246417,1,0,0:0:0
428,304,246567,1,8,0:0:0
240,156,246717,5,0,0:0:0
204,160,246792,1,0,0:0:0
168,164,246867,1,8,0:0:0
56,344,247017,2,0,B|128:336,2,60,0|0|8,0:0|0:0|0:0,0:0:0
260,324,247317,5,0,0:0:0
308,316,247392,1,0,0:0:0
356,308,247467,1,8,0:0:0
480,168,247617,2,0,B|404:180,2,60,0|0|8,0:0|0:0|0:0,0:0:0
256,192,247917,5,0,0:0:0
208,196,247992,1,0,0:0:0
160,200,248067,1,8,0:0:0
8,80,248217,6,0,B|60:84|92:132|92:132|56:168|56:220|84:260,1,240,4|0,0:0|0:0,0:0:0
260,324,248667,2,0,B|324:312|344:248,1,120,8|0,0:0|0:0,0:0:0
348,76,248967,1,0,0:0:0
504,164,249117,1,0,0:0:0
480,208,249192,1,0,0:0:0
456,252,249267,1,8,0:0:0
260,324,249417,6,0,B|224:272|256:216|312:220|312:220|344:176|308:136,1,240,4|0,0:0|0:0,0:0:0
20,88,249867,1,8,0:0:0
180,32,250017,1,0,0:0:0
116,376,250167,1,0,0:0:0
260,324,250317,5,0,0:0:0
224,292,250392,1,0,0:0:0
188,260,250467,1,8,0:0:0
20,88,250617,6,0,B|92:32|196:64|200:156,1,240,4|0,0:0|0:0,0:0:0
200,192,250992,1,0,0:0:0
192,228,251067,1,8,0:0:0
372,288,251217,6,0,B|416:328,2,60
336,256,251442,1,0,0:0:0
316,212,251517,1,8,0:0:0
320,164,251592,1,8,0:0:0
348,124,251667,1,8,0:0:0
396,112,251742,1,0,0:0:0
444,120,251817,6,0,B|388:124|348:76|348:76|304:36|224:44,1,240,4|0,0:0|0:0,0:0:0
192,52,252192,1,0,0:0:0
160,68,252267,1,4,0:0:0
60,284,252417,6,0,B|112:324|184:312|216:252,1,180.000006866455
228,148,252887,1,8,0:0:0
64,104,253221,5,2,0:0:0
60,284,253596,1,2,0:0:0
144,320,253783,1,0,0:0:0
228,356,253971,2,0,B|264:332|284:284,1,90.0000034332277,2|0,0:0|0:0,0:0:0
276,120,254346,2,0,B|278:163|310:204,1,90.0000034332277,2|2,0:0|0:0,0:0:0
456,280,254721,2,0,B|417:260|365:267,2,90.0000034332277,2|2|2,0:0|0:0|0:0,0:0:0
400,352,255283,1,0,0:0:0
488,272,255481,6,0,B|520:196|488:104|396:84,1,240,0|2,0:0|0:0,0:0:0
308,164,256093,1,0,0:0:0
208,220,256308,38,0,B|140:236|96:188,1,120,2|0,0:0|0:0,0:0:0
72,72,256752,2,0,B|140:56|182:101,1,120,2|0,0:0|0:0,0:0:0
208,220,257196,6,0,B|256:260|320:216|380:256,1,180,2|0,0:0|0:0,0:0:0
356,304,257657,2,0,B|320:352|248:348,1,120,2|2,0:0|0:0,0:0:0
156,312,258157,38,0,B|76:276|48:184|96:108,1,240,2|2,0:0|0:0,0:0:0
200,52,259057,1,0,0:0:0
256,192,259357,12,2,262357,0:0:0
