osu file format v12

[General]
AudioFilename: UNDEAD CORPORATION - The Dream Of A Rabbit.mp3
AudioLeadIn: 3000
PreviewTime: 104062
Countdown: 0
SampleSet: Normal
StackLeniency: 0.7
Mode: 0
LetterboxInBreaks: 0
EpilepsyWarning: 1
WidescreenStoryboard: 0

[Editor]
Bookmarks: 45418,64768,104218,123568,137968,172618,191668,211258
DistanceSpacing: 0.9
BeatDivisor: 4
GridSize: 4
TimelineZoom: 1

[Metadata]
Title:Yoru Naku Usagi wa Yume o Miru
TitleUnicode:夜啼く兎は夢を見る
Artist:UNDEAD CORPORATION
ArtistUnicode:UNDEAD CORPORATION
Creator:Smoothie
Version:Normal
Source:Touhou
Tags:Reisen Udongein Inaba Ranko Invisible Full Moon Lunatic Eyes Benisome no Oni ga Naku 紅染の鬼が哭く caren_sk Midnaait Lanturn Taiko
BeatmapID:243850
BeatmapSetID:58951

[Difficulty]
HPDrainRate:4
CircleSize:3
OverallDifficulty:4
ApproachRate:5
SliderMultiplier:1
SliderTickRate:2

[Events]
//Background and Video events
0,0,"Bg.png",0,0
//Break Periods
2,64961,68362
2,84162,87562
2,138162,146362
//Storyboard Layer 0 (Background)
//Storyboard Layer 1 (Fail)
//Storyboard Layer 2 (Pass)
//Storyboard Layer 3 (Foreground)
Sprite,Foreground,Centre,"Grin.png",320,240 F,0,45418,64768,1 S,0,45418,64768,0.6288 M,0,64243,64768,320,240 F,0,64768,65968,1,0 S,0,64768,65968,0.6288,0.6479999
Sprite,Foreground,Centre,"Grin.png",320,240 S,0,104218,138118,0.6288 F,0,136468,,1 F,0,136468,137068,1,0
Sprite,Foreground,Centre,"Grin.png",320,240 F,0,172618,,1 S,0,172618,,0.6288 M,0,226167,,320,240
Sprite,Foreground,Centre,"Grin.png",320,240 F,0,192193,193018,1,0.001666665 S,0,192193,193018,0.6285803,0.6585335
Sprite,Foreground,Centre,"Pulse Thingy.png",320,240 F,0,45343,45718,1,0.5279999 S,0,45343,45718,0.6288,0.63904 F,0,45718,46093,0.5279999,0 S,0,45718,46093,0.63904,0.6467199 F,0,46093,,0 S,0,46093,,0.6467199
Sprite,Foreground,Centre,"Pulse Thingy.png",320,240 M,0,104218,,320,240 F,0,104218,104593,1,0.6355101 S,0,104218,104593,0.6288,0.6432001 F,0,104593,104968,0.6355101,0.03422001 S,0,104593,104968,0.6432001,0.6480002
Sprite,Foreground,Centre,"Pulse Thingy.png",320,240 F,0,137968,138868,1,0.2384 S,0,137968,138868,0.6288,0.648 F,0,138868,139768,0.2384,0 S,0,138868,139768,0.648,0.6544
Sprite,Foreground,Centre,"Pulse Thingy.png",320,240 F,0,172618,172993,1,0.5032 S,0,172618,173368,0.6288,0.6544 F,0,172993,173368,0.5032,0
Sprite,Foreground,Centre,"Black Fade.png",320,240 S,0,100768,,0.6285804 F,0,100768,101068,0,0.7009047 F,0,101068,101368,0.7009047 F,0,101368,101668,0.7009047,1 F,0,101668,,1 F,0,101668,,1 F,0,101668,,1 F,0,101668,,1 F,0,101668,,1 F,0,101668,104068,1 M,0,101968,,320,240 F,0,104068,104218,1,0.2122309
Sprite,Foreground,Centre,"Black Fade.png",320,240 M,0,191368,,320,240 S,0,191368,,0.6345711 F,0,191368,191668,0,1 F,0,191668,192193,1 F,0,192193,192268,1,0
Sprite,Foreground,Centre,"Black Fade.png",320,240 M,0,122368,,320,240 S,0,122368,,0.6285805 F,0,122368,122668,0,0.7278627 F,0,122668,122968,0.7278627 F,0,122968,123268,0.7278627,0.9221217 F,0,123268,137818,0.9221217,0.9304745 F,0,137818,137968,0.9304745,0
Sprite,Foreground,Centre,"Black Fade.png",320,240 M,0,62968,,321,241 S,0,62968,,0.6345709 F,0,62968,63268,0,0.7877691 F,0,63268,63568,0.7877691 F,0,63568,63868,0.7877691,1 F,0,63868,64693,1,0.9980546 F,0,64693,64768,0.9980546,0
Sprite,Foreground,Centre,"aaaah!.png",320,240 M,0,101968,102043,391,349,357,361 F,0,101968,102043,0,1 M,0,102043,102118,357,361,340,365 M,0,102118,102193,340,365,317,369 M,0,102193,102268,317,369,296,369 M,0,102268,102343,296,369,282,366 M,0,102343,102418,282,366,257,353 M,0,102418,102493,257,353,281,366 M,0,102493,102568,281,366,297,367 M,0,102568,102643,297,367,318,368 M,0,102643,102718,318,368,342,361 M,0,102718,102793,342,361,364,355 M,0,102793,102868,364,355,388,346
Sprite,Foreground,Centre,"aaaah!.png",320,240 M,0,103168,103243,323,292,299,274 F,0,103168,103768,1 M,0,103243,103318,299,274,275,266 M,0,103318,103393,275,266,254,262 M,0,103393,103468,254,262,232,260 M,0,103468,103543,232,260,209,271 M,0,103543,103618,209,271,189,285 M,0,103618,103693,189,285,169,303 M,0,103693,103768,169,303,153,331 F,0,103768,103918,1,0
Sprite,Foreground,Centre,"aaaah!.png",320,240 F,0,64168,,1 M,0,64168,64243,231,165,260,154 M,0,64243,64318,260,154,282,145 M,0,64318,64393,282,145,303,139 M,0,64393,64468,303,139,318,132 M,0,64468,64543,318,132,342,145 M,0,64543,64618,342,145,359,153 M,0,64618,64693,359,153,382,162
Sprite,Foreground,Centre,"aaaah!.png",320,240
Sprite,Foreground,Centre,"Lyrics\I whistled....png",320,240 S,0,15493,,0.7247995 F,0,15493,16093,0,0.5936 M,0,15493,19918,110,396 F,0,16093,19918,0.5936 M,0,19918,20218,110,396,110,469 F,0,19918,20218,0.5936,0
Sprite,Foreground,Centre,"Lyrics\I still haven't....png",320,240 S,0,17893,,0.7120001 F,0,17893,18493,0,0.6144 M,0,17893,19918,114,426 F,0,18493,19918,0.6144 M,0,19918,20218,114,426,114,493 F,0,19918,20218,0.6144,0
Sprite,Foreground,Centre,"Lyrics\I've waited the....png",320,240 S,0,25093,,0.6864004 F,0,25093,25468,0,0.5760002 M,0,25093,29668,117,397 F,0,25468,29668,0.5760002,0.6879999 M,0,29668,29968,117,397,117,448 F,0,29668,29968,0.6879999,0.0128
Sprite,Foreground,Centre,"Lyrics\for a letter....png",320,240 S,0,27493,,0.7247998 F,0,27493,27868,0,0.5184 M,0,27493,29668,116,425 F,0,27868,29668,0.5184 M,0,29668,29968,116,425,116,481 F,0,29668,29968,0.5184,0
Sprite,Foreground,Centre,"Lyrics\Two lover's bedroom....png",320,240 S,0,29893,,0.6288 F,0,29893,30268,0,0.7263998 M,0,29893,34468,119,416 F,0,30268,34468,0.7263998 M,0,34468,34768,119,416,119,473 F,0,34468,34768,0.7263998,0
Sprite,Foreground,Centre,"Lyrics\I'm scared to....png",320,240 S,0,34768,,0.6608 F,0,34768,35068,0,0.6992002 M,0,34768,38968,108,391 F,0,35068,38968,0.6992002 M,0,38968,39268,108,391,108,462 F,0,38968,39268,0.6992002,0
Sprite,Foreground,Centre,"Lyrics\I have to....png",320,240 S,0,37093,,0.6352 F,0,37093,37468,0,0.6271999 M,0,37093,38968,117,421 F,0,37468,38968,0.6271999 M,0,38968,39268,117,421,117,486 F,0,38968,39268,0.6271999,0
Sprite,Foreground,Centre,"Lyrics\The moon is....png",320,240 M,0,39493,,114,411 S,0,39493,,0.6736001 F,0,39493,39868,0,0.728 F,0,39868,41368,0.728,0.7237799 F,0,41368,41668,0.7237799,0
Sprite,Foreground,Centre,"Lyrics\The rabbit jumps....png",320,240 M,0,41668,,113,411 F,0,41668,42268,0,0.6524001 S,0,41668,44368,0.6031998,0.7368407 F,0,42268,44068,0.6524001,0.6000001 F,0,44068,44368,0.6000001,0
Sprite,Foreground,Centre,"Lyrics\Look into my....png",320,240 M,0,45268,,106,394 F,0,45268,45418,0,0.7088001 S,0,45268,45418,0.9104001,0.6736002 F,0,45418,45943,0.7088001 S,0,45418,47518,0.6736002 F,0,45943,47518,0.7088001 F,0,47518,47668,0.7088001,0 S,0,47518,47668,0.6736002,0.8720008
Sprite,Foreground,Centre,"Lyrics\You will lose....png",320,240 M,0,47668,,112,387 F,0,47668,47818,0,0.5664 S,0,47668,47818,0.9103998,0.6735998 S,0,47818,48868,0.6735998,0.6799145 F,0,47818,50068,0.5664 S,0,48868,50068,0.6799145 F,0,50068,50218,0.5664,0 S,0,50068,50218,0.6799145,0.8143145
Sprite,Foreground,Centre,"Lyrics\Your spirit will....png",320,240 M,0,48868,,114,412 F,0,48868,49018,0,0.6416001 S,0,48868,49018,0.9040002,0.7056003 F,0,49018,50068,0.6416001 S,0,49018,50068,0.7056003,0.7108909 F,0,50068,50218,0.6416001,0 S,0,50068,50218,0.7108909,0.8644911
Sprite,Foreground,Centre,"Lyrics\Like if your....png",320,240 M,0,50218,,121,391 F,0,50218,50368,0,0.5936 S,0,50218,50368,0.8848001,0.6736002 F,0,50368,54868,0.5936,0.6544001 S,0,50368,54868,0.6736002 F,0,54868,55018,0.6544001,0 S,0,54868,55018,0.6736002,0.8144001
Sprite,Foreground,Centre,"Lyrics\You will go....png",320,240 M,0,52468,,121,415 F,0,52468,52618,0,0.4959999 S,0,52468,52618,0.9423999,0.7119998 F,0,52618,54868,0.4959999,0.4662399 S,0,52618,54868,0.7119998 F,0,54868,55018,0.4662399,0 S,0,54868,55018,0.7119998,0.8719999
Sprite,Foreground,Centre,"Lyrics\I'm still yearning....png",320,240 M,0,55018,,127,390 F,0,55018,55168,0,0.64 S,0,55018,55168,0.8656003,0.6864005 F,0,55168,59668,0.64 S,0,55168,59668,0.6864005 F,0,59668,59818,0.64,0 S,0,59668,59818,0.6864005,0.8528003
Sprite,Foreground,Centre,"Lyrics\still yearning will....png",320,240 M,0,57268,,134,416 F,0,57268,57418,0,0.6640001 S,0,57268,57418,0.9168001,0.6992 F,0,57418,59668,0.6640001 S,0,57418,59668,0.6992,0.7050027 F,0,59668,59818,0.6640001,0 S,0,59668,59818,0.7050027,0.8394027
Sprite,Foreground,Centre,"Lyrics\Like an ancient....png",320,240 M,0,59818,,124,391 F,0,59818,59968,0,0.6384 S,0,59818,59968,0.9743997,0.6672 F,0,59968,63418,0.6384 S,0,59968,63418,0.6672,0.6792321 F,0,63418,63568,0.6384,0 S,0,63418,63568,0.6792321,0.8136322
Sprite,Foreground,Centre,"Lyrics\I run inside....png",320,240 M,0,62068,,125,410 F,0,62068,62218,0,0.5792001 S,0,62068,62218,0.8976001,0.744 S,0,62218,,0.744 F,0,62218,63418,0.5792001,0.4768001 S,0,62218,63418,0.744 F,0,63418,63568,0.4768001,0 S,0,63418,63568,0.744,0.9040003
Sprite,Foreground,Centre,"Lyrics\now jump.png",320,240 M,0,63568,,120,400 F,0,63568,63868,0.0208002,0.6544001 S,0,63568,64768,0.6352005,0.9680002 F,0,63868,64768,0.6544001 F,0,64768,64918,0.6544001,0 S,0,64768,64918,0.9680002,0.4176004
Sprite,Foreground,Centre,"Lyrics\In another morning....png",320,240 S,0,83968,,0.6735995 F,0,83968,84268,0,0.7456 M,0,83968,88618,127,387 F,0,84268,88618,0.7456 M,0,88618,88768,127,387,127,456 F,0,88618,88768,0.7456,0
Sprite,Foreground,Centre,"Lyrics\without even knowing....png",320,240 S,0,86218,,0.6735998 F,0,86218,86593,0,0.6432001 M,0,86218,88618,129,408 F,0,86593,88618,0.6432001 M,0,88618,88768,129,408,128,475 F,0,88618,88768,0.6432001,0
Sprite,Foreground,Centre,"Lyrics\Murmuring near the....png",320,240 S,0,88768,,0.6416 F,0,88768,89068,0,0.6928 M,0,88768,93418,126,387 F,0,89068,93418,0.6928 M,0,93418,93568,126,387,125,469 F,0,93418,93568,0.6928,0
Sprite,Foreground,Centre,"Lyrics\Everything breaks.png",320,240 S,0,90868,,0.6479999 F,0,90868,91168,0,0.6144 M,0,90868,93418,127,412 F,0,91168,93418,0.6144 F,0,93418,93564,0.6144,0 M,0,93418,93568,127,412,127,488 F,0,93564,93568,0
Sprite,Foreground,Centre,"Lyrics\At the evening....png",320,240 S,0,93568,,0.6288 F,0,93568,93868,0,0.592 M,0,93568,98218,124,385 F,0,93868,98218,0.592,0.6592 M,0,98218,98368,124,385,125,450 F,0,98218,98368,0.6592,0
Sprite,Foreground,Centre,"Lyrics\my vengeful spirit....png",320,240 S,0,95968,,0.6223999 F,0,95968,96268,0,0.5216 M,0,95968,98218,128,414 F,0,96268,98218,0.5216,0.5435854 M,0,98218,98368,128,414,127,481 F,0,98218,98368,0.5435854,0
Sprite,Foreground,Centre,"Lyrics\The moon is....png",320,240 M,0,98368,,118,400 S,0,98368,,0.6223999 F,0,98368,98668,0,0.5718858 F,0,98668,100318,0.5718858,0.6047428 F,0,100318,100468,0.6047428,0
Sprite,Foreground,Centre,"Lyrics\I'm becoming a....png",320,240 M,0,100468,,115,399 F,0,100468,101068,0,0.7136001 S,0,100468,103168,0.6352002,0.7632004 F,0,101068,102568,0.7136001 F,0,102568,103168,0.7136001,0.02560007
Sprite,Foreground,Centre,"Lyrics\Look into my....png",320,240 M,0,104068,,119,399 F,0,104068,104218,0,0.5536 S,0,104068,104218,0.8208004,0.6480004 F,0,104218,106468,0.5536,0.5397601 S,0,104218,106468,0.6480004 F,0,106468,106618,0.5397601,0 S,0,106468,106618,0.6480004,0.8144005
Sprite,Foreground,Centre,"Lyrics\crimson flames are....png",320,240 M,0,106618,,120,399 F,0,106618,106768,0,0.6624001 S,0,106618,106768,0.8207998,0.6607998 F,0,106768,108868,0.6624001 S,0,106768,108868,0.6607998 F,0,108868,109018,0.6624001,0 S,0,108868,109018,0.6607998,0.8143997
Sprite,Foreground,Centre,"Lyrics\I'm burning in....png",320,240 M,0,109018,,121,400 F,0,109018,109168,0,0.6784 S,0,109018,109168,0.8208001,0.6224002 S,0,109168,,0.6224002 F,0,109168,113668,0.6784 S,0,109168,113668,0.6224002 F,0,113668,113818,0.6784,0 S,0,113668,113818,0.6224002,0.7696005
Sprite,Foreground,Centre,"Lyrics\But my heart....png",320,240 M,0,111418,,118,419 F,0,111418,111568,0,0.6975999 S,0,111418,111568,0.8464,0.6352001 F,0,111568,113668,0.6975999,0.6802375 S,0,111568,113668,0.6352001 F,0,113668,113818,0.6802375,0 S,0,113668,113818,0.6352001,0.8080004
Sprite,Foreground,Centre,"Lyrics\I'm still yearning....png",320,240 M,0,113818,,115,400 F,0,113818,113968,0,0.6335997 S,0,113818,113968,0.8656,0.6351999 F,0,113968,118468,0.6335997,0.7039998 S,0,113968,118468,0.6351999,0.6411457 F,0,118468,118618,0.7039998,0.02879987 S,0,118468,118618,0.6411457,0.8909441
Sprite,Foreground,Centre,"Lyrics\still yearning will i ever touch....png",320,240 M,0,116218,,124,422 F,0,116218,116368,0,0.6368001 S,0,116218,116368,0.8975998,0.6607996 F,0,116368,118468,0.6368001,0.6209508 S,0,116368,118468,0.6607996 F,0,118468,118618,0.6209508,0 S,0,118468,118618,0.6607996,0.8527997
Sprite,Foreground,Centre,"Lyrics\Like a chimera....png",320,240 M,0,118618,,123,401 F,0,118618,118768,0,0.5888001 S,0,118618,118768,0.9039999,0.5967996 F,0,118768,122218,0.5888001 S,0,118768,122218,0.5967996 F,0,122218,122368,0.5888001,0 S,0,122218,122368,0.5967996,0.7759997
Sprite,Foreground,Centre,"Lyrics\I'm hiding into....png",320,240 M,0,121018,,125,425 F,0,121018,121168,0,0.5631999 S,0,121018,121168,0.8848001,0.6351999 F,0,121168,122218,0.5631999,0.5336319 S,0,121168,122218,0.6351999 F,0,122218,122368,0.5336319,0 S,0,122218,122368,0.6351999,0.8207999
Sprite,Foreground,Centre,"Lyrics\Just go!.png",320,240 M,0,122368,,113,416 F,0,122368,122968,0,0.7903999 S,0,122368,123568,0.6416005,0.8848006 F,0,122968,123568,0.7903999,0
Sprite,Foreground,Centre,"Lyrics\Now i'm going....png",320,240 M,0,123568,,122,403 S,0,123568,,0.6672 F,0,123568,127468,0,1 F,0,127468,129868,1,0
Sprite,Foreground,Centre,"Lyrics\Now hidden i....png",320,240 M,0,130768,,124,405 S,0,130768,,0.6032001 F,0,130768,134068,0,1 F,0,134068,137068,1,0
Sprite,Foreground,Centre,"Lyrics\I'm scared to....png",320,240 S,0,161968,,0.6543997 F,0,161968,162268,0,0.5824001 M,0,161968,166618,126,385 F,0,162268,166618,0.5824001,0.5655105 M,0,166618,166768,126,385,124,442 F,0,166618,166768,0.5655105,0
Sprite,Foreground,Centre,"Lyrics\I have to....png",320,240 S,0,164368,,0.6608002 F,0,164368,164668,0,0.512 M,0,164368,166618,133,414 F,0,164668,166618,0.512 M,0,166618,166768,133,414,133,466 F,0,166618,166768,0.512,0
Sprite,Foreground,Centre,"Lyrics\The moon is....png",320,240 M,0,166768,,130,403 S,0,166768,,0.7375998 F,0,166768,167068,0,0.5408 F,0,167068,168568,0.5408 F,0,168568,168868,0.5408,0
Sprite,Foreground,Centre,"Lyrics\The rabbit jumps....png",320,240 M,0,168868,,126,403 F,0,168868,169468,0,0.5471998 S,0,168868,171268,0.6608002,0.8656 F,0,169468,170668,0.5471998 F,0,170668,171268,0.5471998,0
Sprite,Foreground,Centre,"Lyrics\Look into my....png",320,240 M,0,172468,,126,391 F,0,172468,172618,0,0.6575999 S,0,172468,172618,0.8975999,0.6352 F,0,172618,174868,0.6575999,0.64116 S,0,172618,174868,0.6352 F,0,174868,175018,0.64116,0 S,0,174868,175018,0.6352,0.8208
Sprite,Foreground,Centre,"Lyrics\You will lose....png",320,240 M,0,175018,,122,380 F,0,175018,175168,0,0.7215999 S,0,175018,175168,0.8848,0.6287999 F,0,175168,177268,0.7215999 S,0,175168,177268,0.6287999 F,0,177268,177418,0.7215999,0 S,0,177268,177418,0.6287999,0.808
Sprite,Foreground,Centre,"Lyrics\Your spirit will....png",320,240 M,0,176218,,122,405 F,0,176218,176368,0,0.6048 S,0,176218,176368,0.9040002,0.6480002 F,0,176368,177268,0.6048 S,0,176368,177268,0.6480002 F,0,177268,177418,0.6048,0 S,0,177268,177418,0.6480002,0.8208002
Sprite,Foreground,Centre,"Lyrics\Like if your....png",320,240 M,0,177418,,127,380 F,0,177418,177568,0,0.7264 S,0,177418,177568,0.8079998,0.5967999 F,0,177568,182068,0.7264 S,0,177568,182068,0.5967999 F,0,182068,182218,0.7264,0 S,0,182068,182218,0.5967999,0.8144003
Sprite,Foreground,Centre,"Lyrics\You will go....png",320,240 M,0,179818,,120,402 F,0,179818,179968,0,0.6576001 S,0,179818,179968,0.9552,0.6544002 F,0,179968,182068,0.6576001,0.6055937 S,0,179968,182068,0.6544002 F,0,182068,182218,0.6055937,0 S,0,182068,182218,0.6544002,0.9360005
Sprite,Foreground,Centre,"Lyrics\I'm still yearning....png",320,240 M,0,182218,,115,380 F,0,182218,182368,0,0.6784001 S,0,182218,182368,0.8848001,0.5904001 F,0,182368,186868,0.6784001,0.6390091 S,0,182368,186868,0.5904001 F,0,186868,187018,0.6390091,0 S,0,186868,187018,0.5904001,0.8848004
Sprite,Foreground,Centre,"Lyrics\still yearning will....png",320,240 M,0,184618,,126,409 F,0,184618,184768,0,0.6047999 S,0,184618,184768,0.9232002,0.6096004 F,0,184768,186868,0.6047999,0.5897471 S,0,184768,186868,0.6096004 F,0,186868,187018,0.5897471,0.02227208 S,0,186868,187018,0.6096004,0.8720003
Sprite,Foreground,Centre,"Lyrics\Like an ancient....png",320,240 M,0,187018,,127,380 F,0,187018,187168,0,0.6671999 S,0,187018,187168,0.8144,0.6224002 F,0,187168,190618,0.6671999,0.6863359 S,0,187168,190618,0.6224002 F,0,190618,190768,0.6863359,0 S,0,190618,190768,0.6224002,0.904
Sprite,Foreground,Centre,"Lyrics\I run inside....png",320,240 M,0,189418,,128,407 F,0,189418,189568,0,0.5311999 S,0,189418,189568,0.9039998,0.6351998 F,0,189568,190618,0.5311999,0.5033119 S,0,189568,190618,0.6351998 F,0,190618,190768,0.5033119,0 S,0,190618,190768,0.6351998,0.9231997
Sprite,Foreground,Centre,"Lyrics\now jump.png",320,240 M,0,190768,,126,390 F,0,190768,191518,0,0.624 S,0,190768,191518,0.68,0.7567999 F,0,191518,191668,0.624 S,0,191518,191668,0.7567999,0.4112
Sprite,Foreground,Centre,"Lyrics\Look into my....png",320,240 M,0,191668,,131,389 F,0,191668,191818,0,0.5792001 S,0,191668,191818,0.9168001,0.6096001 F,0,191818,194218,0.5792001,0.5844029 S,0,191818,194218,0.6096001 F,0,194218,194368,0.5844029,0 S,0,194218,194368,0.6096001,0.7760002
Sprite,Foreground,Centre,"Lyrics\Into my heart....png",320,240 M,0,196618,,139,389 F,0,196618,196768,0,0.6384 S,0,196618,196768,0.8208005,0.6416003 F,0,196768,199168,0.6384 S,0,196768,199168,0.6416003,0.6460979 F,0,199168,199318,0.6384,0 S,0,199168,199318,0.6460979,0.7743789
Sprite,Foreground,Centre,"Lyrics\I'm still yearning....png",320,240 M,0,201418,,109,391 F,0,201418,201568,0,0.6975999 S,0,201418,201568,0.8336002,0.6160001 F,0,201568,203818,0.6975999,0.6583599 S,0,201568,203818,0.6160001 F,0,203818,203968,0.6583599,0 S,0,203818,203968,0.6160001,0.8016
Sprite,Foreground,Centre,"Lyrics\Still yearning like an ancient....png",320,240 M,0,206218,,119,389 F,0,206218,206368,0.2704001,0.6064 S,0,206218,206368,0.8848001,0.5968003 F,0,206368,208918,0.6064,0.5979378 S,0,206368,208918,0.5968003 F,0,208918,209068,0.5979378,0 S,0,208918,209068,0.5968003,0.7696003
Sprite,Foreground,Centre,"Lyrics\I whistled....png",320,240 M,0,211258,,134,371 S,0,211258,,0.6544001 F,0,211258,213076,0,0.6652405 F,0,213076,217439,0.6652405,0.6630856 F,0,217439,220348,0.6630856,0.001458121
Sprite,Foreground,Centre,"Lyrics\I still haven't....png",320,240 M,0,213894,,135,401 S,0,213894,,0.6799999 F,0,213894,216348,0,0.7005057 F,0,216348,,0.7005057 F,0,216348,217439,0.7005057 F,0,217439,,0.7005057 F,0,217439,220712,0.7005057,0
Sprite,Foreground,Centre,"Lyrics\A single sigh....png",320,240 S,0,20293,,0.6671999 F,0,20293,20668,0,0.6848001 M,0,20293,24868,117,416 F,0,20668,24868,0.6848001 M,0,24868,25168,117,416,115,479 F,0,24868,25168,0.6848001,0
Sprite,Foreground,Centre,"Bullets.png",320,240 S,0,45868,,0.6285803 F,0,45868,46318,1,0 F,0,46468,46918,1,0 F,0,47068,47518,1,0 F,0,47668,48118,1,0 F,0,48268,48718,1,0 F,0,48868,49318,1,0 F,0,49468,49918,1,0 F,0,50068,50518,1,0 F,0,50668,51118,1,0 F,0,51268,51718,1,0 F,0,51868,52318,1,0 F,0,52468,52918,1,0 F,0,53068,53518,1,0 F,0,53668,54118,1,0 F,0,54268,54718,1,0 F,0,54868,55318,1,0 F,0,55468,55918,1,0 F,0,56068,56518,1,0 F,0,56668,57118,1,0 F,0,57268,57718,1,0 F,0,57868,58318,1,0 F,0,58468,58918,1,0 F,0,59068,59518,1,0 F,0,59668,60118,1,0 F,0,60268,60718,1,0 F,0,60868,61318,1,0 F,0,61468,61918,1,0 F,0,62068,62518,1,0 F,0,62668,63118,1,0 F,0,63268,63718,1,0 M,0,64693,191818,320,240 F,0,104668,105118,1,0 F,0,105268,105718,1,0 F,0,105868,106318,1,0 F,0,106468,106918,1,0 F,0,107068,107518,1,0 F,0,107668,108118,1,0 F,0,108268,108718,1,0 F,0,108868,109318,1,0 F,0,109468,109918,1,0 F,0,110068,110518,1,0 F,0,110668,111118,1,0 F,0,111268,111718,1,0 F,0,111868,112318,1,0 F,0,112468,112918,1,0 F,0,113068,113518,1,0 F,0,113668,114118,1,0 F,0,114268,114718,1,0 F,0,114868,115318,1,0 F,0,115468,115918,1,0 F,0,116068,116518,1,0 F,0,116668,117118,1,0 F,0,117268,117718,1,0 F,0,117868,118318,1,0 F,0,118468,118918,1,0 F,0,119068,119518,1,0 F,0,119668,120118,1,0 F,0,120268,120718,1,0 F,0,120868,121318,1,0 F,0,123568,124168,1,0 F,0,124468,125068,1,0 F,0,125368,125968,1,0 F,0,126268,126868,1,0 F,0,127168,127768,1,0 F,0,128068,128668,1,0 F,0,128968,129568,1,0 F,0,129868,130468,1,0 F,0,130768,131368,1,0 F,0,131668,132268,1,0 F,0,132568,133168,1,0 F,0,133468,134068,1,0 F,0,134368,134968,1,0 F,0,135268,135868,1,0 F,0,136168,136768,1,0 F,0,137068,137668,1,0 F,0,173068,173518,1,0 F,0,173668,174118,1,0 F,0,174268,174718,1,0 F,0,174868,175318,1,0 F,0,175468,175918,1,0 F,0,176068,176518,1,0 F,0,176668,177118,1,0 F,0,177268,177718,1,0 F,0,177868,178318,1,0 F,0,178468,178918,1,0 F,0,179068,179518,1,0 F,0,179668,180118,1,0 F,0,180268,180718,1,0 F,0,180868,181318,1,0 F,0,181468,181918,1,0 F,0,182068,182518,1,0 F,0,182668,183118,1,0 F,0,183268,183718,1,0 F,0,183868,184318,1,0 F,0,184468,184918,1,0 F,0,185068,185518,1,0 F,0,185668,186118,1,0 F,0,186268,186718,1,0 F,0,186868,187318,1,0 F,0,187468,187918,1,0 F,0,188068,188518,1,0 F,0,188668,189118,1,0 F,0,189268,189718,1,0 F,0,189868,190318,1,0 F,0,190468,190918,1,0 F,0,191068,191518,1,0 F,0,192868,193318,1,0 F,0,193468,193918,1,0 F,0,194068,194518,1,0 F,0,194668,195118,1,0 F,0,195268,195718,1,0 F,0,195868,196318,1,0 F,0,196468,196918,1,0 F,0,197068,197518,1,0 F,0,197668,198118,1,0 F,0,198268,198718,1,0 F,0,198868,199318,1,0 F,0,199468,199918,1,0 F,0,200068,200518,1,0 F,0,200668,201118,1,0 F,0,201268,201718,1,0 F,0,201868,202318,1,0 F,0,202468,202918,1,0 F,0,203068,203518,1,0 F,0,203668,204118,1,0 F,0,204268,204718,1,0 F,0,204868,205318,1,0 F,0,205468,205918,1,0 F,0,206068,206518,1,0 F,0,206668,207118,1,0 F,0,207268,207718,1,0 F,0,207868,208318,1,0 F,0,208468,209368,1,0
//Storyboard Sound Samples
//Background Colour Transformations
3,100,163,162,255

[TimingPoints]
1162,300,4,1,1,60,1,0
10762,-100,4,1,1,60,0,0
14587,-100,4,1,2,60,0,0
14737,-100,4,1,1,60,0,0
15187,-100,4,1,2,60,0,0
15337,-100,4,1,1,60,0,0
15562,-100,4,2,1,60,0,0
34762,-100,4,1,1,60,0,0
39112,-100,4,2,1,60,0,0
39562,-100,4,1,1,60,0,0
45412,-100,4,1,1,60,0,1
47587,-100,4,1,2,60,0,1
47737,-100,4,1,1,60,0,1
52387,-100,4,1,2,60,0,1
52537,-100,4,1,0,60,0,1
52612,-100,4,1,1,60,0,0
54187,-100,4,1,2,60,0,0
54337,-100,4,1,1,60,0,0
55012,-100,4,1,1,60,0,1
57187,-100,4,1,2,60,0,1
57337,-100,4,1,1,60,0,1
61987,-100,4,1,2,60,0,1
62137,-100,4,1,1,60,0,1
64312,-100,4,1,2,60,0,1
64762,-100,4,1,1,60,0,0
82987,-100,4,1,2,60,0,0
83137,-100,4,1,1,60,0,0
83587,-100,4,1,2,60,0,0
83737,-100,4,1,1,60,0,0
83962,-100,4,2,1,60,0,0
93562,-100,4,1,1,60,0,0
101962,-100,4,2,1,60,0,0
103162,-100,4,1,1,60,0,0
103762,-100,4,3,1,50,0,0
104212,-100,4,1,1,60,0,1
106387,-100,4,1,2,60,0,1
106537,-100,4,1,1,60,0,1
111412,-100,4,1,1,60,0,0
112987,-100,4,1,2,60,0,0
113137,-100,4,1,1,60,0,0
113812,-100,4,1,1,60,0,1
115987,-100,4,1,2,60,0,1
116137,-100,4,1,1,60,0,1
123562,300,6,1,1,60,1,0
123562,-133.333333333333,6,2,1,60,0,0
137962,300,4,1,1,60,1,0
147562,-100,4,1,1,60,0,0
157162,-100,4,1,1,60,0,0
172612,-100,4,1,1,60,0,1
179812,-100,4,1,1,60,0,0
182212,-100,4,1,1,60,0,1
191812,-100,4,1,1,60,0,0
192262,-100,4,1,1,60,0,1
210562,342.857142857143,4,1,1,60,1,1
210904,-100,4,1,1,60,0,0
211257,361.44578313253,4,2,1,60,1,0
211980,-100,4,2,1,30,0,0
212702,384.615384615385,4,1,1,60,1,0
212702,-100,4,2,1,30,0,0
213481,408.163265306122,4,2,1,30,1,0
214297,447.761194029851,4,2,1,30,1,0
215185,476.190476190476,4,2,1,30,1,0
215661,500,4,2,1,20,1,0
216178,560.747663551402,4,2,1,30,1,0
216749,666.666666666667,4,2,1,30,1,0
217465,705.882352941176,4,2,1,30,1,0
217465,-200,4,2,1,5,0,0
220994,-200,4,2,0,5,0,0

[Colours]
Combo1 : 244,111,77
Combo2 : 174,117,157
Combo3 : 255,64,64

[HitObjects]
104,320,1162,6,0,P|180:300|260:328,2,150,8|8|8,0:0|0:0|0:0,0:0:0:0:
32,148,2662,2,0,L|64:248,1,100,0|0,0:0|0:0,0:0:0:0:
132,188,3262,1,0,0:0:0:0:
220,208,3562,6,0,P|292:232|368:200,2,150,8|8|8,0:0|0:0|0:0,0:0:0:0:
376,120,5062,2,0,P|424:148|448:196,1,100
452,272,5662,1,0,0:0:0:0:
376,320,5962,6,0,L|280:384,2,100
244,284,7012,2,0,P|152:364|58:284,1,250
152,272,8062,1,0,0:0:0:0:
96,204,8362,6,0,L|24:124,2,100
208,128,9412,2,0,P|296:56|392:140,1,250
300,144,10462,1,0,0:0:0:0:
360,212,10762,6,0,B|376:256|376:256|372:284|372:284|388:316|368:368,2,150,8|8|8,0:0|0:0|0:0,0:0:0:0:
204,340,12262,2,0,P|248:344|296:320,1,100
276,232,12862,1,0,0:0:0:0:
192,208,13162,6,0,P|120:232|48:200,2,150,8|8|8,0:0|0:0|0:0,0:0:0:0:
268,156,14362,2,0,P|364:124|460:160,2,200,0|0|2,0:0|0:0|0:0,0:0:0:0:
200,96,15862,5,0,0:0:0:0:
200,96,16162,2,0,L|120:16,1,100,0|0,0:0|0:0,0:0:0:0:
76,96,16762,2,0,P|44:184|88:288,1,200,2|0,0:0|0:0,0:0:0:0:
260,284,17962,6,0,P|212:271|164:283,1,100,2|0,0:0|0:0,0:0:0:0:
116,359,18562,2,0,P|163:371|211:359,1,100
260,283,19162,2,0,P|296:188|264:100,1,200,2|0,0:0|0:0,0:0:0:0:
456,52,20362,6,0,L|492:152,1,100,8|8,0:0|0:0,0:0:0:0:
416,200,20962,2,0,L|380:100,1,100,8|8,0:0|0:0,0:0:0:0:
304,60,21562,2,0,P|256:48|200:64,1,100,8|8,0:0|0:0,0:0:0:0:
130,105,22162,2,0,L|97:200,1,100,8|8,0:0|0:0,0:0:0:0:
24,148,22762,6,0,L|57:53,2,100,8|8|8,0:0|0:0|0:0,0:0:0:0:
12,240,23662,1,8,0:0:0:0:
76,308,23962,2,0,P|124:320|184:300,1,100,8|8,0:0|0:0,0:0:0:0:
248,256,24562,2,0,P|340:224|436:260,1,200,8|4,0:0|0:0,0:0:0:0:
480,180,25462,5,2,0:0:0:0:
480,180,25762,2,0,L|384:140,1,100,0|10,0:0|0:0,0:0:0:0:
304,108,26362,2,0,P|210:136|106:104,1,200,0|10,0:0|0:0,0:0:0:0:
36,272,27562,6,0,L|140:304,1,100,2|0,0:0|0:0,0:0:0:0:
206,251,28162,2,0,P|256:242|310:254,1,100,2|8,0:0|0:0,0:0:0:0:
340,332,28762,2,0,P|388:252|328:164,1,200,8|8,0:0|0:0,0:0:0:0:
428,12,29962,6,0,L|484:112,1,100,12|2,0:0|0:0,0:0:0:0:
404,153,30562,2,0,L|352:61,1,100,2|8,0:0|0:0,0:0:0:0:
264,60,31162,1,8,0:0:0:0:
184,100,31462,1,2,0:0:0:0:
172,12,31762,6,0,P|100:72|128:168,1,200,8|2,0:0|0:0,0:0:0:0:
36,188,32662,1,2,0:0:0:0:
24,276,32962,2,0,L|88:352,1,100,2|0,0:0|0:0,0:0:0:0:
144,280,33562,2,0,L|208:356,1,100,4|4,0:0|0:0,0:0:0:0:
292,320,34162,1,8,0:0:0:0:
444,192,34762,6,0,P|432:144|440:88,1,100,0|0,0:0|0:0,0:0:0:0:
469,62,35212,2,0,P|401:25|282:80,1,200
242,140,36112,2,0,L|142:124,1,100
165,348,37162,6,0,P|120:297|115:200,2,150
207,331,38212,2,0,P|210:279|244:237,2,100
296,329,39112,2,0,L|353:311,1,50
430,290,39562,6,0,P|400:244|352:224,1,100,8|8,0:0|0:0,0:0:0:0:
332,144,40162,2,0,P|344:96|328:40,2,100,8|8|8,0:0|0:0|0:0,0:0:0:0:
256,96,41062,1,8,0:0:0:0:
180,144,41362,2,0,P|168:96|179:47,1,100,8|8,0:0|0:0,0:0:0:0:
92,28,41962,6,0,L|28:220,1,200,4|0,0:0|0:0,0:0:0:0:
168,332,43162,2,0,P|256:292|344:332,2,200,4|0|4,0:0|0:0|0:0,0:0:0:0:
60,84,45412,6,0,P|116:108|216:72,1,150,4|8,0:0|0:0,0:0:0:0:
288,80,46162,1,0,0:0:0:0:
312,212,46612,2,0,B|340:264|340:264|316:304|324:352,1,150,0|8,0:0|0:0,0:0:0:0:
408,324,47362,6,0,P|428:256|388:184,2,150,0|0|8,0:0|0:0|0:0,0:0:0:0:
320,316,48562,2,0,B|284:300|284:300|256:320|208:324,1,100,0|8,0:0|0:0,0:0:0:0:
184,332,49012,2,0,L|116:196,1,150,0|8,0:0|0:0,0:0:0:0:
56,264,49762,2,0,L|8:164,1,100,0|8,0:0|0:0,0:0:0:0:
48,144,50212,6,0,P|92:116|188:148,1,150,0|8,0:0|0:0,0:0:0:0:
244,204,50962,1,0,0:0:0:0:
292,328,51412,2,0,L|368:176,1,150,0|8,0:0|0:0,0:0:0:0:
448,192,52162,6,0,P|428:256|456:340,2,150,0|0|8,0:0|0:0|0:0,0:0:0:0:
480,108,53362,2,0,L|420:20,1,100,0|8,0:0|0:0,0:0:0:0:
360,88,53962,2,0,B|264:136|264:60|152:104,1,200
60,28,55012,6,0,L|8:176,1,150,4|8,0:0|0:0,0:0:0:0:
60,244,55762,1,0,0:0:0:0:
36,376,56212,2,0,P|112:376|160:324,1,150,0|8,0:0|0:0,0:0:0:0:
216,260,56962,6,0,L|356:324,2,150,0|0|8,0:0|0:0|0:0,0:0:0:0:
208,168,58162,2,0,L|316:216,1,100,0|8,0:0|0:0,0:0:0:0:
340,224,58612,2,0,P|364:160|336:84,1,150,0|8,0:0|0:0,0:0:0:0:
416,36,59362,2,0,L|464:132,1,100,0|8,0:0|0:0,0:0:0:0:
480,164,59812,6,0,P|460:228|468:320,1,150,0|8,0:0|0:0,0:0:0:0:
396,368,60562,1,0,0:0:0:0:
268,320,61012,2,0,B|228:308|228:308|184:352|120:328,1,150,0|8,0:0|0:0,0:0:0:0:
164,248,61762,6,0,P|88:228|16:252,2,150,0|0|8,0:0|0:0|0:0,0:0:0:0:
252,236,62962,2,0,L|344:176,1,100,0|8,0:0|0:0,0:0:0:0:
348,96,63562,2,0,B|304:84|256:56|256:56|212:84|152:100,2,200,0|8|4,0:0|0:0|0:0,0:0:0:0:
76,340,69562,6,0,P|96:272|68:192,2,150,8|8|8,0:0|0:0|0:0,0:0:0:0:
196,208,71062,2,0,L|256:296,1,100
340,300,71662,1,0,0:0:0:0:
404,236,71962,6,0,P|428:300|392:372,2,150,8|8|8,0:0|0:0|0:0,0:0:0:0:
452,64,73462,2,0,P|436:112|456:168,1,100
404,236,74062,1,0,0:0:0:0:
336,176,74362,6,0,L|244:240,1,100
180,284,74962,1,0,0:0:0:0:
68,360,75412,2,0,B|40:320|40:320|64:296|64:296|8:260|8:180|76:140,1,250
76,64,76462,1,0,0:0:0:0:
136,132,76762,6,0,P|136:180|104:224,1,100
176,276,77362,1,0,0:0:0:0:
240,156,77812,2,0,P|332:84|424:160,1,250
332,172,78862,1,0,0:0:0:0:
392,236,79162,6,0,P|368:304|400:376,2,150,8|8|8,0:0|0:0|0:0,0:0:0:0:
240,336,80662,2,0,L|148:292,1,100
80,348,81262,1,0,0:0:0:0:
12,292,81562,2,0,P|28:224|12:140,2,150,8|8|8,0:0|0:0|0:0,0:0:0:0:
80,348,82762,2,0,L|188:167,2,200,0|0|4,0:0|0:0|0:0,0:0:0:0:
480,176,88762,6,0,L|376:176,1,100,8|2,0:0|0:0,0:0:0:0:
412,260,89362,2,0,L|312:260,1,100,2|8,0:0|0:0,0:0:0:0:
252,196,89962,2,0,P|272:104|192:44,2,200,8|4|2,0:0|0:0|0:0,0:0:0:0:
184,136,91462,1,2,0:0:0:0:
116,76,91762,2,0,P|98:168|173:227,2,200,2|4|4,0:0|0:0|0:0,0:0:0:0:
344,36,93562,6,0,L|460:24,1,100
476,56,94012,2,0,P|512:144|492:256,1,200
420,292,94912,2,0,L|304:304,1,100
108,232,95962,6,0,P|184:208|256:216,2,150
88,272,97012,2,0,L|104:376,2,100
28,204,97912,2,0,L|20:152,1,50,0|8,0:0|0:0,0:0:0:0:
104,116,98362,6,0,L|88:4,2,100,8|8|8,0:0|0:0|0:0,0:0:0:0:
184,156,99262,1,8,0:0:0:0:
272,176,99562,2,0,L|372:188,1,100,8|8,0:0|0:0,0:0:0:0:
416,108,100162,2,0,B|348:100|348:100|308:72|308:72|220:64,2,200,8|4|8,0:0|0:0|0:0,0:0:0:0:
325,276,101962,6,0,P|256:300|181:272,2,150,4|4|4,0:0|0:0|0:0,0:0:0:0:
256,216,103162,2,0,P|172:192|88:264,1,200,0|4,0:0|0:0,0:0:0:0:
24,140,104212,6,0,L|148:32,1,150,4|8,0:0|0:0,0:0:0:0:
224,60,104962,1,0,0:0:0:0:
324,152,105412,2,0,B|276:132|276:132|232:160|168:136,1,150,0|8,0:0|0:0,0:0:0:0:
92,152,106162,6,0,P|128:208|224:224,2,150,0|0|8,0:0|0:0|0:0,0:0:0:0:
28,216,107362,2,0,P|56:260|104:292,1,100,0|8,0:0|0:0,0:0:0:0:
136,304,107812,2,0,B|184:320|184:320|224:304|284:320,1,150,0|8,0:0|0:0,0:0:0:0:
308,232,108562,2,0,P|300:184|308:132,1,100,0|8,0:0|0:0,0:0:0:0:
340,104,109012,6,0,P|392:172|396:252,1,150,0|8,0:0|0:0,0:0:0:0:
404,324,109762,1,0,0:0:0:0:
488,216,110212,2,0,L|504:60,1,150,0|8,0:0|0:0,0:0:0:0:
416,48,110962,6,0,P|344:52|268:20,2,150,0|0|8,0:0|0:0|0:0,0:0:0:0:
392,136,112162,2,0,P|340:136|276:120,1,100,0|8,0:0|0:0,0:0:0:0:
208,92,112762,2,0,B|164:68|164:68|100:96|0:76,1,200
76,200,113812,6,0,P|132:244|168:320,1,150,4|8,0:0|0:0,0:0:0:0:
256,296,114562,1,0,0:0:0:0:
200,172,115012,2,0,P|212:104|296:64,1,150,0|8,0:0|0:0,0:0:0:0:
288,152,115762,6,0,L|388:280,2,150,0|0|8,0:0|0:0|0:0,0:0:0:0:
368,112,116962,2,0,L|432:192,1,100,0|8,0:0|0:0,0:0:0:0:
468,164,117412,2,0,B|480:124|480:124|448:80|456:16,1,150,0|8,0:0|0:0,0:0:0:0:
364,24,118162,2,0,P|316:44|280:96,1,100,0|8,0:0|0:0,0:0:0:0:
256,116,118612,6,0,B|232:96|184:112|184:112|172:68|124:52,1,150,0|8,0:0|0:0,0:0:0:0:
96,136,119362,1,0,0:0:0:0:
220,192,119812,2,0,P|280:196|340:112,1,150,0|8,0:0|0:0,0:0:0:0:
408,76,120562,1,0,0:0:0:0:
396,212,121012,6,0,P|344:264|264:288,1,150
204,228,121762,2,0,B|180:220|156:236|156:236|128:216|88:236,1,100,8|0,0:0|0:0,0:0:0:0:
68,148,122362,2,0,P|24:216|80:316,1,200,0|8,0:0|0:0,0:0:0:0:
208,316,123562,6,0,B|280:276|356:352|432:304,1,225.000008583069,8|8,0:0|0:0,0:0:0:0:
280,168,125362,2,0,B|208:208|132:132|56:180,1,225.000008583069,8|8,0:0|0:0,0:0:0:0:
228,60,127162,2,0,B|300:20|376:96|452:48,1,225.000008583069,8|8,0:0|0:0,0:0:0:0:
404,248,128962,6,0,P|336:252|300:324,1,150.000005722046,8|0,0:0|0:0,0:0:0:0:
212,318,129862,2,0,P|176:252|108:248,1,150.000005722046,8|0,0:0|0:0,0:0:0:0:
44,192,130762,5,4,0:0:0:0:
152,20,131662,1,8,0:0:0:0:
360,20,132562,1,8,0:0:0:0:
468,192,133462,1,8,0:0:0:0:
316,324,134362,5,8,0:0:0:0:
256,132,135262,1,8,0:0:0:0:
196,324,136162,1,8,0:0:0:0:
116,140,137062,6,0,P|136:200|136:224,1,75.0000028610231,4|4,0:0|0:0,0:0:0:0:
214,243,137662,1,4,0:0:0:0:
298,243,137962,1,4,0:0:0:0:
56,48,147562,6,0,P|128:64|212:44,2,150,8|8|8,0:0|0:0|0:0,0:0:0:0:
212,136,149062,2,0,L|104:160,1,100,0|0,0:0|0:0,0:0:0:0:
28,192,149662,1,0,0:0:0:0:
56,280,149962,6,0,P|128:264|201:279,2,150,8|8|8,0:0|0:0|0:0,0:0:0:0:
216,364,151462,2,0,P|268:340|288:296,1,100
304,216,152062,1,0,0:0:0:0:
380,264,152362,6,0,L|432:360,2,100
496,192,153412,2,0,P|388:160|304:36,1,250
220,32,154462,1,0,0:0:0:0:
176,112,154762,6,0,L|132:216,2,100
60,180,155812,2,0,P|104:280|212:232,1,250
256,156,156862,1,0,0:0:0:0:
301,235,157162,6,0,L|369:375,2,150,8|8|8,0:0|0:0|0:0,0:0:0:0:
448,336,158662,2,0,L|400:236,1,100
376,160,159262,1,0,0:0:0:0:
291,124,159562,2,0,P|348:76|420:80,2,150,8|8|8,0:0|0:0|0:0,0:0:0:0:
228,188,160762,2,0,L|304:388,1,200,8|8,0:0|0:0,0:0:0:0:
160,260,161962,6,0,L|120:148,1,100
112,124,162412,2,0,P|160:56|284:64,1,200
320,128,163312,2,0,L|360:244,1,100
168,348,164362,2,0,L|0:376,2,150
196,312,165412,2,0,P|200:268|168:200,2,100
284,328,166312,2,0,L|352:316,1,50,0|4,0:0|0:0,0:0:0:0:
352,232,166762,6,0,L|452:216,1,100,8|8,0:0|0:0,0:0:0:0:
492,136,167362,2,0,L|504:20,1,100,8|8,0:0|0:0,0:0:0:0:
420,0,167962,2,0,L|409:99,1,100,8|8,0:0|0:0,0:0:0:0:
332,140,168562,2,0,P|244:164|164:80,2,200,8|0|8,0:0|0:0|0:0,0:0:0:0:
256,192,170362,12,0,171562,0:0:0:0:
116,320,172162,5,0,0:0:0:0:
116,320,172612,2,0,P|128:248|96:168,1,150,4|8,0:0|0:0,0:0:0:0:
136,92,173362,1,0,0:0:0:0:
232,200,173812,2,0,B|204:148|204:148|232:108|220:60,1,150,0|8,0:0|0:0,0:0:0:0:
288,4,174562,6,0,P|308:84|296:156,2,150,0|0|8,0:0|0:0|0:0,0:0:0:0:
380,8,175762,2,0,P|392:64|392:124,1,100
388,152,176212,2,0,B|384:184|372:204|372:204|412:244|400:304,1,150,0|8,0:0|0:0,0:0:0:0:
312,276,176962,2,0,L|256:360,1,100
216,340,177412,6,0,B|192:292|192:292|224:252|208:180,1,150,0|8,0:0|0:0,0:0:0:0:
124,224,178162,1,0,0:0:0:0:
28,132,178612,2,0,B|68:112|68:112|120:136|180:112,1,150,0|8,0:0|0:0,0:0:0:0:
124,40,179362,6,0,P|200:36|256:88,2,150,0|0|8,0:0|0:0|0:0,0:0:0:0:
172,116,180562,2,0,P|212:156|272:164,1,100
336,132,181162,2,0,B|352:184|324:232|284:256|284:256|216:256,1,200
128,344,182212,6,0,L|292:344,1,150,4|8,0:0|0:0,0:0:0:0:
364,316,182962,1,0,0:0:0:0:
244,252,183412,2,0,P|160:248|96:204,1,150,0|8,0:0|0:0,0:0:0:0:
136,128,184162,6,0,P|60:136|16:196,2,150,0|0|8,0:0|0:0|0:0,0:0:0:0:
224,152,185362,2,0,P|268:164|328:152,1,100
364,144,185812,2,0,B|404:132|404:132|452:168|512:152,1,150,0|8,0:0|0:0,0:0:0:0:
464,72,186562,2,0,P|420:52|360:60,1,100
328,72,187012,6,0,B|288:84|288:84|240:48|185:62,1,150,0|8,0:0|0:0,0:0:0:0:
220,148,187762,1,0,0:0:0:0:
96,200,188212,2,0,L|224:312,1,150,0|8,0:0|0:0,0:0:0:0:
296,268,188962,1,0,0:0:0:0:
404,352,189412,6,0,L|456:204,1,150,0|8,0:0|0:0,0:0:0:0:
364,204,190162,2,0,L|400:108,1,100,0|8,0:0|0:0,0:0:0:0:
336,44,190762,2,0,B|240:4|240:68|136:32,1,200,0|8,0:0|0:0,0:0:0:0:
4,40,191812,1,4,0:0:0:0:
68,160,192262,6,0,L|36:264,1,100,4|8,0:0|0:0,0:0:0:0:
128,240,192862,2,0,L|96:344,1,100,0|8,0:0|0:0,0:0:0:0:
180,372,193462,1,0,0:0:0:0:
228,296,193762,2,0,B|268:288|268:288|312:324|376:324,1,150,8|4,0:0|0:0,0:0:0:0:
472,236,194662,6,0,P|416:236|372:228,1,100,8|8,0:0|0:0,0:0:0:0:
364,140,195262,2,0,P|416:148|468:152,1,100,8|8,0:0|0:0,0:0:0:0:
472,64,195862,2,0,P|424:60|360:48,1,100,8|8,0:0|0:0,0:0:0:0:
292,88,196462,6,0,B|228:120|228:120|180:72|104:96,1,200,4|8,0:0|0:0,0:0:0:0:
156,172,197362,2,0,P|104:180|52:168,1,100,0|8,0:0|0:0,0:0:0:0:
24,252,197962,2,0,P|72:260|124:288,1,100,0|8,0:0|0:0,0:0:0:0:
196,328,198562,2,0,P|248:320|304:332,1,100,0|8,0:0|0:0,0:0:0:0:
380,360,199162,6,0,P|412:268|376:168,1,200,0|8,0:0|0:0,0:0:0:0:
272,28,200362,2,0,P|244:121|272:217,1,200,0|8,0:0|0:0,0:0:0:0:
164,300,201412,6,0,P|184:232|132:156,1,150,4|8,0:0|0:0,0:0:0:0:
100,240,202162,2,0,L|0:272,1,100,0|8,0:0|0:0,0:0:0:0:
12,180,202762,2,0,P|4:128|20:72,1,100,0|8,0:0|0:0,0:0:0:0:
92,132,203362,2,0,P|164:144|240:132,1,150,0|4,0:0|0:0,0:0:0:0:
364,76,204262,6,0,L|424:184,1,100,8|8,0:0|0:0,0:0:0:0:
324,172,204862,2,0,L|380:268,1,100,8|8,0:0|0:0,0:0:0:0:
460,288,205462,2,0,P|432:328|376:348,1,100,8|8,0:0|0:0,0:0:0:0:
304,312,206062,6,0,B|248:280|248:280|216:272|160:280|116:304,1,200,4|8,0:0|0:0,0:0:0:0:
48,360,206962,2,0,P|32:312|40:260,1,100,0|8,0:0|0:0,0:0:0:0:
112,216,207562,2,0,P|160:200|220:196,1,100,0|8,0:0|0:0,0:0:0:0:
256,192,208162,12,2,211257,0:0:0:0:
256,352,211979,6,0,L|256:247,1,100,2|2,0:0|0:0,0:0:0:0:
304,172,212702,2,0,P|256:160|208:172,1,100,2|2,0:0|0:0,0:0:0:0:
136,228,213481,2,0,P|120:180|136:120,1,100,2|2,0:0|0:0,0:0:0:0:
64,80,214297,6,0,L|20:176,1,100,2|2,0:0|0:0,0:0:0:0:
52,248,215185,1,2,0:0:0:0:
52,248,215661,1,2,0:0:0:0:
116,312,216178,5,2,0:0:0:0:
116,312,216749,1,2,0:0:0:0:
256,192,217465,12,0,220994,0:0:0:0:
