osu file format v14

[General]
AudioFilename: The Empress.mp3
AudioLeadIn: 1500
PreviewTime: 32314
Countdown: 0
SampleSet: None
StackLeniency: 0.7
Mode: 3
LetterboxInBreaks: 0
SpecialStyle: 0
WidescreenStoryboard: 1

[Editor]
DistanceSpacing: 1
BeatDivisor: 1
GridSize: 16
TimelineZoom: 0.9999998

[Metadata]
Title:The Empress scream off ver
TitleUnicode:The Empress scream off ver
Artist:UNDEAD CORPORATION
ArtistUnicode:UNDEAD CORPORATION
Creator:TheZiemniax
Version:NM
Source:東方Project
Tags:flandre touhou metal drum death Jepetski Zenx 暴君 C84 Comiket 84 パインツリーさわけん Admiral Wisteria Promontory U.N.オーエンは彼女なのか? Owen was her? Scarlet 東方紅魔郷 ~ the Embodiment of Scarlet Devil Touhou Koumakyou Eastern Lair
BeatmapID:746952
BeatmapSetID:315435

[Difficulty]
HPDrainRate:7.5
CircleSize:4
OverallDifficulty:7.5
ApproachRate:9
SliderMultiplier:1.4
SliderTickRate:1

[Events]
//Background and Video events
0,0,"bg.jpg",0,0
//Break Periods
//Storyboard Layer 0 (Background)
//Storyboard Layer 1 (Fail)
//Storyboard Layer 2 (Pass)
//Storyboard Layer 3 (Foreground)
//Storyboard Sound Samples

[TimingPoints]
342,222.222222222222,4,3,0,40,1,0
3870,222.2222,4,3,0,40,1,0
32314,-100,4,3,0,40,0,1
46536,-100,4,3,0,40,0,0
105203,-100,4,3,0,40,0,1
119425,-100,4,3,0,40,0,0

[HitObjects]
64,192,119,5,0,2:0:0:0:
192,192,230,1,0,2:0:0:0:
448,192,342,1,0,2:0:0:0:
320,192,564,1,0,2:0:0:0:
320,192,786,1,0,2:0:0:0:
192,192,1008,1,0,2:0:0:0:
192,192,1230,1,0,2:0:0:0:
64,192,1453,1,0,2:0:0:0:
64,192,1675,1,0,2:0:0:0:
320,192,1897,1,0,2:0:0:0:
192,192,2119,1,0,2:0:0:0:
320,192,2341,1,0,2:0:0:0:
320,192,2564,1,0,2:0:0:0:
64,192,2786,1,0,2:0:0:0:
192,192,3008,128,0,3453:2:0:0:0:
448,192,3453,1,0,2:0:0:0:
64,192,3869,128,2,4758:0:0:0:0:
320,192,3869,1,2,0:0:0:0:
448,192,4758,1,2,0:0:0:0:
192,192,4758,1,2,0:0:0:0:
448,192,5647,128,2,6536:0:0:0:0:
192,192,5647,1,2,0:0:0:0:
64,192,6536,1,2,0:0:0:0:
320,192,6536,1,2,0:0:0:0:
64,192,6981,1,4,0:0:0:0:
192,192,7203,1,4,0:0:0:0:
320,192,7425,1,2,0:0:0:0:
448,192,7425,1,2,0:0:0:0:
448,192,7647,1,2,0:0:0:0:
64,192,7869,1,2,0:0:0:0:
64,192,8092,1,2,0:0:0:0:
448,192,8314,1,2,0:0:0:0:
320,192,8536,1,2,0:0:0:0:
192,192,8758,1,2,0:0:0:0:
64,192,8981,1,2,0:0:0:0:
320,192,9203,1,2,0:0:0:0:
320,192,9425,1,2,0:0:0:0:
64,192,9647,1,2,0:0:0:0:
64,192,9869,1,2,0:0:0:0:
448,192,10092,1,2,0:0:0:0:
320,192,10314,1,2,0:0:0:0:
192,192,10536,1,2,0:0:0:0:
320,192,10758,1,2,0:0:0:0:
448,192,10981,1,2,0:0:0:0:
64,192,10981,128,2,11869:0:0:0:0:
448,192,11203,1,2,0:0:0:0:
320,192,11425,1,2,0:0:0:0:
320,192,11647,1,2,0:0:0:0:
448,192,11869,1,2,0:0:0:0:
320,192,12092,1,2,0:0:0:0:
192,192,12314,1,2,0:0:0:0:
64,192,12536,1,2,0:0:0:0:
320,192,12758,1,4,0:0:0:0:
448,192,12981,1,4,0:0:0:0:
192,192,13203,1,4,0:0:0:0:
64,192,13425,1,4,0:0:0:0:
320,192,13647,1,4,0:0:0:0:
192,192,13869,1,4,0:0:0:0:
64,192,14092,1,4,0:0:0:0:
192,192,14314,1,4,0:0:0:0:
448,192,14536,1,4,0:0:0:0:
320,192,14758,1,4,0:0:0:0:
64,192,14981,1,4,0:0:0:0:
192,192,15203,1,4,0:0:0:0:
320,192,15425,1,4,0:0:0:0:
448,192,15647,1,4,0:0:0:0:
192,192,15869,1,4,0:0:0:0:
320,192,16092,1,4,0:0:0:0:
64,192,16314,1,4,0:0:0:0:
448,192,16536,1,4,0:0:0:0:
320,192,16758,1,4,0:0:0:0:
192,192,16981,1,4,0:0:0:0:
64,192,17203,1,2,0:0:0:0:
320,192,17203,128,2,17647:0:0:0:0:
448,192,17647,1,2,0:0:0:0:
192,192,17647,1,2,0:0:0:0:
448,192,18092,1,4,0:0:0:0:
64,192,18092,1,4,0:0:0:0:
320,192,18314,1,4,0:0:0:0:
192,192,18536,1,4,0:0:0:0:
320,192,18758,1,4,0:0:0:0:
448,192,18981,128,4,19203:0:0:0:0:
320,192,19203,128,4,19425:0:0:0:0:
192,192,19425,128,4,19647:0:0:0:0:
64,192,19647,128,4,19869:0:0:0:0:
448,192,19869,1,4,0:0:0:0:
192,192,20092,1,4,0:0:0:0:
320,192,20314,1,4,0:0:0:0:
192,192,20536,1,4,0:0:0:0:
64,192,20758,128,4,20981:0:0:0:0:
192,192,20981,128,4,21203:0:0:0:0:
320,192,21203,128,4,21647:0:0:0:0:
64,192,21647,1,4,0:0:0:0:
448,192,21647,1,4,0:0:0:0:
192,192,21869,1,4,0:0:0:0:
320,192,22092,1,4,0:0:0:0:
192,192,22314,1,4,0:0:0:0:
448,192,22536,128,4,22758:0:0:0:0:
320,192,22758,128,4,22981:0:0:0:0:
192,192,22981,128,4,23203:0:0:0:0:
64,192,23203,128,4,23425:0:0:0:0:
448,192,23425,1,4,0:0:0:0:
192,192,23647,1,4,0:0:0:0:
320,192,23869,1,4,0:0:0:0:
64,192,24092,1,4,0:0:0:0:
192,192,24314,128,4,24536:0:0:0:0:
320,192,24536,128,4,24758:0:0:0:0:
448,192,24758,128,4,25203:0:0:0:0:
64,192,25203,1,4,0:0:0:0:
192,192,25203,1,4,0:0:0:0:
320,192,25425,1,4,0:0:0:0:
192,192,25647,1,4,0:0:0:0:
320,192,25869,1,4,0:0:0:0:
448,192,26092,128,4,26314:0:0:0:0:
320,192,26314,128,4,26536:0:0:0:0:
192,192,26536,128,4,26758:0:0:0:0:
64,192,26758,128,4,26981:0:0:0:0:
448,192,26981,1,4,0:0:0:0:
192,192,27203,1,4,0:0:0:0:
320,192,27425,1,4,0:0:0:0:
192,192,27647,1,4,0:0:0:0:
64,192,27869,128,4,28092:0:0:0:0:
192,192,28092,128,4,28314:0:0:0:0:
320,192,28314,1,4,0:0:0:0:
448,192,28758,128,4,29647:0:0:0:0:
64,192,28758,1,4,0:0:0:0:
192,192,29203,1,4,0:0:0:0:
64,192,29647,128,4,30536:0:0:0:0:
320,192,29647,1,4,0:0:0:0:
448,192,30092,1,4,0:0:0:0:
192,192,30536,1,4,0:0:0:0:
320,192,30536,1,4,0:0:0:0:
448,192,30981,1,4,0:0:0:0:
320,192,30981,1,4,0:0:0:0:
64,192,31203,1,4,0:0:0:0:
448,192,31425,1,4,0:0:0:0:
320,192,31425,1,4,0:0:0:0:
192,192,31869,1,2,0:0:0:0:
448,192,32314,128,0,32758:0:0:0:0:
64,192,32314,1,0,0:0:0:0:
320,192,32758,128,0,33203:0:0:0:0:
64,192,33203,128,0,33647:0:0:0:0:
448,192,33203,1,0,0:0:0:0:
192,192,33647,1,0,0:0:0:0:
448,192,33869,1,0,0:0:0:0:
320,192,34092,128,0,34536:0:0:0:0:
64,192,34092,1,0,0:0:0:0:
192,192,34536,128,0,34981:0:0:0:0:
64,192,34981,128,0,35425:0:0:0:0:
320,192,34981,1,0,0:0:0:0:
192,192,35425,128,0,35869:0:0:0:0:
448,192,35869,128,0,36314:0:0:0:0:
64,192,35869,1,0,0:0:0:0:
192,192,36314,128,0,36758:0:0:0:0:
320,192,36758,128,0,37203:0:0:0:0:
448,192,36758,1,0,0:0:0:0:
64,192,37203,128,0,37647:0:0:0:0:
448,192,37647,1,4,0:0:0:0:
320,192,37869,1,4,0:0:0:0:
64,192,38092,1,4,0:0:0:0:
192,192,38314,1,4,0:0:0:0:
448,192,38536,1,4,0:0:0:0:
320,192,38758,1,4,0:0:0:0:
192,192,38981,1,4,0:0:0:0:
64,192,39203,1,4,0:0:0:0:
448,192,39425,128,0,39869:0:0:0:0:
320,192,39425,1,0,0:0:0:0:
192,192,39869,128,0,40314:0:0:0:0:
320,192,40314,128,0,40758:0:0:0:0:
64,192,40314,1,0,0:0:0:0:
64,192,40758,128,0,41203:0:0:0:0:
320,192,41203,128,0,41647:0:0:0:0:
448,192,41203,1,0,0:0:0:0:
192,192,41647,128,0,42092:0:0:0:0:
320,192,42092,128,0,42536:0:0:0:0:
64,192,42092,1,0,0:0:0:0:
448,192,42536,128,0,42981:0:0:0:0:
192,192,42981,128,0,43425:0:0:0:0:
320,192,42981,1,0,0:0:0:0:
64,192,43425,128,0,43869:0:0:0:0:
320,192,43869,128,0,44314:0:0:0:0:
192,192,43869,1,0,0:0:0:0:
192,192,44314,128,0,44758:0:0:0:0:
320,192,44758,1,4,0:0:0:0:
448,192,44981,1,4,0:0:0:0:
64,192,45203,1,4,0:0:0:0:
320,192,45425,1,4,0:0:0:0:
64,192,45647,1,4,0:0:0:0:
192,192,45869,1,4,0:0:0:0:
320,192,46092,1,2,0:0:0:0:
448,192,46536,1,4,0:0:0:0:
320,192,46536,1,4,0:0:0:0:
64,192,46758,1,4,0:0:0:0:
192,192,46758,1,4,0:0:0:0:
448,192,46981,1,4,0:0:0:0:
64,192,47203,1,4,0:0:0:0:
192,192,47203,1,4,0:0:0:0:
320,192,47425,1,4,0:0:0:0:
192,192,47647,1,4,0:0:0:0:
448,192,47647,1,4,0:0:0:0:
320,192,47869,1,4,0:0:0:0:
192,192,48092,1,4,0:0:0:0:
448,192,48092,1,4,0:0:0:0:
64,192,48314,1,4,0:0:0:0:
192,192,48536,1,4,0:0:0:0:
320,192,48536,1,4,0:0:0:0:
64,192,48758,1,4,0:0:0:0:
192,192,48981,1,4,0:0:0:0:
320,192,48981,1,4,0:0:0:0:
448,192,49203,1,4,0:0:0:0:
320,192,49425,1,4,0:0:0:0:
64,192,49425,1,4,0:0:0:0:
448,192,49647,1,4,0:0:0:0:
320,192,49869,1,4,0:0:0:0:
64,192,49869,1,4,0:0:0:0:
448,192,50092,128,4,50981:0:0:0:0:
320,192,50314,1,4,0:0:0:0:
64,192,50536,1,4,0:0:0:0:
192,192,50758,1,4,0:0:0:0:
320,192,50981,128,4,51869:0:0:0:0:
64,192,51203,1,4,0:0:0:0:
448,192,51425,1,4,0:0:0:0:
192,192,51647,1,4,0:0:0:0:
64,192,51869,128,4,52758:0:0:0:0:
448,192,52092,1,4,0:0:0:0:
320,192,52314,1,4,0:0:0:0:
448,192,52536,1,4,0:0:0:0:
192,192,52758,128,4,53425:0:0:0:0:
320,192,52981,1,4,0:0:0:0:
448,192,53203,1,4,0:0:0:0:
64,192,53425,1,4,0:0:0:0:
448,192,53647,128,2,55425:0:0:0:0:
320,192,53647,1,4,0:0:0:0:
64,192,54092,1,4,0:0:0:0:
192,192,54536,1,4,0:0:0:0:
64,192,54981,1,4,0:0:0:0:
192,192,55425,128,2,56314:0:0:0:0:
448,192,55869,1,4,0:0:0:0:
320,192,56314,128,4,56758:0:0:0:0:
448,192,56758,1,4,0:0:0:0:
64,192,56981,1,4,0:0:0:0:
192,192,57203,1,4,0:0:0:0:
448,192,57203,1,4,0:0:0:0:
320,192,57425,1,4,0:0:0:0:
64,192,57647,1,4,0:0:0:0:
448,192,57869,1,4,0:0:0:0:
64,192,58092,1,4,0:0:0:0:
192,192,58092,1,4,0:0:0:0:
448,192,58314,1,4,0:0:0:0:
320,192,58536,1,4,0:0:0:0:
192,192,58758,1,4,0:0:0:0:
448,192,58981,1,4,0:0:0:0:
64,192,58981,1,4,0:0:0:0:
320,192,59203,1,4,0:0:0:0:
448,192,59425,1,4,0:0:0:0:
192,192,59647,1,4,0:0:0:0:
448,192,59869,1,4,0:0:0:0:
320,192,59981,1,4,0:0:0:0:
192,192,60092,1,4,0:0:0:0:
64,192,60203,1,4,0:0:0:0:
448,192,60314,1,4,0:0:0:0:
320,192,60425,1,4,0:0:0:0:
192,192,60536,1,4,0:0:0:0:
64,192,60647,1,4,0:0:0:0:
320,192,60758,1,0,0:0:0:0:
448,192,60758,1,0,0:0:0:0:
64,192,60981,1,4,0:0:0:0:
192,192,61203,1,0,0:0:0:0:
448,192,61203,1,0,0:0:0:0:
64,192,61425,1,4,0:0:0:0:
192,192,61647,1,0,0:0:0:0:
320,192,61647,1,0,0:0:0:0:
448,192,61869,1,4,0:0:0:0:
64,192,62092,1,0,0:0:0:0:
320,192,62092,1,0,0:0:0:0:
448,192,62314,1,4,0:0:0:0:
64,192,62536,1,0,0:0:0:0:
192,192,62536,1,0,0:0:0:0:
448,192,62758,1,4,0:0:0:0:
320,192,62981,1,0,0:0:0:0:
64,192,62981,1,0,0:0:0:0:
448,192,63203,1,4,0:0:0:0:
320,192,63425,1,0,0:0:0:0:
192,192,63425,1,0,0:0:0:0:
64,192,63647,1,4,0:0:0:0:
192,192,63869,1,0,0:0:0:0:
448,192,63869,1,0,0:0:0:0:
320,192,64092,1,4,0:0:0:0:
448,192,64314,1,0,0:0:0:0:
64,192,64314,1,0,0:0:0:0:
320,192,64536,1,4,0:0:0:0:
64,192,64758,1,0,0:0:0:0:
192,192,64758,1,0,0:0:0:0:
320,192,64981,1,4,0:0:0:0:
64,192,65203,1,0,0:0:0:0:
448,192,65203,1,0,0:0:0:0:
192,192,65425,1,4,0:0:0:0:
320,192,65647,1,0,0:0:0:0:
448,192,65647,1,0,0:0:0:0:
192,192,65869,1,4,0:0:0:0:
64,192,66092,1,0,0:0:0:0:
320,192,66092,1,0,0:0:0:0:
448,192,66314,1,4,0:0:0:0:
192,192,66536,1,0,0:0:0:0:
320,192,66536,1,0,0:0:0:0:
64,192,66758,1,4,0:0:0:0:
192,192,66981,1,0,0:0:0:0:
448,192,66981,1,0,0:0:0:0:
64,192,67203,1,4,0:0:0:0:
192,192,67425,1,0,0:0:0:0:
320,192,67425,1,0,0:0:0:0:
448,192,67647,1,4,0:0:0:0:
320,192,67869,1,0,0:0:0:0:
64,192,67869,1,0,0:0:0:0:
192,192,68092,1,4,0:0:0:0:
64,192,68314,1,0,0:0:0:0:
448,192,68314,1,0,0:0:0:0:
320,192,68536,1,4,0:0:0:0:
192,192,68758,1,0,0:0:0:0:
448,192,68758,1,0,0:0:0:0:
320,192,68981,1,4,0:0:0:0:
64,192,69203,1,0,0:0:0:0:
448,192,69203,1,0,0:0:0:0:
192,192,69425,1,4,0:0:0:0:
320,192,69647,1,0,0:0:0:0:
448,192,69647,1,0,0:0:0:0:
64,192,69869,1,4,0:0:0:0:
192,192,70092,1,0,0:0:0:0:
320,192,70092,1,0,0:0:0:0:
448,192,70314,1,4,0:0:0:0:
64,192,70536,1,0,0:0:0:0:
192,192,70536,1,0,0:0:0:0:
448,192,70758,1,4,0:0:0:0:
192,192,70981,1,0,0:0:0:0:
320,192,70981,1,0,0:0:0:0:
64,192,71203,1,4,0:0:0:0:
320,192,71425,1,0,0:0:0:0:
448,192,71425,1,0,0:0:0:0:
320,192,71758,1,0,0:0:0:0:
448,192,71758,1,0,0:0:0:0:
320,192,72092,1,4,0:0:0:0:
448,192,72092,1,4,0:0:0:0:
64,192,72314,1,0,0:0:0:0:
192,192,72314,1,0,0:0:0:0:
64,192,72647,1,0,0:0:0:0:
192,192,72647,1,0,0:0:0:0:
64,192,72981,1,4,0:0:0:0:
192,192,72981,1,4,0:0:0:0:
448,192,73203,1,4,0:0:0:0:
64,192,73203,1,4,0:0:0:0:
320,192,73425,1,4,0:0:0:0:
192,192,73647,1,4,0:0:0:0:
64,192,73869,1,4,0:0:0:0:
320,192,74092,1,4,0:0:0:0:
192,192,74314,1,4,0:0:0:0:
448,192,74536,1,4,0:0:0:0:
64,192,74758,1,4,0:0:0:0:
320,192,74981,1,4,0:0:0:0:
448,192,75092,1,4,0:0:0:0:
192,192,75203,1,4,0:0:0:0:
64,192,75314,1,4,0:0:0:0:
448,192,75425,1,4,0:0:0:0:
320,192,75536,1,4,0:0:0:0:
64,192,75647,1,4,0:0:0:0:
192,192,75758,1,4,0:0:0:0:
448,192,75869,1,4,0:0:0:0:
64,192,75981,1,4,0:0:0:0:
320,192,76092,1,4,0:0:0:0:
192,192,76203,1,4,0:0:0:0:
448,192,76314,128,2,76758:0:0:0:0:
64,192,76314,1,2,0:0:0:0:
64,192,76758,1,4,0:0:0:0:
192,192,76758,1,4,0:0:0:0:
320,192,76981,1,4,0:0:0:0:
192,192,77203,1,4,0:0:0:0:
448,192,77425,1,4,0:0:0:0:
192,192,77647,1,4,0:0:0:0:
320,192,77647,1,4,0:0:0:0:
448,192,77869,1,4,0:0:0:0:
64,192,78092,1,4,0:0:0:0:
192,192,78314,1,4,0:0:0:0:
64,192,78536,1,4,0:0:0:0:
320,192,78536,1,4,0:0:0:0:
448,192,78758,1,4,0:0:0:0:
320,192,78981,1,4,0:0:0:0:
320,192,79203,1,4,0:0:0:0:
64,192,79425,1,4,0:0:0:0:
192,192,79425,1,4,0:0:0:0:
448,192,79647,1,4,0:0:0:0:
320,192,79869,1,4,0:0:0:0:
64,192,80092,1,4,0:0:0:0:
192,192,80314,1,4,0:0:0:0:
448,192,80314,1,4,0:0:0:0:
320,192,80536,1,4,0:0:0:0:
64,192,80758,1,4,0:0:0:0:
64,192,80981,1,4,0:0:0:0:
192,192,81203,1,4,0:0:0:0:
320,192,81203,128,4,81647:0:0:0:0:
448,192,81869,128,4,82092:0:0:0:0:
192,192,82092,128,4,82314:0:0:0:0:
320,192,82314,128,4,82536:0:0:0:0:
64,192,82536,128,4,82758:0:0:0:0:
192,192,82758,128,4,82981:0:0:0:0:
64,192,82981,128,2,83425:0:0:0:0:
448,192,83425,1,4,0:0:0:0:
320,192,83647,1,4,0:0:0:0:
64,192,83869,1,4,0:0:0:0:
448,192,83869,1,4,0:0:0:0:
192,192,84092,1,4,0:0:0:0:
320,192,84314,1,4,0:0:0:0:
448,192,84536,1,4,0:0:0:0:
64,192,84758,1,4,0:0:0:0:
192,192,84758,1,4,0:0:0:0:
320,192,84981,1,4,0:0:0:0:
448,192,85203,1,4,0:0:0:0:
448,192,85425,1,4,0:0:0:0:
192,192,85647,1,4,0:0:0:0:
320,192,85647,1,4,0:0:0:0:
448,192,85869,1,4,0:0:0:0:
64,192,86092,1,4,0:0:0:0:
192,192,86314,1,4,0:0:0:0:
64,192,86536,1,4,0:0:0:0:
320,192,86536,1,4,0:0:0:0:
448,192,86758,1,4,0:0:0:0:
64,192,86981,1,4,0:0:0:0:
448,192,87203,1,4,0:0:0:0:
192,192,87425,1,4,0:0:0:0:
64,192,87425,128,4,87869:0:0:0:0:
320,192,87869,128,4,88314:0:0:0:0:
448,192,88314,128,4,88758:0:0:0:0:
192,192,88758,128,4,89203:0:0:0:0:
64,192,89203,128,4,90536:0:0:0:0:
320,192,89425,1,4,0:0:0:0:
192,192,89647,1,4,0:0:0:0:
320,192,89869,1,4,0:0:0:0:
448,192,90092,128,2,90536:0:0:0:0:
192,192,90536,1,4,0:0:0:0:
320,192,90758,1,4,0:0:0:0:
64,192,90981,1,4,0:0:0:0:
448,192,90981,1,4,0:0:0:0:
192,192,91203,1,4,0:0:0:0:
320,192,91425,1,4,0:0:0:0:
192,192,91647,1,4,0:0:0:0:
448,192,91869,128,4,92092:0:0:0:0:
320,192,92092,128,4,92314:0:0:0:0:
192,192,92314,128,4,92536:0:0:0:0:
64,192,92536,128,4,92758:0:0:0:0:
448,192,92758,1,4,0:0:0:0:
320,192,92981,1,4,0:0:0:0:
192,192,93203,1,4,0:0:0:0:
320,192,93425,1,4,0:0:0:0:
192,192,93647,128,4,93869:0:0:0:0:
320,192,93869,128,4,94092:0:0:0:0:
448,192,94092,128,4,94536:0:0:0:0:
192,192,94536,1,4,0:0:0:0:
64,192,94758,1,4,0:0:0:0:
320,192,94981,1,4,0:0:0:0:
64,192,95203,1,4,0:0:0:0:
448,192,95425,128,4,95647:0:0:0:0:
320,192,95647,128,4,95869:0:0:0:0:
192,192,95869,128,4,96092:0:0:0:0:
64,192,96092,128,4,96314:0:0:0:0:
320,192,96314,1,4,0:0:0:0:
448,192,96536,1,4,0:0:0:0:
192,192,96758,1,4,0:0:0:0:
448,192,96981,1,4,0:0:0:0:
64,192,97203,128,4,97425:0:0:0:0:
192,192,97425,128,4,97647:0:0:0:0:
320,192,97647,128,4,98092:0:0:0:0:
64,192,98092,1,4,0:0:0:0:
192,192,98314,1,4,0:0:0:0:
320,192,98536,1,4,0:0:0:0:
192,192,98758,1,4,0:0:0:0:
448,192,98981,128,4,99203:0:0:0:0:
320,192,99203,128,4,99425:0:0:0:0:
192,192,99425,128,4,99647:0:0:0:0:
64,192,99647,128,4,99869:0:0:0:0:
448,192,99869,1,4,0:0:0:0:
320,192,100092,1,4,0:0:0:0:
192,192,100314,1,4,0:0:0:0:
320,192,100536,1,4,0:0:0:0:
192,192,100758,128,4,100981:0:0:0:0:
320,192,100981,128,4,101203:0:0:0:0:
448,192,101203,1,4,0:0:0:0:
192,192,101425,1,4,0:0:0:0:
64,192,101647,128,2,102092:0:0:0:0:
320,192,101647,1,2,0:0:0:0:
448,192,102092,128,4,102536:0:0:0:0:
192,192,102092,1,4,0:0:0:0:
64,192,102536,128,2,102981:0:0:0:0:
320,192,102536,1,2,0:0:0:0:
448,192,102981,128,4,103425:0:0:0:0:
192,192,102981,1,4,0:0:0:0:
320,192,103425,1,4,0:0:0:0:
192,192,103647,1,4,0:0:0:0:
448,192,103758,1,4,0:0:0:0:
320,192,103869,1,4,0:0:0:0:
64,192,103869,1,4,0:0:0:0:
448,192,104092,1,4,0:0:0:0:
64,192,104314,128,4,104758:0:0:0:0:
320,192,104314,1,4,0:0:0:0:
448,192,104758,1,2,0:0:0:0:
448,192,105203,128,0,105647:0:0:0:0:
192,192,105203,1,0,0:0:0:0:
320,192,105647,128,0,106092:0:0:0:0:
64,192,105647,1,0,0:0:0:0:
192,192,106092,128,0,106536:0:0:0:0:
448,192,106092,1,0,0:0:0:0:
448,192,106536,1,0,0:0:0:0:
320,192,106758,1,0,0:0:0:0:
448,192,106981,128,0,107425:0:0:0:0:
192,192,106981,1,0,0:0:0:0:
192,192,107425,128,0,107869:0:0:0:0:
64,192,107425,1,0,0:0:0:0:
320,192,107869,128,0,108314:0:0:0:0:
448,192,107869,1,0,0:0:0:0:
64,192,108314,128,0,108758:0:0:0:0:
192,192,108314,1,0,0:0:0:0:
448,192,108758,128,0,109203:0:0:0:0:
320,192,108758,1,0,0:0:0:0:
320,192,109203,128,0,109647:0:0:0:0:
192,192,109203,1,0,0:0:0:0:
64,192,109647,128,0,110092:0:0:0:0:
448,192,109647,1,0,0:0:0:0:
192,192,110092,128,0,110536:0:0:0:0:
320,192,110092,1,0,0:0:0:0:
64,192,110536,1,4,0:0:0:0:
448,192,110758,1,4,0:0:0:0:
320,192,110981,1,4,0:0:0:0:
192,192,111203,1,4,0:0:0:0:
448,192,111425,1,4,0:0:0:0:
64,192,111647,1,4,0:0:0:0:
192,192,111869,1,4,0:0:0:0:
320,192,112092,1,4,0:0:0:0:
192,192,112314,128,0,112758:0:0:0:0:
448,192,112314,1,0,0:0:0:0:
64,192,112314,1,0,0:0:0:0:
320,192,112758,128,0,113203:0:0:0:0:
448,192,112758,1,0,0:0:0:0:
192,192,113203,128,0,113647:0:0:0:0:
64,192,113203,1,0,0:0:0:0:
64,192,113647,128,0,114092:0:0:0:0:
448,192,113647,1,0,0:0:0:0:
448,192,114092,128,0,114536:0:0:0:0:
320,192,114092,1,0,0:0:0:0:
320,192,114536,128,0,114981:0:0:0:0:
64,192,114536,1,0,0:0:0:0:
192,192,114981,128,0,115425:0:0:0:0:
448,192,114981,1,0,0:0:0:0:
320,192,115425,128,0,115869:0:0:0:0:
64,192,115425,1,0,0:0:0:0:
192,192,115869,128,0,116314:0:0:0:0:
448,192,115869,1,0,0:0:0:0:
64,192,116314,128,0,116758:0:0:0:0:
320,192,116314,1,0,0:0:0:0:
448,192,116758,128,0,117203:0:0:0:0:
192,192,116758,1,0,0:0:0:0:
192,192,117203,128,0,117647:0:0:0:0:
320,192,117203,1,0,0:0:0:0:
64,192,117647,1,4,0:0:0:0:
320,192,117869,1,4,0:0:0:0:
192,192,118092,1,4,0:0:0:0:
320,192,118314,1,4,0:0:0:0:
64,192,118536,1,4,0:0:0:0:
448,192,118758,1,4,0:0:0:0:
192,192,118981,1,4,0:0:0:0:
320,192,119203,1,4,0:0:0:0:
448,192,119425,128,0,119647:2:0:0:0:
64,192,119425,1,0,2:0:0:0:
320,192,119869,128,0,120092:2:0:0:0:
448,192,120314,128,0,120536:2:0:0:0:
64,192,120758,1,0,2:0:0:0:
64,192,120981,1,0,2:0:0:0:
192,192,121203,128,0,121425:2:0:0:0:
320,192,121647,128,0,121869:2:0:0:0:
64,192,122092,128,0,122314:2:0:0:0:
448,192,122536,128,0,122758:2:0:0:0:
320,192,122981,128,0,123203:2:0:0:0:
192,192,123425,128,0,123647:2:0:0:0:
448,192,123869,128,0,124092:2:0:0:0:
64,192,124314,128,0,124536:2:0:0:0:
448,192,124758,128,0,124981:2:0:0:0:
320,192,125203,128,0,125425:2:0:0:0:
192,192,125647,128,0,125981:2:0:0:0:
448,192,126536,128,0,126758:2:0:0:0:
192,192,126981,128,0,127203:2:0:0:0:
320,192,127425,128,0,127647:2:0:0:0:
64,192,127869,128,0,128092:2:0:0:0:
320,192,128314,128,0,128536:2:0:0:0:
192,192,128758,128,0,128981:2:0:0:0:
64,192,129203,128,0,129425:2:0:0:0:
192,192,129647,128,0,129869:2:0:0:0:
320,192,130092,128,0,130314:2:0:0:0:
64,192,130536,128,0,130758:2:0:0:0:
320,192,130981,128,0,131203:2:0:0:0:
192,192,131425,128,0,131647:2:0:0:0:
448,192,131869,128,0,132092:2:0:0:0:
320,192,132314,128,0,132536:2:0:0:0:
192,192,132758,128,0,133092:2:0:0:0:
