osu file format v14

[General]
AudioFilename: UNDEAD CORPORATION - Revived.mp3
AudioLeadIn: 0
PreviewTime: 52335
Countdown: 1
SampleSet: Normal
StackLeniency: 0.7
Mode: 0
LetterboxInBreaks: 1
WidescreenStoryboard: 1

[Editor]
Bookmarks: 21714,93300
DistanceSpacing: 0.9
BeatDivisor: 4
GridSize: 4
TimelineZoom: 2.52

[Metadata]
Title:Revived
TitleUnicode:Revived
Artist:UNDEAD CORPORATION
ArtistUnicode:UNDEAD CORPORATION
Creator:Ekoro
Version:Cemetery Illusion
Source:東方Project
Tags:miyako yoshika rigid paradise akemi west village 朱美 ウェストヴィレッジ pinetree パインツリー metalcore touhou shinreibyou i'm already dead? ten desires I私はもう死んでいる? Watashi wa mou shinde iru? comiket80 c80
BeatmapID:818304
BeatmapSetID:373517

[Difficulty]
HPDrainRate:6
CircleSize:4.2
OverallDifficulty:10
ApproachRate:10
SliderMultiplier:1.8
SliderTickRate:1

[Events]
//Background and Video events
0,0,"42363133_p0.jpg",0,0
//Break Periods
//Storyboard Layer 0 (Background)
//Storyboard Layer 1 (Fail)
//Storyboard Layer 2 (Pass)
//Storyboard Layer 3 (Foreground)
//Storyboard Sound Samples

[TimingPoints]
1025,206.896551724138,4,1,1,80,1,0
1749,-133.333333333333,4,2,1,80,0,0
3297,-100,4,1,1,80,0,0
14059,-71.4285714285714,4,1,1,80,0,0
14214,-100,4,1,1,80,0,0
17369,-71.4285714285714,4,1,1,80,0,0
17525,-100,4,1,1,80,0,0
28956,-71.4285714285714,4,1,1,80,0,0
29111,-100,4,1,1,80,0,0
37645,-133.333333333333,4,1,1,80,0,0
50680,-100,4,1,1,80,0,0
52335,-83.3333333333333,4,1,1,80,0,1
65576,-166.666666666667,4,1,1,80,0,0
68059,-125,4,1,1,80,0,0
68473,-100,4,1,1,80,0,0
71473,-71.4285714285714,4,1,1,80,0,0
72145,-100,4,1,1,80,0,0
79438,-71.4285714285714,4,1,1,80,0,0
79645,-100,4,1,1,80,0,0
82749,-71.4285714285714,4,1,1,80,0,0
82904,-100,4,1,1,80,0,0
86059,-71.4285714285714,4,1,1,80,0,0
86214,-100,4,1,1,80,0,0
98059,-133.333333333333,4,1,1,80,0,0
111093,-100,4,1,1,80,0,0
113576,-83.3333333333333,4,1,1,80,0,1
126818,-166.666666666667,4,1,1,80,0,0
138404,-100,4,1,1,80,0,0
139335,-83.3333333333333,4,1,1,80,0,0
139645,-100,4,1,1,80,0,0
139749,-83.3333333333333,4,1,1,80,0,0
140059,-125,4,1,1,80,0,0
145956,-83.3333333333333,4,1,1,80,0,0
146266,-100,4,1,1,80,0,0
146369,-83.3333333333333,4,1,1,80,0,0
146680,-125,4,1,1,80,0,0
149990,-100,4,1,1,80,0,0
152576,-83.3333333333333,4,1,1,80,0,0
152887,-100,4,1,1,80,0,0
152990,-83.3333333333333,4,1,1,80,0,0
153300,-100,4,1,1,80,0,0
154542,206.896551724138,4,1,1,80,1,0
155990,-71.4285714285714,4,1,1,80,0,0
156145,-100,4,1,1,80,0,0
159300,-71.4285714285714,4,1,1,80,0,0
159455,-100,4,1,1,80,0,0
161162,-133.333333333333,4,1,1,80,0,0
174404,-100,4,1,1,80,0,0
176886,-71.4285714285714,4,1,1,80,0,1
190128,-166.666666666667,4,1,1,80,0,0
192610,-125,4,1,1,80,0,0
193024,-100,4,1,1,80,0,0
196024,-71.4285714285714,4,1,1,80,0,0
196697,-100,4,1,1,80,0,0
200059,-71.4285714285714,4,1,1,80,0,1
206679,-71.4285714285714,4,1,1,80,0,0

[Colours]
Combo1 : 213,170,213
Combo2 : 128,128,255
Combo3 : 85,43,85

[HitObjects]
8,108,1025,5,4,0:0:0:0:
172,32,1231,1,4,0:0:0:0:
308,148,1438,1,4,0:0:0:0:
472,72,1644,1,4,0:0:0:0:
236,116,1852,5,0,0:0:0:0:
244,196,1955,1,0,0:0:0:0:
252,276,2059,1,0,0:0:0:0:
260,356,2162,2,0,B|292:368|292:368|328:368,1,67.5000025749208
384,236,2369,2,0,B|352:224|352:224|316:224,1,67.5000025749208
184,328,2576,1,0,0:0:0:0:
408,376,2680,6,0,L|416:304,1,67.5000025749208
468,244,2887,2,0,L|476:172,1,67.5000025749208
444,104,3093,2,0,L|452:32,1,67.5000025749208
228,26,3300,6,0,L|236:118,1,90,4|0,0:0|2:0,0:0:0:0:
260,356,3507,1,4,0:0:0:0:
228,360,3921,1,4,2:0:0:0:
192,364,4335,6,0,B|144:368|144:368|104:348,1,90,8|0,0:0|0:0,0:0:0:0:
80,312,4490,1,0,0:0:0:0:
76,268,4542,1,0,0:0:0:0:
96,228,4593,1,0,0:0:0:0:
136,208,4645,1,0,0:0:0:0:
180,204,4697,1,0,0:0:0:0:
220,184,4749,1,0,0:0:0:0:
240,144,4800,1,0,0:0:0:0:
236,100,4852,1,0,0:0:0:0:
208,64,4904,1,0,0:0:0:0:
164,52,4956,1,8,0:0:0:0:
16,152,5162,6,0,L|8:244,1,90,4|0,0:0|0:0,0:0:0:0:
20,268,5576,1,4,0:0:0:0:
32,304,5990,1,4,0:0:0:0:
44,336,6404,6,0,B|92:340|92:340|132:320,1,90,8|0,0:0|0:0,0:0:0:0:
164,292,6559,1,0,0:0:0:0:
208,276,6611,1,0,0:0:0:0:
252,280,6662,1,0,0:0:0:0:
292,300,6714,1,0,0:0:0:0:
320,336,6766,1,0,0:0:0:0:
328,380,6818,5,0,0:0:0:0:
412,332,6921,2,0,L|504:336,1,90,0|0,0:0|2:0,0:0:0:0:
228,372,7128,2,0,L|138:375,1,90,0|0,0:0|2:0,0:0:0:0:
376,240,7335,2,0,L|468:244,1,90,0|0,0:0|2:0,0:0:0:0:
296,196,7542,1,0,0:0:0:0:
384,64,7645,6,0,B|388:108|388:108|376:152,1,90,0|0,0:0|2:0,0:0:0:0:
228,52,7852,2,0,B|264:26|264:26|308:14,1,90,0|0,0:0|2:0,0:0:0:0:
296,196,8059,2,0,B|255:177|255:177|223:145,1,90,0|0,0:0|2:0,0:0:0:0:
468,28,8266,1,0,0:0:0:0:
256,192,8473,12,8,9093,0:0:0:0:
408,372,9300,5,4,0:0:0:0:
404,280,9404,1,0,0:0:0:0:
484,320,9507,1,0,0:0:0:0:
324,328,9611,2,0,L|232:336,1,90
400,188,9818,2,0,L|492:196,1,90
324,240,10025,1,0,0:0:0:0:
396,96,10128,6,0,L|488:88,1,90
317,147,10335,2,0,L|228:140,1,90
360,12,10542,2,0,L|452:4,1,90
281,63,10749,2,0,L|192:56,1,90
56,124,10956,5,0,0:0:0:0:
92,208,11059,1,0,0:0:0:0:
144,132,11162,1,0,0:0:0:0:
108,48,11266,2,0,B|64:32|64:32|20:40,1,90
180,216,11473,2,0,B|224:232|224:232|268:224,1,90
336,168,11680,1,0,0:0:0:0:
460,320,11783,5,8,0:0:0:0:
430,353,11835,1,0,0:0:0:0:
386,361,11887,1,0,0:0:0:0:
347,338,11938,1,0,0:0:0:0:
332,296,11990,1,0,0:0:0:0:
346,254,12042,1,0,0:0:0:0:
386,232,12093,1,0,0:0:0:0:
430,239,12145,1,0,0:0:0:0:
459,274,12197,6,0,L|464:376,1,90,12|0,0:0|0:0,0:0:0:0:
270,314,12404,2,0,L|265:212,1,90,12|0,0:0|0:0,0:0:0:0:
400,40,12611,5,4,0:0:0:0:
484,68,12714,1,8,0:0:0:0:
416,128,12818,1,0,0:0:0:0:
332,100,12921,2,0,B|288:84|288:84|244:88,1,90,8|0,0:0|0:0,0:0:0:0:
164,128,13128,2,0,B|120:131|120:131|76:115,1,90,8|0,0:0|0:0,0:0:0:0:
56,28,13335,1,8,0:0:0:0:
236,180,13438,6,0,L|244:276,1,90,0|8,0:0|0:0,0:0:0:0:
52,352,13645,2,0,L|44:256,1,90,0|8,0:0|0:0,0:0:0:0:
260,196,13852,2,0,L|268:292,1,90,0|8,0:0|0:0,0:0:0:0:
76,368,14059,6,0,B|68:272|68:272|88:248,1,125.999996154785,4|0,0:0|0:0,0:0:0:0:
280,212,14266,5,0,0:0:0:0:
360,168,14369,1,8,0:0:0:0:
448,188,14473,1,0,0:0:0:0:
504,260,14576,2,0,L|500:356,1,90,8|0,0:0|0:0,0:0:0:0:
284,128,14783,2,0,L|280:32,1,90,8|0,0:0|0:0,0:0:0:0:
416,104,14990,1,8,0:0:0:0:
244,296,15093,6,0,L|196:288,2,45,4|0|0,0:0|0:0|0:0,0:0:0:0:
459,267,15300,2,0,L|507:259,2,45,4|0|0,0:0|0:0|0:0,0:0:0:0:
233,217,15507,2,0,L|185:209,2,45,4|0|0,0:0|0:0|0:0,0:0:0:0:
448,188,15714,2,0,L|496:180,2,45,4|0|0,0:0|0:0|0:0,0:0:0:0:
224,136,15921,5,0,0:0:0:0:
144,92,16024,1,8,0:0:0:0:
56,112,16128,1,0,0:0:0:0:
0,184,16231,2,0,L|4:280,1,90,8|0,0:0|0:0,0:0:0:0:
252,312,16438,2,0,L|256:216,1,90,8|0,0:0|0:0,0:0:0:0:
88,28,16645,1,8,0:0:0:0:
88,200,16749,6,0,L|180:208,1,90,0|8,0:0|0:0,0:0:0:0:
312,52,16956,2,0,L|220:44,1,90,0|8,0:0|0:0,0:0:0:0:
276,220,17162,2,0,L|368:228,1,90,0|8,0:0|0:0,0:0:0:0:
500,72,17369,6,0,B|408:64|408:64|420:100,1,125.999996154785,4|0,0:0|0:0,0:0:0:0:
480,308,17576,6,0,B|460:348|460:348|420:368,1,90,8|0,0:0|0:0,0:0:0:0:
376,372,17731,1,0,0:0:0:0:
332,364,17783,1,0,0:0:0:0:
296,340,17835,1,0,0:0:0:0:
272,300,17887,2,0,L|268:256,1,45,8|0,0:0|0:0,0:0:0:0:
212,184,17990,5,0,0:0:0:0:
168,168,18042,1,0,0:0:0:0:
124,176,18094,1,0,0:0:0:0:
88,200,18146,1,0,0:0:0:0:
64,240,18197,2,0,L|56:332,1,90,8|0,0:0|0:0,0:0:0:0:
204,368,18404,5,4,0:0:0:0:
352,200,18611,1,4,0:0:0:0:
184,56,18818,1,4,0:0:0:0:
36,224,19025,1,4,0:0:0:0:
204,368,19231,6,0,L|296:376,1,90,4|0,0:0|0:0,0:0:0:0:
452,352,19438,5,8,0:0:0:0:
480,300,19507,1,0,0:0:0:0:
468,240,19576,1,0,0:0:0:0:
420,204,19645,2,0,L|328:212,1,90,8|0,0:0|0:0,0:0:0:0:
176,172,19852,5,0,0:0:0:0:
152,132,19904,1,0,0:0:0:0:
152,88,19956,1,0,0:0:0:0:
172,48,20007,1,0,0:0:0:0:
208,24,20059,5,8,0:0:0:0:
252,16,20111,1,0,0:0:0:0:
296,24,20162,1,0,0:0:0:0:
332,52,20214,1,0,0:0:0:0:
348,96,20266,1,0,0:0:0:0:
388,120,20318,1,0,0:0:0:0:
432,124,20369,1,0,0:0:0:0:
472,104,20421,1,0,0:0:0:0:
484,60,20473,1,0,0:0:0:0:
452,28,20525,1,0,0:0:0:0:
408,28,20576,1,0,0:0:0:0:
376,60,20628,1,0,0:0:0:0:
372,104,20680,1,0,0:0:0:0:
384,148,20731,1,0,0:0:0:0:
420,176,20783,1,0,0:0:0:0:
464,184,20835,1,0,0:0:0:0:
508,172,20887,5,4,0:0:0:0:
476,312,20990,2,0,B|432:324|432:324|388:320,1,90,8|0,0:0|0:0,0:0:0:0:
320,152,21197,2,0,B|352:184|352:184|370:224,1,90,8|0,0:0|0:0,0:0:0:0:
264,368,21404,2,0,B|275:323|275:323|301:287,1,90,8|0,0:0|0:0,0:0:0:0:
452,232,21611,1,8,0:0:0:0:
268,220,21714,5,2,0:0:0:0:
216,228,21766,1,0,0:0:0:0:
176,264,21818,1,10,0:0:0:0:
172,316,21869,1,10,0:0:0:0:
136,356,21921,1,0,0:0:0:0:
80,360,21973,1,2,0:0:0:0:
36,328,22025,1,8,0:0:0:0:
24,276,22076,1,10,0:0:0:0:
52,228,22128,1,8,0:0:0:0:
104,212,22180,1,8,0:0:0:0:
132,168,22231,1,0,0:0:0:0:
128,112,22283,1,0,0:0:0:0:
96,68,22335,2,0,L|4:56,1,90,2|0,0:0|0:0,0:0:0:0:
220,140,22542,5,0,0:0:0:0:
264,148,22593,1,0,0:0:0:0:
308,136,22645,1,8,0:0:0:0:
340,104,22697,1,0,0:0:0:0:
352,60,22749,1,0,0:0:0:0:
352,60,23059,1,0,0:0:0:0:
440,36,23162,1,8,0:0:0:0:
444,80,23214,1,0,0:0:0:0:
448,124,23266,1,0,0:0:0:0:
452,168,23318,1,0,0:0:0:0:
456,216,23369,6,0,B|332:272|328:160|196:216,1,270,4|0,0:0|0:0,0:0:0:0:
164,248,23731,2,0,L|168:296,1,45,0|8,0:0|0:0,0:0:0:0:
332,368,23990,5,0,2:0:0:0:
476,260,24197,6,0,B|480:216|480:216|468:172,1,90,4|8,0:0|0:0,0:0:0:0:
384,136,24404,1,0,0:0:0:0:
404,320,24507,2,0,B|440:345|440:345|484:357,1,90,8|0,0:0|0:0,0:0:0:0:
388,228,24714,2,0,B|347:246|347:246|315:278,1,90,8|0,0:0|0:0,0:0:0:0:
484,357,24921,1,8,0:0:0:0:
467,171,25025,6,0,L|456:72,1,90,0|8,0:0|0:0,0:0:0:0:
288,48,25231,1,0,0:0:0:0:
220,108,25335,2,0,L|231:207,1,90,8|0,0:0|0:0,0:0:0:0:
399,231,25542,1,8,0:0:0:0:
467,171,25646,2,0,L|456:72,1,90,0|8,0:0|0:0,0:0:0:0:
288,48,25852,5,4,0:0:0:0:
220,108,25956,1,8,0:0:0:0:
304,136,26059,1,0,0:0:0:0:
204,20,26162,2,0,B|160:12|160:12|112:28,1,90,8|0,0:0|0:0,0:0:0:0:
304,136,26369,2,0,B|348:144|348:144|390:129,1,90,8|0,0:0|0:0,0:0:0:0:
456,68,26576,1,8,0:0:0:0:
236,196,26680,6,0,L|192:204,2,45,4|0|0,0:0|0:0|0:0,0:0:0:0:
399,231,26887,2,0,L|443:239,2,45,4|0|0,0:0|0:0|0:0,0:0:0:0:
208,304,27093,2,0,L|164:312,2,45,4|0|0,0:0|0:0|0:0,0:0:0:0:
427,339,27300,2,0,L|471:347,2,45,4|0|0,0:0|0:0|0:0,0:0:0:0:
316,244,27507,6,0,L|312:152,1,90,4|8,0:0|0:0,0:0:0:0:
456,68,27714,1,0,0:0:0:0:
508,140,27818,2,0,L|512:232,1,90,8|0,0:0|0:0,0:0:0:0:
368,316,28025,1,8,0:0:0:0:
316,244,28129,2,0,L|312:152,1,90,0|8,0:0|0:0,0:0:0:0:
120,108,28335,5,0,0:0:0:0:
64,180,28438,1,8,0:0:0:0:
152,196,28542,1,0,0:0:0:0:
208,124,28645,2,0,B|220:80|220:80|216:32,1,90,8|0,0:0|0:0,0:0:0:0:
32,96,28852,1,0,0:0:0:0:
96,264,28956,6,0,L|220:284,1,125.999996154785,4|0,0:0|0:0,0:0:0:0:
476,332,29162,5,0,0:0:0:0:
413,368,29231,1,0,0:0:0:0:
342,355,29300,1,0,0:0:0:0:
296,300,29369,1,8,0:0:0:0:
296,228,29438,1,8,0:0:0:0:
342,173,29507,1,0,0:0:0:0:
413,160,29576,5,0,0:0:0:0:
476,196,29645,1,0,0:0:0:0:
500,264,29714,1,0,0:0:0:0:
476,332,29783,1,0,0:0:0:0:
413,368,29852,1,0,0:0:0:0:
342,355,29921,1,0,0:0:0:0:
296,300,29990,6,0,L|204:316,1,90,4|0,0:0|2:0,0:0:0:0:
7,248,30197,2,0,L|99:264,1,90,4|0,0:0|2:0,0:0:0:0:
312,208,30404,2,0,L|220:224,1,90,4|0,0:0|2:0,0:0:0:0:
23,156,30611,2,0,L|115:172,1,90,4|0,0:0|2:0,0:0:0:0:
328,116,30818,5,0,0:0:0:0:
328,116,30921,1,0,0:0:0:0:
312,28,31025,1,0,0:0:0:0:
312,28,31128,1,0,0:0:0:0:
244,88,31231,1,8,0:0:0:0:
396,56,31335,2,0,L|484:36,1,90
228,0,31542,1,0,0:0:0:0:
264,172,31645,6,0,B|320:196|320:196|384:188|384:188|434:207,1,180
372,276,31956,1,0,0:0:0:0:
480,380,32059,2,0,B|424:356|424:356|360:364|360:364|309:344,1,180,8|0,0:0|0:0,0:0:0:0:
228,304,32369,2,0,B|172:328|172:328|108:320|108:320|57:339,1,180
8,264,32680,6,0,B|4:220|4:220|16:172,1,90
180,188,32887,2,0,B|143:213|143:213|96:227,1,90,8|0,0:0|0:0,0:0:0:0:
28,72,33093,1,0,0:0:0:0:
28,72,33197,2,0,B|68:90|68:90|103:124,1,90,4|0,0:0|0:0,0:0:0:0:
228,304,33404,5,0,0:0:0:0:
316,292,33507,1,0,0:0:0:0:
260,220,33611,1,0,0:0:0:0:
280,376,33714,5,2,0:0:0:0:
348,208,33818,1,2,0:0:0:0:
172,232,33921,1,2,0:0:0:0:
456,352,34025,2,0,B|480:296|480:296|472:236|472:236|496:180,1,180,4|0,0:0|0:0,0:0:0:0:
464,24,34335,6,0,L|372:32,1,90
304,92,34542,2,0,L|212:100,1,90,8|0,0:0|0:0,0:0:0:0:
8,112,34749,2,0,L|16:48,2,60
54,167,34956,6,0,L|144:160,1,90,8|0,0:0|0:0,0:0:0:0:
328,224,35162,2,0,L|320:160,2,60
281,279,35369,2,0,L|191:271,1,90,8|0,0:0|0:0,0:0:0:0:
376,116,35576,2,0,L|465:108,1,90
504,332,35783,6,0,L|414:324,1,90
281,279,35990,2,0,L|289:343,2,60
328,224,36197,2,0,L|417:231,1,90,8|0,0:0|0:0,0:0:0:0:
204,352,36404,2,0,L|114:359,1,90
36,232,36611,6,0,L|28:140,1,90,0|8,0:0|0:0,0:0:0:0:
24,96,36766,1,8,0:0:0:0:
20,52,36818,1,0,0:0:0:0:
104,24,36921,1,0,0:0:0:0:
128,64,36973,1,0,0:0:0:0:
164,92,37025,1,0,0:0:0:0:
208,104,37076,1,0,0:0:0:0:
252,100,37128,1,0,0:0:0:0:
292,80,37180,1,0,0:0:0:0:
324,48,37231,6,2,B|396:16|456:52|456:52|452:96|452:96|480:128|480:128|480:176,1,270,6|0,0:0|0:0,0:0:0:0:
448,328,37645,5,0,0:0:0:0:
420,344,37714,1,0,0:0:0:0:
388,352,37783,1,0,0:0:0:0:
356,352,37852,1,0,0:0:0:0:
296,232,38059,1,0,0:0:0:0:
268,216,38128,1,0,0:0:0:0:
236,208,38197,1,0,0:0:0:0:
204,208,38266,5,8,0:0:0:0:
184,232,38335,1,0,0:0:0:0:
172,260,38404,1,0,0:0:0:0:
168,292,38473,1,0,0:0:0:0:
32,352,38680,1,0,0:0:0:0:
52,328,38749,1,0,0:0:0:0:
64,300,38818,1,0,0:0:0:0:
68,268,38887,1,0,0:0:0:0:
68,236,38956,1,0,0:0:0:0:
64,204,39025,1,0,0:0:0:0:
48,176,39093,6,0,L|40:40,1,135.000005149842,4|0,0:0|0:0,0:0:0:0:
172,8,39507,1,0,0:0:0:0:
172,8,39714,1,0,0:0:0:0:
208,140,39921,2,0,P|256:172|332:168,1,135.000005149842,8|0,0:0|0:0,0:0:0:0:
432,80,40335,2,0,P|384:48|308:52,1,135.000005149842
208,140,40749,5,4,0:0:0:0:
212,172,40818,1,0,0:0:0:0:
224,200,40887,1,0,0:0:0:0:
248,224,40956,1,0,0:0:0:0:
276,236,41025,1,0,0:0:0:0:
308,240,41093,1,0,0:0:0:0:
340,236,41162,1,0,0:0:0:0:
472,256,41369,1,0,0:0:0:0:
468,288,41438,1,0,0:0:0:0:
456,316,41507,1,0,0:0:0:0:
432,340,41576,5,8,0:0:0:0:
404,352,41645,1,0,0:0:0:0:
372,356,41713,1,0,0:0:0:0:
340,352,41782,1,0,0:0:0:0:
216,300,41990,1,0,0:0:0:0:
188,288,42059,1,0,0:0:0:0:
156,284,42127,1,0,0:0:0:0:
124,288,42196,1,0,0:0:0:0:
96,300,42266,1,0,0:0:0:0:
72,320,42335,1,0,0:0:0:0:
56,348,42404,6,0,L|44:208,1,135.000005149842,4|0,0:0|0:0,0:0:0:0:
32,80,42818,1,0,0:0:0:0:
32,80,43025,1,0,0:0:0:0:
152,140,43231,2,0,P|224:148|284:116,1,135.000005149842,8|0,0:0|0:0,0:0:0:0:
360,12,43645,2,0,P|432:4|492:36,1,135.000005149842
492,336,44059,5,4,0:0:0:0:
460,344,44128,1,0,0:0:0:0:
428,344,44197,1,0,0:0:0:0:
400,332,44266,1,0,0:0:0:0:
376,312,44335,1,0,0:0:0:0:
360,284,44404,1,0,0:0:0:0:
352,252,44473,1,0,0:0:0:0:
456,92,44680,1,0,0:0:0:0:
478,115,44749,1,0,0:0:0:0:
494,143,44818,1,0,0:0:0:0:
498,173,44887,5,8,0:0:0:0:
493,204,44956,1,0,0:0:0:0:
476,232,45025,1,0,0:0:0:0:
453,255,45094,1,0,0:0:0:0:
260,248,45300,1,0,0:0:0:0:
268,217,45369,1,0,0:0:0:0:
285,189,45438,1,0,0:0:0:0:
309,171,45507,1,0,0:0:0:0:
338,159,45576,1,0,0:0:0:0:
371,160,45645,1,0,0:0:0:0:
402,169,45714,6,0,L|408:304,1,135.000005149842,4|0,0:0|0:0,0:0:0:0:
296,380,46128,1,0,0:0:0:0:
296,380,46335,1,0,0:0:0:0:
172,332,46542,2,0,P|100:328|36:360,1,135.000005149842,8|0,0:0|0:0,0:0:0:0:
80,208,46956,2,0,P|152:212|216:180,1,135.000005149842,8|0,0:0|0:0,0:0:0:0:
284,72,47369,5,4,0:0:0:0:
312,56,47438,1,0,0:0:0:0:
344,48,47507,1,0,0:0:0:0:
376,48,47576,1,0,0:0:0:0:
408,56,47645,1,0,0:0:0:0:
436,72,47714,1,0,0:0:0:0:
460,92,47783,1,0,0:0:0:0:
504,220,47990,1,4,0:0:0:0:
476,236,48059,1,0,0:0:0:0:
444,244,48128,1,0,0:0:0:0:
412,244,48197,5,8,0:0:0:0:
380,236,48266,1,0,0:0:0:0:
352,220,48335,1,0,0:0:0:0:
328,200,48404,1,0,0:0:0:0:
196,172,48611,1,0,0:0:0:0:
164,180,48680,1,0,0:0:0:0:
136,196,48749,1,0,0:0:0:0:
112,216,48818,1,0,0:0:0:0:
92,240,48887,1,0,0:0:0:0:
76,268,48956,1,0,0:0:0:0:
72,300,49025,6,0,B|152:336|152:336|236:300|236:300|320:336,1,270.000010299683,4|2,0:0|2:0,0:0:0:0:
368,360,50266,1,2,2:0:0:0:
464,112,50680,5,12,0:0:0:0:
464,112,50731,1,0,0:0:0:0:
464,112,50783,2,0,L|460:64,1,45
352,148,50887,5,12,0:0:0:0:
352,148,50938,1,0,0:0:0:0:
352,148,50990,2,0,L|355:103,1,45
256,84,51093,5,12,0:0:0:0:
256,84,51144,1,0,0:0:0:0:
256,84,51196,2,0,L|252:36,1,45
144,120,51300,5,12,0:0:0:0:
144,120,51351,1,0,0:0:0:0:
144,120,51403,2,0,L|147:75,1,45
48,56,51507,5,2,0:0:0:0:
38,109,51558,1,0,0:0:0:0:
40,162,51610,1,0,0:0:0:0:
54,215,51662,1,0,0:0:0:0:
78,262,51713,1,0,0:0:0:0:
113,304,51765,1,0,0:0:0:0:
155,337,51817,1,0,0:0:0:0:
204,360,51869,1,0,0:0:0:0:
257,372,51920,1,0,0:0:0:0:
311,372,51972,1,0,0:0:0:0:
363,360,52024,1,0,0:0:0:0:
412,337,52075,1,0,0:0:0:0:
456,304,52128,2,0,L|468:212,1,90,8|0,0:0|0:0,0:0:0:0:
380,32,52335,6,0,B|272:52|272:52|168:8,1,215.999993408203,4|0,0:0|0:0,0:0:0:0:
72,44,52645,1,0,0:0:0:0:
72,44,52749,2,0,L|60:156,1,107.999996704102,8|0,0:0|0:0,0:0:0:0:
180,252,52956,2,0,L|168:144,1,107.999996704102
84,336,53162,6,0,B|192:356|192:356|296:312,1,215.999993408203
364,232,53473,1,0,0:0:0:0:
468,264,53576,2,0,L|476:376,1,107.999996704102,8|0,0:0|0:0,0:0:0:0:
364,232,53783,5,0,0:0:0:0:
364,232,53887,1,0,0:0:0:0:
440,156,53990,2,0,L|448:44,1,107.999996704102
256,248,54197,5,0,0:0:0:0:
256,248,54301,1,0,0:0:0:0:
180,172,54404,2,0,L|172:60,1,107.999996704102,8|0,0:0|0:0,0:0:0:0:
388,256,54611,5,0,0:0:0:0:
388,256,54715,1,0,0:0:0:0:
464,180,54818,2,0,L|472:68,1,107.999996704102
232,272,55025,5,0,0:0:0:0:
232,272,55129,1,0,0:0:0:0:
156,196,55232,2,0,L|148:84,1,107.999996704102,8|0,0:0|0:0,0:0:0:0:
260,168,55438,5,0,0:0:0:0:
128,300,55542,1,0,0:0:0:0:
12,156,55645,2,0,L|20:44,1,107.999996704102,4|0,0:0|0:0,0:0:0:0:
244,84,55852,6,0,B|296:96|296:96|340:136,1,107.999996704102
144,384,56059,2,0,B|92:372|92:372|48:332,1,107.999996704102,8|0,0:0|0:0,0:0:0:0:
344,284,56266,2,0,B|332:336|332:336|295:376,1,107.999996704102
44,184,56473,2,0,B|56:132|56:132|92:91,1,107.999996704102
424,24,56680,5,0,0:0:0:0:
500,100,56783,1,0,0:0:0:0:
448,196,56887,1,8,0:0:0:0:
344,176,56990,1,0,0:0:0:0:
328,68,57093,6,0,B|292:40|252:36|252:36|204:56|204:56|164:48|132:24,1,215.999993408203
28,56,57404,1,0,0:0:0:0:
104,132,57507,2,0,P|152:156|212:164,1,107.999996704102
416,172,57714,2,0,P|368:148|308:140,1,107.999996704102,8|0,0:0|0:0,0:0:0:0:
156,344,57921,1,0,0:0:0:0:
236,272,58025,1,0,0:0:0:0:
132,244,58128,5,8,0:0:0:0:
260,372,58231,2,0,B|332:380|332:380|392:340|392:340|468:348,1,215.999993408203,4|0,0:0|0:0,0:0:0:0:
472,48,58542,5,8,0:0:0:0:
344,176,58645,2,0,B|272:184|272:184|212:144|212:144|136:152,1,215.999993408203,4|0,0:0|0:0,0:0:0:0:
296,100,58956,5,4,0:0:0:0:
296,100,59059,1,0,0:0:0:0:
488,168,59162,2,0,L|496:276,1,107.999996704102
316,372,59369,2,0,L|308:264,1,107.999996704102,8|0,0:0|0:0,0:0:0:0:
388,108,59576,2,0,L|396:216,1,107.999996704102,8|0,0:0|0:0,0:0:0:0:
216,312,59783,6,0,B|212:240|212:240|248:180|248:180|244:104,1,215.999993408203
148,160,60093,1,0,0:0:0:0:
312,260,60197,2,0,B|368:268|368:268|420:248,1,107.999996704102,8|0,0:0|0:0,0:0:0:0:
156,56,60404,5,0,0:0:0:0:
156,56,60507,1,0,0:0:0:0:
60,108,60611,2,0,B|48:220,1,107.999996704102
216,312,60818,5,0,0:0:0:0:
216,312,60921,1,0,0:0:0:0:
312,260,61025,2,0,B|324:148,1,107.999996704102,8|0,0:0|0:0,0:0:0:0:
60,8,61231,5,0,0:0:0:0:
60,8,61335,1,0,0:0:0:0:
148,160,61438,2,0,B|204:164|204:164|252:140,1,107.999996704102
456,104,61645,5,0,0:0:0:0:
456,104,61749,1,0,0:0:0:0:
384,276,61852,5,8,0:0:0:0:
372,168,61956,1,0,0:0:0:0:
472,212,62059,1,0,0:0:0:0:
284,232,62162,1,0,0:0:0:0:
388,316,62266,6,0,L|500:332,1,107.999996704102,4|0,0:0|0:0,0:0:0:0:
368,128,62473,2,0,L|256:112,1,107.999996704102
472,212,62680,2,0,L|488:100,1,107.999996704102,8|0,0:0|0:0,0:0:0:0:
284,232,62887,2,0,L|268:344,1,107.999996704102
24,276,63093,6,0,B|8:224|8:224|16:172,1,107.999996704102
192,256,63300,1,0,0:0:0:0:
68,368,63403,1,0,0:0:0:0:
104,204,63507,1,8,0:0:0:0:
172,356,63610,1,0,0:0:0:0:
24,276,63714,6,0,B|8:224|8:224|32:64,1,215.999993408203
132,20,64025,1,0,0:0:0:0:
132,20,64128,2,0,L|240:12,1,107.999996704102
224,136,64335,2,0,L|116:128,1,107.999996704102,8|0,0:0|0:0,0:0:0:0:
336,88,64542,1,0,0:0:0:0:
336,88,64645,1,0,0:0:0:0:
300,300,64749,5,0,0:0:0:0:
124,244,64852,1,2,0:0:0:0:
308,208,64956,1,0,0:0:0:0:
132,336,65059,1,2,0:0:0:0:
388,316,65162,5,8,0:0:0:0:
212,260,65265,1,0,0:0:0:0:
396,224,65369,1,0,0:0:0:0:
220,352,65472,1,0,0:0:0:0:
472,276,65576,6,0,L|488:56,1,215.999993408203,4|8,0:0|0:0,0:0:0:0:
276,16,66404,1,0,0:0:0:0:
168,32,66611,1,0,0:0:0:0:
232,116,66818,1,8,0:0:0:0:
232,116,67231,6,0,P|316:120|436:52,1,215.999993408203,0|8,0:0|0:0,0:0:0:0:
500,144,67852,1,0,0:0:0:0:
384,232,68059,5,8,0:0:0:0:
384,232,68162,2,0,P|372:296|400:376,1,144
464,296,68473,5,8,0:0:0:0:
420,300,68525,1,0,0:0:0:0:
376,304,68576,1,0,0:0:0:0:
332,308,68628,1,0,0:0:0:0:
288,312,68680,1,0,0:0:0:0:
244,316,68731,1,0,0:0:0:0:
200,320,68783,1,0,0:0:0:0:
156,324,68835,1,0,0:0:0:0:
112,328,68887,6,0,L|104:232,1,90,4|0,0:0|0:0,0:0:0:0:
128,18,69093,2,0,L|190:90,1,90
298,275,69300,2,0,L|204:252,1,90,8|0,0:0|0:0,0:0:0:0:
8,168,69507,2,0,L|96:130,1,90
307,85,69714,2,0,L|257:167,1,90
104,238,69921,5,0,0:0:0:0:
186,86,70025,1,0,0:0:0:0:
210,254,70128,1,8,0:0:0:0:
90,133,70231,1,0,0:0:0:0:
260,161,70335,1,0,0:0:0:0:
40,196,70438,1,0,0:0:0:0:
288,236,70542,6,0,L|388:244,1,90
144,308,70749,2,0,L|44:316,1,90
116,46,70956,5,8,0:0:0:0:
176,110,71059,1,0,0:0:0:0:
90,133,71163,1,0,0:0:0:0:
202,23,71266,1,0,0:0:0:0:
30,69,71369,5,0,0:0:0:0:
150,197,71473,2,0,B|230:205|230:205|302:161|302:161|390:169,1,251.999992309571,12|0,0:0|0:0,0:0:0:0:
504,256,71783,5,0,0:0:0:0:
384,336,71887,2,0,B|304:344|304:344|232:300|232:300|144:308,1,251.999992309571,12|0,0:0|0:0,0:0:0:0:
64,220,72197,5,0,0:0:0:0:
64,220,72249,1,0,0:0:0:0:
64,220,72300,1,0,0:0:0:0:
90,133,72404,1,0,0:0:0:0:
150,197,72507,1,0,0:0:0:0:
4,156,72611,5,8,0:0:0:0:
176,110,72714,1,0,0:0:0:0:
124,284,72818,1,0,0:0:0:0:
124,284,72921,1,0,0:0:0:0:
356,52,73025,5,8,0:0:0:0:
184,6,73128,1,0,0:0:0:0:
236,180,73232,1,0,0:0:0:0:
236,180,73335,1,0,0:0:0:0:
452,32,73438,5,0,0:0:0:0:
356,52,73541,1,0,0:0:0:0:
372,148,73645,1,0,0:0:0:0:
468,128,73748,1,0,0:0:0:0:
512,328,73852,5,0,0:0:0:0:
472,304,73904,1,0,0:0:0:0:
428,300,73956,1,0,0:0:0:0:
384,312,74007,1,0,0:0:0:0:
348,340,74059,1,0,0:0:0:0:
312,368,74111,1,0,0:0:0:0:
268,380,74162,1,0,0:0:0:0:
224,376,74214,1,0,0:0:0:0:
184,352,74266,1,0,0:0:0:0:
160,312,74318,1,0,0:0:0:0:
160,268,74369,1,0,0:0:0:0:
184,228,74421,1,0,0:0:0:0:
224,208,74473,6,0,L|268:204,1,45,8|0,0:0|0:0,0:0:0:0:
364,224,74576,1,0,0:0:0:0:
408,220,74628,1,0,0:0:0:0:
448,200,74680,1,0,0:0:0:0:
472,164,74731,1,0,0:0:0:0:
480,120,74783,1,0,0:0:0:0:
468,76,74835,1,0,0:0:0:0:
436,44,74887,1,0,0:0:0:0:
392,32,74938,1,0,0:0:0:0:
348,32,74990,1,0,0:0:0:0:
304,48,75042,1,0,0:0:0:0:
272,80,75093,5,8,0:0:0:0:
254,131,75145,1,0,0:0:0:0:
207,158,75196,1,0,0:0:0:0:
154,148,75248,1,0,0:0:0:0:
119,107,75300,1,0,0:0:0:0:
119,53,75352,1,0,0:0:0:0:
154,11,75403,1,0,0:0:0:0:
207,2,75455,1,0,0:0:0:0:
254,29,75507,1,0,0:0:0:0:
254,29,76335,5,10,0:0:0:0:
215,66,76387,1,0,0:0:0:0:
193,115,76439,1,0,0:0:0:0:
191,169,76491,1,0,0:0:0:0:
210,219,76543,1,0,0:0:0:0:
247,259,76594,1,0,0:0:0:0:
297,281,76646,1,0,0:0:0:0:
351,283,76698,1,0,0:0:0:0:
401,263,76749,1,0,0:0:0:0:
441,227,76801,1,0,0:0:0:0:
463,177,76852,1,0,0:0:0:0:
464,123,76904,1,0,0:0:0:0:
445,73,76956,1,0,0:0:0:0:
408,33,77007,1,0,0:0:0:0:
359,11,77059,1,0,0:0:0:0:
305,10,77111,1,0,0:0:0:0:
254,29,77783,5,8,0:0:0:0:
224,64,77835,1,0,0:0:0:0:
180,80,77887,1,0,0:0:0:0:
136,72,77938,1,0,0:0:0:0:
100,44,77990,5,4,0:0:0:0:
16,76,78093,1,8,0:0:0:0:
84,136,78197,1,0,0:0:0:0:
0,168,78300,2,0,L|8:260,1,90,8|0,0:0|0:0,0:0:0:0:
64,328,78507,2,0,B|108:332|108:332|152:312,1,90,8|0,0:0|0:0,0:0:0:0:
184,228,78714,1,8,0:0:0:0:
240,300,78818,6,0,L|332:312,1,90,0|8,0:0|0:0,0:0:0:0:
496,240,79025,2,0,L|404:252,1,90,0|8,0:0|0:0,0:0:0:0:
224,204,79231,2,0,L|316:216,1,90,0|8,0:0|0:0,0:0:0:0:
480,144,79438,6,0,B|388:156|388:156|356:136,1,125.999996154785,4|0,0:0|0:0,0:0:0:0:
248,24,79645,5,4,0:0:0:0:
336,48,79749,1,8,0:0:0:0:
272,108,79852,1,0,0:0:0:0:
184,84,79956,2,0,L|92:96,1,90,8|0,0:0|0:0,0:0:0:0:
336,48,80162,2,0,L|428:60,1,90,8|0,0:0|0:0,0:0:0:0:
208,168,80369,1,8,0:0:0:0:
164,0,80473,6,0,L|108:8,2,45,4|0|0,0:0|0:0|0:0,0:0:0:0:
336,48,80680,2,0,L|392:56,2,45,4|0|0,0:0|0:0|0:0,0:0:0:0:
140,88,80887,2,0,L|84:96,2,45,4|0|0,0:0|0:0|0:0,0:0:0:0:
360,136,81094,2,0,L|416:144,2,45,4|0|0,0:0|0:0|0:0,0:0:0:0:
116,176,81300,5,4,0:0:0:0:
28,152,81404,1,8,0:0:0:0:
4,240,81507,1,0,0:0:0:0:
92,264,81611,2,0,B|136:264|136:264|180:244,1,90,8|0,0:0|0:0,0:0:0:0:
252,192,81818,2,0,B|296:192|296:192|340:212,1,90,8|0,0:0|0:0,0:0:0:0:
384,288,82025,1,8,0:0:0:0:
428,208,82128,6,0,L|436:112,1,90,0|8,0:0|0:0,0:0:0:0:
296,288,82335,2,0,L|304:384,1,90,0|8,0:0|0:0,0:0:0:0:
456,192,82542,2,0,L|464:96,1,90,0|8,0:0|0:0,0:0:0:0:
324,272,82749,6,0,B|332:368|332:368|368:380,1,125.999996154785,4|8,0:0|0:0,0:0:0:0:
484,176,82956,5,0,0:0:0:0:
492,132,83007,1,0,0:0:0:0:
472,92,83059,1,0,0:0:0:0:
432,72,83111,1,0,0:0:0:0:
388,80,83162,1,0,0:0:0:0:
356,112,83214,1,0,0:0:0:0:
340,156,83266,1,8,0:0:0:0:
308,188,83318,1,0,0:0:0:0:
264,196,83369,1,0,0:0:0:0:
224,176,83421,1,0,0:0:0:0:
204,136,83473,1,0,0:0:0:0:
212,92,83524,1,0,0:0:0:0:
248,64,83576,2,0,L|296:60,1,45,8|0,0:0|0:0,0:0:0:0:
168,20,83680,2,0,L|120:16,1,45
40,48,83783,5,2,0:0:0:0:
72,92,83835,1,0,0:0:0:0:
76,148,83887,1,2,0:0:0:0:
56,196,83938,1,2,0:0:0:0:
12,228,83990,1,0,0:0:0:0:
0,280,84042,1,2,0:0:0:0:
28,328,84093,1,0,0:0:0:0:
80,340,84145,1,2,0:0:0:0:
128,316,84197,1,0,0:0:0:0:
156,268,84249,1,0,0:0:0:0:
204,244,84300,1,0,0:0:0:0:
256,252,84352,1,0,0:0:0:0:
296,288,84404,2,0,B|304:384,1,90,10|0,0:0|0:0,0:0:0:0:
436,360,84611,5,4,0:0:0:0:
508,304,84714,1,8,0:0:0:0:
424,272,84818,1,0,0:0:0:0:
496,216,84921,2,0,B|504:172|504:172|500:124,1,90,8|0,0:0|0:0,0:0:0:0:
344,120,85128,2,0,B|336:164|336:164|340:212,1,90,8|0,0:0|0:0,0:0:0:0:
420,168,85334,1,8,0:0:0:0:
328,36,85438,6,0,L|236:44,1,90,0|8,0:0|0:0,0:0:0:0:
60,68,85645,2,0,L|152:76,1,90,0|8,0:0|0:0,0:0:0:0:
344,120,85852,2,0,L|252:128,1,90,0|8,0:0|0:0,0:0:0:0:
76,152,86059,6,0,B|168:160|168:160|192:188,1,125.999996154785,4|8,0:0|0:0,0:0:0:0:
296,328,86266,5,0,0:0:0:0:
244,256,86369,1,8,0:0:0:0:
332,244,86473,1,0,0:0:0:0:
208,340,86576,2,0,B|164:356|164:356|120:348,1,90,8|0,0:0|0:0,0:0:0:0:
280,176,86783,2,0,B|288:129|288:129|317:95,1,90,8|0,0:0|0:0,0:0:0:0:
384,316,86990,1,8,0:0:0:0:
156,268,87093,6,0,L|108:260,2,45,4|0|0,0:0|0:0|0:0,0:0:0:0:
420,232,87300,2,0,L|468:224,2,45,4|0|0,0:0|0:0|0:0,0:0:0:0:
189,185,87507,2,0,L|141:177,2,45,4|0|0,0:0|0:0|0:0,0:0:0:0:
453,149,87714,2,0,L|501:141,2,45,4|0|0,0:0|0:0|0:0,0:0:0:0:
224,104,87921,6,0,L|216:12,1,90,0|8,0:0|0:0,0:0:0:0:
348,44,88128,1,0,0:0:0:0:
348,44,88231,2,0,L|431:83,1,90,8|0,0:0|0:0,0:0:0:0:
337,181,88438,1,8,0:0:0:0:
337,181,88541,2,0,L|261:233,1,90,0|8,0:0|0:0,0:0:0:0:
72,196,88749,6,0,B|64:152|64:152|72:108,1,90,0|8,0:0|0:0,0:0:0:0:
156,268,88956,2,0,B|164:312|164:312|156:356,1,90,0|8,0:0|0:0,0:0:0:0:
56,296,89162,1,0,0:0:0:0:
56,296,89266,1,8,0:0:0:0:
172,168,89369,6,0,L|264:176,1,90,4|8,0:0|0:0,0:0:0:0:
472,212,89576,5,4,0:0:0:0:
496,280,89645,1,0,0:0:0:0:
472,348,89714,1,0,0:0:0:0:
409,384,89783,1,8,0:0:0:0:
338,371,89852,1,8,0:0:0:0:
292,316,89921,1,0,0:0:0:0:
292,244,89990,5,0,0:0:0:0:
338,189,90059,1,0,0:0:0:0:
409,176,90128,1,0,0:0:0:0:
472,212,90197,1,0,0:0:0:0:
496,280,90266,1,0,0:0:0:0:
472,348,90335,1,0,0:0:0:0:
409,384,90404,6,0,L|396:292,1,90,4|0,0:0|2:0,0:0:0:0:
459,122,90611,2,0,L|471:211,1,90,4|0,0:0|2:0,0:0:0:0:
292,316,90818,2,0,L|279:224,1,90,4|0,0:0|2:0,0:0:0:0:
342,54,91025,2,0,L|354:143,1,90,4|0,0:0|2:0,0:0:0:0:
168,356,91231,5,0,0:0:0:0:
168,356,91335,1,0,0:0:0:0:
112,292,91438,1,0,0:0:0:0:
112,292,91542,1,0,0:0:0:0:
80,376,91645,1,8,0:0:0:0:
200,272,91749,2,0,L|208:176,1,90
24,312,91956,1,0,0:0:0:0:
252,344,92059,6,0,B|296:360|296:360|344:360,1,90
464,204,92266,2,0,L|472:144,2,60
416,260,92473,2,0,B|372:276|372:276|324:276,1,90,8|0,0:0|0:0,0:0:0:0:
244,240,92680,1,8,0:0:0:0:
316,184,92783,6,0,B|336:124|336:124|320:72|320:72|340:12,1,180
248,124,93093,6,0,L|156:136,1,90
408,72,93300,2,0,L|500:84,1,90,8|0,0:0|0:0,0:0:0:0:
232,20,93507,1,0,0:0:0:0:
232,20,93611,2,0,L|140:32,1,90,12|0,0:0|0:0,0:0:0:0:
100,184,93818,5,0,0:0:0:0:
124,272,93921,1,0,0:0:0:0:
188,208,94025,1,0,0:0:0:0:
36,248,94128,5,2,0:0:0:0:
188,208,94231,1,2,0:0:0:0:
12,160,94335,1,2,0:0:0:0:
64,336,94438,2,0,B|120:360|120:360|176:344|176:344|232:368,1,180,4|0,0:0|0:0,0:0:0:0:
492,280,94749,6,0,L|500:216,2,60
436,328,94956,2,0,L|344:336,1,90,8|0,0:0|0:0,0:0:0:0:
188,208,95162,6,0,L|180:144,2,60
244,256,95369,2,0,L|336:264,1,90,8|0,0:0|0:0,0:0:0:0:
492,136,95576,6,0,L|500:72,2,60
436,184,95783,2,0,L|344:192,1,90,8|0,0:0|0:0,0:0:0:0:
220,80,95990,2,0,L|312:88,1,90
508,212,96197,6,0,B|512:260|512:260|500:300,1,90
352,336,96404,2,0,L|292:348,2,60
333,263,96611,2,0,B|329:215|329:215|341:175,1,90,8|0,0:0|0:0,0:0:0:0:
444,72,96818,2,0,B|448:120|448:120|436:160,1,90,0|8,0:0|0:0,0:0:0:0:
188,208,97025,5,0,0:0:0:0:
134,61,97128,1,0,0:0:0:0:
288,88,97231,1,0,0:0:0:0:
119,150,97335,1,0,0:0:0:0:
119,150,97387,1,0,0:0:0:0:
119,150,97438,1,8,0:0:0:0:
219,30,97541,1,8,0:0:0:0:
272,177,97645,6,2,B|300:212|288:268|288:268|332:296|376:288|376:288|400:312|400:312|448:296,1,270,6|0,0:0|0:0,0:0:0:0:
500,192,98059,5,0,0:0:0:0:
488,164,98128,1,0,0:0:0:0:
484,132,98197,1,0,0:0:0:0:
488,100,98266,1,0,0:0:0:0:
360,56,98473,1,0,0:0:0:0:
372,84,98542,1,0,0:0:0:0:
376,116,98611,1,0,0:0:0:0:
372,148,98680,5,8,0:0:0:0:
360,176,98749,1,0,0:0:0:0:
340,200,98818,1,0,0:0:0:0:
312,216,98887,1,0,0:0:0:0:
184,180,99093,1,0,0:0:0:0:
172,152,99162,1,0,0:0:0:0:
152,128,99231,1,0,0:0:0:0:
124,112,99300,1,0,0:0:0:0:
92,104,99369,1,0,0:0:0:0:
60,108,99438,1,0,0:0:0:0:
32,124,99507,6,0,L|44:264,1,135.000005149842,4|0,0:0|0:0,0:0:0:0:
144,352,99921,1,0,0:0:0:0:
144,352,100128,1,0,0:0:0:0:
276,316,100335,2,0,P|340:336|396:380,1,135.000005149842,8|0,0:0|0:0,0:0:0:0:
457,261,100749,2,0,P|393:241|337:197,1,135.000005149842
296,72,101162,5,4,0:0:0:0:
264,68,101231,1,0,0:0:0:0:
232,64,101300,1,0,0:0:0:0:
200,60,101369,1,0,0:0:0:0:
168,56,101438,1,0,0:0:0:0:
136,52,101507,1,0,0:0:0:0:
104,48,101576,1,0,0:0:0:0:
0,136,101783,1,0,0:0:0:0:
4,168,101852,1,0,0:0:0:0:
16,196,101921,1,0,0:0:0:0:
40,220,101990,5,8,0:0:0:0:
68,232,102059,1,0,0:0:0:0:
100,236,102128,1,0,0:0:0:0:
132,228,102197,1,0,0:0:0:0:
240,168,102404,1,0,0:0:0:0:
272,160,102473,1,0,0:0:0:0:
304,164,102542,1,0,0:0:0:0:
332,176,102611,1,0,0:0:0:0:
356,200,102680,1,0,0:0:0:0:
368,228,102749,1,0,0:0:0:0:
372,260,102818,6,0,L|508:276,1,135.000005149842,4|0,0:0|0:0,0:0:0:0:
296,368,103231,1,0,0:0:0:0:
296,368,103438,1,0,0:0:0:0:
240,168,103645,2,0,P|228:96|248:32,1,135.000005149842,8|0,0:0|0:0,0:0:0:0:
472,56,104059,2,0,P|484:128|464:192,1,135.000005149842
276,252,104473,5,4,0:0:0:0:
244,260,104542,1,0,0:0:0:0:
212,256,104611,1,0,0:0:0:0:
184,244,104680,1,0,0:0:0:0:
160,220,104749,1,0,0:0:0:0:
148,192,104818,1,0,0:0:0:0:
144,160,104887,1,0,0:0:0:0:
332,176,105093,1,0,0:0:0:0:
354,199,105162,1,0,0:0:0:0:
367,229,105231,1,0,0:0:0:0:
371,259,105300,5,8,0:0:0:0:
362,292,105369,1,0,0:0:0:0:
344,316,105438,1,0,0:0:0:0:
318,336,105507,1,0,0:0:0:0:
240,168,105714,1,0,0:0:0:0:
248,137,105783,1,0,0:0:0:0:
268,111,105852,1,0,0:0:0:0:
292,92,105921,1,0,0:0:0:0:
325,84,105990,1,0,0:0:0:0:
355,87,106059,1,0,0:0:0:0:
385,100,106128,6,0,L|508:156,1,135.000005149842,4|0,0:0|0:0,0:0:0:0:
508,292,106542,1,0,0:0:0:0:
508,292,106749,1,0,0:0:0:0:
400,376,106956,2,0,P|336:360|284:316,1,135.000005149842,8|0,0:0|0:0,0:0:0:0:
354,199,107369,2,0,P|418:183|470:139,1,135.000005149842
400,24,107783,5,4,0:0:0:0:
368,28,107852,1,0,0:0:0:0:
336,32,107921,1,0,0:0:0:0:
304,36,107990,1,0,0:0:0:0:
272,40,108059,1,0,0:0:0:0:
240,44,108128,1,0,0:0:0:0:
208,48,108197,1,0,0:0:0:0:
290,191,108404,1,0,0:0:0:0:
322,195,108473,1,0,0:0:0:0:
354,199,108542,1,0,0:0:0:0:
386,203,108611,5,8,0:0:0:0:
418,207,108680,1,0,0:0:0:0:
450,211,108749,1,0,0:0:0:0:
482,215,108818,1,0,0:0:0:0:
400,358,109025,1,0,0:0:0:0:
368,362,109094,1,0,0:0:0:0:
336,366,109163,1,0,0:0:0:0:
304,370,109232,1,0,0:0:0:0:
272,374,109301,1,0,0:0:0:0:
240,378,109370,1,0,0:0:0:0:
208,382,109438,6,0,B|76:356|76:356|32:224,1,270.000010299683,0|2,0:0|2:0,0:0:0:0:
20,176,110680,1,2,2:0:0:0:
328,12,111093,5,4,0:0:0:0:
400,0,111162,1,0,0:0:0:0:
464,28,111231,1,0,0:0:0:0:
492,96,111300,1,0,0:0:0:0:
476,164,111369,1,0,0:0:0:0:
416,200,111438,1,0,0:0:0:0:
344,184,111507,1,0,0:0:0:0:
284,220,111576,1,0,0:0:0:0:
268,288,111645,1,0,0:0:0:0:
296,356,111714,1,0,0:0:0:0:
360,384,111783,1,0,0:0:0:0:
432,372,111852,1,4,0:0:0:0:
476,316,111921,5,12,0:0:0:0:
476,316,111973,1,0,0:0:0:0:
476,316,112025,2,0,L|480:268,1,45
347,228,112128,5,12,0:0:0:0:
347,228,112180,1,0,0:0:0:0:
347,228,112232,2,0,L|343:180,1,45
232,344,112335,5,12,0:0:0:0:
232,344,112387,1,0,0:0:0:0:
232,344,112439,2,0,L|236:296,1,45
103,256,112542,5,12,0:0:0:0:
103,256,112594,1,0,0:0:0:0:
103,256,112646,2,0,L|99:208,1,45
32,16,112749,5,10,0:0:0:0:
44,67,112800,1,0,0:0:0:0:
82,106,112852,1,0,0:0:0:0:
133,123,112904,1,0,0:0:0:0:
186,120,112955,1,0,0:0:0:0:
237,101,113007,1,0,0:0:0:0:
282,71,113059,1,10,0:0:0:0:
333,52,113111,1,0,0:0:0:0:
386,49,113162,1,0,0:0:0:0:
437,66,113214,1,0,0:0:0:0:
475,105,113266,1,0,0:0:0:0:
487,156,113317,1,0,0:0:0:0:
472,208,113369,2,0,B|468:252|468:252|480:296,1,90,10|0,0:0|0:0,0:0:0:0:
232,344,113576,6,0,B|152:324|152:324|132:288|132:288|42:264,1,215.999993408203,4|0,0:0|0:0,0:0:0:0:
64,372,113887,1,0,0:0:0:0:
212,236,113990,2,0,B|220:180|220:180|212:128,1,107.999996704102,8|0,0:0|0:0,0:0:0:0:
44,67,114197,2,0,B|36:123|36:123|44:175,1,107.999996704102
304,280,114404,6,0,B|384:260|384:260|404:224|404:224|493:200,1,215.999993408203
472,308,114715,1,0,0:0:0:0:
324,172,114818,2,0,B|316:116|316:116|324:64,1,107.999996704102,8|0,0:0|0:0,0:0:0:0:
511,5,115025,5,0,0:0:0:0:
511,5,115128,1,0,0:0:0:0:
431,77,115231,2,0,L|321:64,1,107.999996704102
136,112,115438,5,0,0:0:0:0:
136,112,115541,1,0,0:0:0:0:
216,184,115644,2,0,L|326:171,1,107.999996704102,8|0,0:0|0:0,0:0:0:0:
508,36,115852,5,0,0:0:0:0:
508,36,115955,1,0,0:0:0:0:
428,108,116058,2,0,L|318:95,1,107.999996704102
133,143,116265,5,0,0:0:0:0:
133,143,116368,1,0,0:0:0:0:
213,215,116471,2,0,L|323:202,1,107.999996704102,8|0,0:0|0:0,0:0:0:0:
236,112,116680,5,0,0:0:0:0:
110,246,116783,1,0,0:0:0:0:
256,360,116887,2,0,B|308:368|308:368|360:344,1,107.999996704102,4|0,0:0|0:0,0:0:0:0:
488,216,117093,6,0,L|500:108,1,107.999996704102
352,124,117300,2,0,L|340:16,1,107.999996704102,8|0,0:0|0:0,0:0:0:0:
456,228,117507,2,0,L|468:120,1,107.999996704102
320,136,117714,2,0,L|308:28,1,107.999996704102
128,24,117921,5,0,0:0:0:0:
4,144,118025,1,0,0:0:0:0:
172,116,118128,1,8,0:0:0:0:
20,40,118231,1,0,0:0:0:0:
100,196,118335,6,0,B|188:220|188:220|256:208|304:252,1,215.999993408203
376,332,118645,1,0,0:0:0:0:
272,360,118749,2,0,P|220:360|172:332,1,107.999996704102
408,224,118956,2,0,P|460:224|508:252,1,107.999996704102,8|0,0:0|0:0,0:0:0:0:
376,332,119162,1,0,0:0:0:0:
336,144,119266,1,0,0:0:0:0:
480,304,119369,5,8,0:0:0:0:
272,360,119473,2,0,B|192:368|192:368|156:340|156:340|64:348,1,215.999993408203,4|0,0:0|0:0,0:0:0:0:
4,144,119783,5,8,0:0:0:0:
212,200,119887,2,0,B|292:208|292:208|328:180|328:180|420:188,1,215.999993408203,4|0,0:0|0:0,0:0:0:0:
392,12,120197,5,4,0:0:0:0:
392,12,120300,1,0,0:0:0:0:
272,28,120404,2,0,B|256:84|256:84|260:140,1,107.999996704102
260,304,120611,2,0,B|316:289|316:289|362:258,1,107.999996704102,8|0,0:0|0:0,0:0:0:0:
505,176,120818,2,0,B|464:134|464:134|414:109,1,107.999996704102
180,12,121025,6,0,B|164:72|164:72|168:160|168:160|152:224,1,215.999993408203
72,296,121335,1,0,0:0:0:0:
176,328,121438,2,0,B|232:332|232:332|280:308,1,107.999996704102,8|0,0:0|0:0,0:0:0:0:
372,164,121645,5,0,0:0:0:0:
372,163,121749,1,0,0:0:0:0:
472,196,121852,2,0,L|480:312,1,107.999996704102
276,360,122059,5,0,0:0:0:0:
276,361,122163,1,0,0:0:0:0:
176,328,122266,2,0,L|168:212,1,107.999996704102,8|0,0:0|0:0,0:0:0:0:
448,92,122473,5,0,0:0:0:0:
448,92,122576,1,0,0:0:0:0:
396,268,122680,2,0,B|344:288|344:288|288:276,1,107.999996704102
212,108,122887,5,0,0:0:0:0:
212,108,122990,1,0,0:0:0:0:
220,0,123093,5,8,0:0:0:0:
266,195,123197,1,0,0:0:0:0:
118,63,123300,1,0,0:0:0:0:
318,84,123404,1,0,0:0:0:0:
147,185,123507,6,0,L|36:196,1,107.999996704102,4|0,0:0|0:0,0:0:0:0:
176,328,123714,2,0,L|287:338,1,107.999996704102
373,185,123921,2,0,L|261:195,1,107.999996704102,8|0,0:0|0:0,0:0:0:0:
401,327,124128,2,0,L|512:337,1,107.999996704102
444,120,124335,6,0,B|396:92|396:92|340:96,1,107.999996704102
200,140,124542,1,0,0:0:0:0:
217,333,124646,1,0,0:0:0:0:
316,168,124749,1,8,0:0:0:0:
140,243,124852,1,0,0:0:0:0:
327,286,124956,1,0,0:0:0:0:
200,140,125059,1,0,0:0:0:0:
288,344,125163,5,8,0:0:0:0:
268,118,125266,1,8,0:0:0:0:
151,312,125369,1,0,0:0:0:0:
361,224,125473,1,0,0:0:0:0:
136,172,125576,5,0,0:0:0:0:
332,294,125680,1,0,0:0:0:0:
243,82,125784,1,0,0:0:0:0:
189,303,125887,1,0,0:0:0:0:
362,157,125990,1,8,0:0:0:0:
362,157,126818,6,0,P|264:168|112:20,1,323.999990112305
12,64,127645,2,0,L|20:292,1,215.999993408203,8|0,0:0|0:0,0:0:0:0:
224,356,128473,6,0,L|332:368,1,107.999996704102,0|0,0:0|2:0,0:0:0:0:
384,272,128887,2,0,L|276:260,1,107.999996704102,0|0,0:0|2:0,0:0:0:0:
244,156,129300,2,0,B|328:164|328:164|376:144|376:144|460:152,1,215.999993408203,8|0,0:0|0:0,0:0:0:0:
296,4,130128,6,0,B|232:80|132:40|132:40|44:72|44:72|32:120,1,323.999990112305
108,196,130956,2,0,P|208:208|320:168,1,215.999993408203,8|0,0:0|0:0,0:0:0:0:
372,80,131576,1,0,2:0:0:0:
428,172,131783,6,0,L|432:280,1,107.999996704102,0|0,0:0|2:0,0:0:0:0:
348,352,132197,2,0,P|288:360|196:320,1,161.999995056153,0|0,0:0|2:0,0:0:0:0:
168,276,132611,2,0,L|60:288,1,107.999996704102,8|0,0:0|2:0,0:0:0:0:
0,144,133025,2,0,L|108:156,1,107.999996704102,0|0,0:0|2:0,0:0:0:0:
208,112,133438,6,0,B|280:64|372:88|336:168|428:196|504:148,1,323.999990112305
440,60,134266,2,0,L|408:276,1,215.999993408203,8|0,0:0|0:0,0:0:0:0:
392,380,134887,1,0,2:0:0:0:
312,312,135093,6,0,P|260:308|204:332,1,107.999996704102,0|0,0:0|2:0,0:0:0:0:
116,384,135507,2,0,P|64:388|8:364,1,107.999996704102,0|0,0:0|2:0,0:0:0:0:
0,216,135921,2,0,B|88:208|88:208|120:232|120:232|208:224,1,215.999993408203,8|0,0:0|0:0,0:0:0:0:
328,44,136749,6,0,B|240:36|240:36|208:60|208:60|120:52,2,215.999993408203,0|0|8,0:0|0:0|0:0,0:0:0:0:
496,180,137990,1,8,0:0:0:0:
412,340,138404,5,4,0:0:0:0:
373,363,138456,1,0,0:0:0:0:
329,370,138507,1,0,0:0:0:0:
285,359,138559,1,0,0:0:0:0:
249,332,138611,1,0,0:0:0:0:
225,294,138662,1,0,0:0:0:0:
218,249,138714,1,0,0:0:0:0:
229,206,138766,1,0,0:0:0:0:
256,169,138818,1,0,0:0:0:0:
294,146,138869,1,0,0:0:0:0:
339,139,138921,1,0,0:0:0:0:
382,150,138973,1,0,0:0:0:0:
419,177,139025,1,0,0:0:0:0:
442,215,139076,1,0,0:0:0:0:
449,259,139128,1,0,0:0:0:0:
438,303,139180,1,0,0:0:0:0:
412,340,139231,5,0,0:0:0:0:
332,252,139335,2,0,L|312:36,1,215.999993408203,12|0,0:0|2:0,0:0:0:0:
249,332,139645,5,0,0:0:0:0:
169,244,139749,2,0,L|149:28,1,215.999993408203,12|0,0:0|2:0,0:0:0:0:
56,136,140059,6,0,B|136:172|264:136|236:28|360:0|456:48,1,432,4|0,0:0|0:0,0:0:0:0:
500,184,140887,2,0,P|496:264|332:368,1,288,8|0,0:0|0:0,0:0:0:0:
264,352,141404,1,0,0:0:0:0:
208,308,141507,1,0,0:0:0:0:
236,168,141714,5,0,0:0:0:0:
252,98,141818,1,0,0:0:0:0:
303,146,141921,1,0,0:0:0:0:
108,220,142128,5,0,0:0:0:0:
92,151,142231,1,0,0:0:0:0:
40,200,142335,1,0,0:0:0:0:
218,189,142542,5,8,0:0:0:0:
241,71,142645,1,0,0:0:0:0:
332,149,142749,1,0,0:0:0:0:
126,243,142956,5,0,0:0:0:0:
103,124,143059,1,0,0:0:0:0:
11,204,143163,1,0,0:0:0:0:
196,380,143369,6,0,B|352:392|320:304|472:316,1,288,4|0,0:0|0:0,0:0:0:0:
392,192,143990,1,0,0:0:0:0:
392,192,144093,1,0,0:0:0:0:
392,192,144197,2,0,L|244:204,1,144,8|0,0:0|0:0,0:0:0:0:
44,260,144611,1,0,0:0:0:0:
116,272,144715,1,0,0:0:0:0:
188,284,144818,1,0,0:0:0:0:
238,105,145025,5,0,0:0:0:0:
166,117,145129,1,0,0:0:0:0:
94,129,145232,1,0,0:0:0:0:
264,296,145438,1,0,0:0:0:0:
336,284,145542,1,0,0:0:0:0:
408,272,145645,1,0,0:0:0:0:
420,80,145852,5,8,0:0:0:0:
420,80,145956,2,0,B|352:32|352:32|360:104|336:164,1,215.999993408203,4|0,0:0|0:0,0:0:0:0:
172,152,146266,5,8,0:0:0:0:
172,152,146370,2,0,B|240:104|240:104|232:176|256:236,1,215.999993408203,4|0,0:0|0:0,0:0:0:0:
352,340,146680,6,0,P|424:356|420:188,1,288,4|0,0:0|0:0,0:0:0:0:
368,204,147197,1,0,0:0:0:0:
332,268,147300,1,0,0:0:0:0:
208,340,147507,5,8,0:0:0:0:
136,328,147611,1,0,0:0:0:0:
64,316,147714,1,0,0:0:0:0:
28,176,147921,1,0,0:0:0:0:
100,164,148025,1,0,0:0:0:0:
172,152,148128,1,0,0:0:0:0:
279,351,148335,6,0,L|207:339,1,72
64,316,148542,1,0,0:0:0:0:
243,140,148749,6,0,L|171:152,1,72
28,175,148956,1,0,0:0:0:0:
304,188,149162,5,8,0:0:0:0:
316,116,149266,1,0,0:0:0:0:
328,44,149369,1,0,0:0:0:0:
171,151,149576,1,0,0:0:0:0:
183,223,149680,1,0,0:0:0:0:
195,295,149783,1,0,0:0:0:0:
360,312,149990,5,8,0:0:0:0:
448,288,150094,1,0,0:0:0:0:
424,200,150197,1,0,0:0:0:0:
336,224,150301,1,0,0:0:0:0:
408,318,150404,5,0,0:0:0:0:
454,239,150508,1,0,0:0:0:0:
375,193,150611,1,0,0:0:0:0:
329,272,150715,1,0,0:0:0:0:
496,320,150818,5,8,0:0:0:0:
456,151,150921,1,0,0:0:0:0:
287,191,151024,1,0,0:0:0:0:
327,360,151128,1,0,0:0:0:0:
511,227,151231,5,8,0:0:0:0:
363,135,151334,1,0,0:0:0:0:
271,283,151437,1,0,0:0:0:0:
419,375,151541,1,0,0:0:0:0:
424,68,151645,5,0,0:0:0:0:
271,283,151749,1,8,0:0:0:0:
455,252,151852,1,8,0:0:0:0:
240,99,151956,1,8,0:0:0:0:
60,160,152059,5,0,0:0:0:0:
45,202,152111,1,0,0:0:0:0:
60,245,152163,1,0,0:0:0:0:
99,267,152215,1,0,0:0:0:0:
144,259,152266,1,0,0:0:0:0:
173,225,152318,1,0,0:0:0:0:
173,180,152370,1,0,0:0:0:0:
144,145,152422,1,0,0:0:0:0:
99,137,152473,5,8,0:0:0:0:
88,340,152576,2,0,B|160:348|160:348|220:308|220:308|292:316,1,215.999993408203,4|0,0:0|0:0,0:0:0:0:
444,49,152887,5,8,0:0:0:0:
455,252,152990,2,0,B|383:260|383:260|323:220|323:220|251:228,1,215.999993408203,4|0,0:0|0:0,0:0:0:0:
419,375,153300,5,4,0:0:0:0:
419,375,153714,5,8,0:0:0:0:
464,364,153766,1,0,0:0:0:0:
488,328,153818,1,0,0:0:0:0:
484,284,153869,1,0,0:0:0:0:
455,252,153921,1,0,0:0:0:0:
412,244,153973,1,0,0:0:0:0:
368,260,154025,1,0,0:0:0:0:
328,276,154076,1,0,0:0:0:0:
285,268,154128,1,0,0:0:0:0:
256,236,154180,1,0,0:0:0:0:
252,192,154231,1,0,0:0:0:0:
276,156,154283,1,0,0:0:0:0:
321,145,154335,2,0,L|416:156,1,90,8|0,0:0|2:0,0:0:0:0:
296,16,154542,5,4,0:0:0:0:
212,48,154645,1,0,0:0:0:0:
124,24,154748,1,0,0:0:0:0:
40,56,154852,2,0,L|36:148,1,90,8|0,0:0|0:0,0:0:0:0:
120,280,155059,2,0,L|116:188,1,90,8|0,0:0|0:0,0:0:0:0:
44,328,155266,1,8,0:0:0:0:
124,372,155369,6,0,B|168:376|168:376|212:364,1,90,0|8,0:0|0:0,0:0:0:0:
280,152,155576,2,0,B|236:148|236:148|192:160,1,90,0|8,0:0|0:0,0:0:0:0:
304,356,155783,2,0,B|348:360|348:360|392:348,1,90,0|8,0:0|0:0,0:0:0:0:
488,144,155990,6,0,B|424:140|424:140|364:160,1,125.999996154785,4|8,0:0|0:0,0:0:0:0:
252,284,156197,5,0,0:0:0:0:
212,363,156300,1,8,0:0:0:0:
304,356,156404,1,0,0:0:0:0:
160,288,156507,2,0,L|68:292,1,90,8|0,0:0|0:0,0:0:0:0:
304,356,156714,2,0,L|396:352,1,90,8|0,0:0|0:0,0:0:0:0:
476,236,156921,1,8,0:0:0:0:
280,184,157024,6,0,L|228:192,2,45,4|0|0,0:0|0:0|0:0,0:0:0:0:
443,137,157231,2,0,L|495:145,2,45,4|0|0,0:0|0:0|0:0,0:0:0:0:
260,76,157438,2,0,L|208:84,2,45,4|0|0,0:0|0:0|0:0,0:0:0:0:
464,28,157645,2,0,L|516:36,2,45,4|0|0,0:0|0:0|0:0,0:0:0:0:
160,12,157852,5,4,0:0:0:0:
72,24,157955,1,8,0:0:0:0:
128,96,158059,1,0,0:0:0:0:
40,108,158162,2,0,B|28:152|28:152|32:196,1,90,8|0,0:0|0:0,0:0:0:0:
168,256,158369,2,0,B|180:212|180:212|176:168,1,90,8|0,0:0|0:0,0:0:0:0:
80,268,158576,1,0,0:0:0:0:
136,340,158679,6,0,L|228:348,1,90,0|8,0:0|0:0,0:0:0:0:
345,184,158886,2,0,L|256:192,1,90,0|8,0:0|0:0,0:0:0:0:
300,356,159093,2,0,L|392:364,1,90,0|8,0:0|0:0,0:0:0:0:
504,204,159300,6,0,B|512:172|512:172|420:180,1,125.999996154785,4|8,0:0|0:0,0:0:0:0:
168,256,159507,5,0,0:0:0:0:
96,242,159576,1,0,0:0:0:0:
50,187,159645,1,0,0:0:0:0:
50,116,159714,1,8,0:0:0:0:
96,61,159783,1,8,0:0:0:0:
167,48,159852,1,0,0:0:0:0:
230,83,159921,5,0,0:0:0:0:
254,152,159990,1,0,0:0:0:0:
229,219,160059,1,0,0:0:0:0:
252,288,160128,2,0,L|312:296,2,60
136,340,160335,5,2,0:0:0:0:
84,352,160386,1,0,0:0:0:0:
32,332,160438,1,2,0:0:0:0:
12,280,160490,1,2,0:0:0:0:
20,228,160542,1,0,0:0:0:0:
60,192,160593,1,2,0:0:0:0:
112,184,160645,1,0,0:0:0:0:
164,176,160697,1,2,0:0:0:0:
204,140,160748,1,0,0:0:0:0:
212,88,160800,1,0,0:0:0:0:
192,36,160852,1,0,0:0:0:0:
140,16,160904,1,0,0:0:0:0:
88,28,160955,2,0,L|80:120,1,90,10|0,0:0|0:0,0:0:0:0:
96,272,161162,5,4,0:0:0:0:
108,300,161231,1,0,0:0:0:0:
132,320,161300,1,0,0:0:0:0:
160,336,161369,1,0,0:0:0:0:
192,340,161438,1,0,0:0:0:0:
224,336,161507,1,0,0:0:0:0:
252,324,161576,1,0,0:0:0:0:
320,208,161783,1,0,0:0:0:0:
332,180,161852,1,0,0:0:0:0:
356,160,161921,1,0,0:0:0:0:
384,144,161990,5,8,0:0:0:0:
416,140,162059,1,0,0:0:0:0:
448,144,162128,1,0,0:0:0:0:
476,156,162197,1,0,0:0:0:0:
512,284,162404,1,0,0:0:0:0:
500,312,162473,1,0,0:0:0:0:
476,332,162542,1,0,0:0:0:0:
448,348,162611,1,0,0:0:0:0:
416,352,162680,1,0,0:0:0:0:
384,348,162749,1,0,0:0:0:0:
356,336,162817,6,0,P|288:320|224:336,1,135.000005149842,4|0,0:0|0:0,0:0:0:0:
100,384,163231,1,0,0:0:0:0:
100,384,163438,1,0,0:0:0:0:
24,272,163645,2,0,L|16:136,1,135.000005149842,8|0,0:0|0:0,0:0:0:0:
160,56,164059,2,0,L|152:192,1,135.000005149842
276,244,164473,5,0,0:0:0:0:
264,216,164542,1,0,0:0:0:0:
260,184,164610,1,0,0:0:0:0:
268,152,164679,1,0,0:0:0:0:
288,128,164748,1,0,0:0:0:0:
316,112,164817,1,0,0:0:0:0:
348,104,164886,1,0,0:0:0:0:
360,292,165093,1,0,0:0:0:0:
341,316,165162,1,0,0:0:0:0:
316,335,165230,1,0,0:0:0:0:
284,344,165299,5,8,0:0:0:0:
253,339,165368,1,0,0:0:0:0:
225,323,165437,1,0,0:0:0:0:
202,299,165506,1,0,0:0:0:0:
360,196,165714,1,0,0:0:0:0:
390,199,165783,1,0,0:0:0:0:
419,212,165851,1,0,0:0:0:0:
443,235,165920,1,0,0:0:0:0:
454,264,165989,1,0,0:0:0:0:
454,296,166058,1,0,0:0:0:0:
445,327,166128,6,0,P|381:347|315:335,1,135.000005149842,4|0,0:0|0:0,0:0:0:0:
228,232,166542,1,0,0:0:0:0:
228,232,166748,1,0,0:0:0:0:
360,196,166955,2,0,L|496:208,1,135.000005149842,8|0,0:0|0:0,0:0:0:0:
184,364,167369,2,0,L|48:352,1,135.000005149842
8,224,167783,5,4,0:0:0:0:
0,192,167852,1,0,0:0:0:0:
4,160,167921,1,0,0:0:0:0:
20,132,167990,1,0,0:0:0:0:
44,112,168059,1,0,0:0:0:0:
72,100,168128,1,0,0:0:0:0:
104,96,168197,1,0,0:0:0:0:
256,212,168404,1,0,0:0:0:0:
232,234,168473,1,0,0:0:0:0:
202,247,168542,1,0,0:0:0:0:
170,247,168611,5,8,0:0:0:0:
141,236,168680,1,0,0:0:0:0:
116,218,168749,1,0,0:0:0:0:
97,192,168818,1,0,0:0:0:0:
122,4,169024,1,0,0:0:0:0:
153,13,169093,1,0,0:0:0:0:
179,32,169162,1,0,0:0:0:0:
195,60,169231,1,0,0:0:0:0:
200,91,169300,1,0,0:0:0:0:
197,121,169369,1,0,0:0:0:0:
184,151,169438,6,0,L|320:140,1,135.000005149842,4|0,0:0|0:0,0:0:0:0:
444,188,169852,1,0,0:0:0:0:
444,188,170059,1,0,0:0:0:0:
488,316,170266,2,0,P|440:360|368:372,1,135.000005149842,8|0,0:0|0:0,0:0:0:0:
296,260,170679,2,0,P|248:216|176:204,1,135.000005149842,8|0,0:0|0:0,0:0:0:0:
48,228,171093,5,0,0:0:0:0:
33,255,171161,1,0,0:0:0:0:
29,287,171230,1,0,0:0:0:0:
35,317,171299,1,0,0:0:0:0:
50,345,171368,1,0,0:0:0:0:
73,366,171437,1,0,0:0:0:0:
102,378,171506,1,0,0:0:0:0:
205,256,171714,1,0,0:0:0:0:
189,230,171782,1,0,0:0:0:0:
162,211,171851,1,0,0:0:0:0:
134,201,171920,5,8,0:0:0:0:
102,199,171989,1,0,0:0:0:0:
72,208,172058,1,0,0:0:0:0:
48,228,172127,1,0,0:0:0:0:
102,378,172335,1,0,0:0:0:0:
132,377,172403,1,0,0:0:0:0:
162,363,172472,1,0,0:0:0:0:
185,344,172541,1,0,0:0:0:0:
202,317,172610,1,0,0:0:0:0:
210,286,172679,1,0,0:0:0:0:
205,256,172748,6,0,B|300:244|300:244|368:288|368:288|460:276,1,270.000010299683,4|2,0:0|2:0,0:0:0:0:
480,224,173990,1,2,2:0:0:0:
172,32,174404,5,12,0:0:0:0:
172,32,174455,1,0,0:0:0:0:
172,32,174507,2,0,L|128:40,1,45
72,120,174610,5,12,0:0:0:0:
72,120,174661,1,0,0:0:0:0:
72,120,174713,2,0,L|28:112,1,45
180,196,174817,5,12,0:0:0:0:
180,196,174868,1,0,0:0:0:0:
180,196,174920,2,0,L|136:204,1,45
80,284,175023,5,12,0:0:0:0:
80,284,175074,1,0,0:0:0:0:
80,284,175126,2,0,L|36:276,1,45
188,360,175231,5,10,0:0:0:0:
240,368,175283,1,0,0:0:0:0:
288,348,175335,1,0,0:0:0:0:
320,304,175386,1,0,0:0:0:0:
324,248,175438,1,10,0:0:0:0:
356,204,175489,1,0,0:0:0:0:
404,184,175541,1,0,0:0:0:0:
456,192,175593,1,0,0:0:0:0:
500,224,175645,6,0,L|496:268,1,45,2|0,0:0|0:0,0:0:0:0:
412,272,175748,2,0,L|383:305,1,45,8|0,0:0|0:0,0:0:0:0:
324,248,175852,2,0,L|281:259,1,45,10|0,0:0|0:0,0:0:0:0:
248,181,175955,1,0,0:0:0:0:
248,181,176886,6,0,B|156:172|156:172|108:216|108:216|12:208,1,251.999992309571,4|0,0:0|0:0,0:0:0:0:
48,332,177197,1,0,0:0:0:0:
164,376,177300,2,0,B|188:316|188:316|180:248,1,125.999996154785,8|0,0:0|0:0,0:0:0:0:
96,16,177507,2,0,B|72:76|72:76|80:144,1,125.999996154785
272,268,177714,6,0,B|364:277|364:277|412:233|412:233|508:241,1,251.999992309571
472,117,178025,1,0,0:0:0:0:
356,73,178128,2,0,B|332:133|332:133|340:201,1,125.999996154785,8|0,0:0|0:0,0:0:0:0:
444,328,178335,5,0,0:0:0:0:
444,328,178438,1,0,0:0:0:0:
328,376,178542,2,0,L|192:360,1,125.999996154785
98,160,178748,5,0,0:0:0:0:
98,160,178851,1,0,0:0:0:0:
214,208,178955,2,0,L|350:192,1,125.999996154785,8|0,0:0|0:0,0:0:0:0:
480,308,179162,5,0,0:0:0:0:
480,308,179265,1,0,0:0:0:0:
364,356,179369,2,0,L|228:340,1,125.999996154785
134,140,179575,5,0,0:0:0:0:
134,140,179678,1,0,0:0:0:0:
250,188,179782,2,0,L|386:172,1,125.999996154785,8|0,0:0|0:0,0:0:0:0:
120,14,179990,5,0,0:0:0:0:
32,212,180093,1,0,0:0:0:0:
250,188,180197,2,0,L|264:56,1,125.999996154785,4|0,0:0|0:0,0:0:0:0:
476,92,180404,6,0,B|484:156|484:156|460:212,1,125.999996154785
250,188,180610,2,0,B|301:149|301:149|361:141,1,125.999996154785,8|0,0:0|0:0,0:0:0:0:
447,336,180817,2,0,B|387:310|387:310|351:262,1,125.999996154785
476,92,181024,6,0,B|484:156|484:156|460:212|460:212|468:276|468:276|448:336,1,251.999992309571
328,380,181335,1,0,0:0:0:0:
328,380,181438,2,0,L|200:368,1,125.999996154785,8|0,0:0|0:0,0:0:0:0:
107,233,181645,6,0,B|165:252|165:252|229:244|229:244|285:268|285:268|349:260,1,251.999992309571
303,141,181955,1,0,0:0:0:0:
207,345,182059,2,0,L|79:357,1,125.999996154785
178,153,182266,2,0,L|306:141,1,125.999996154785,8|0,0:0|0:0,0:0:0:0:
465,308,182473,1,0,0:0:0:0:
349,260,182576,1,0,0:0:0:0:
448,184,182679,5,8,0:0:0:0:
366,384,182783,2,0,B|270:380|270:380|230:340|230:340|130:336,1,251.999992309571,4|0,0:0|0:0,0:0:0:0:
25,33,183093,5,8,0:0:0:0:
107,233,183197,2,0,B|203:229|203:229|243:189|243:189|343:185,1,251.999992309571,4|0,0:0|0:0,0:0:0:0:
464,12,183507,5,4,0:0:0:0:
464,12,183610,1,0,0:0:0:0:
416,264,183714,2,0,L|288:272,1,125.999996154785,8|0,0:0|0:0,0:0:0:0:
180,112,183921,2,0,L|308:104,1,125.999996154785,8|0,0:0|0:0,0:0:0:0:
344,364,184128,2,0,L|216:372,1,125.999996154785
252,12,184335,6,0,B|352:16|352:16|392:56|392:56|488:60,1,251.999992309571
512,184,184645,1,0,0:0:0:0:
416,264,184748,2,0,B|352:268|352:268|292:240,1,125.999996154785,8|0,0:0|0:0,0:0:0:0:
216,144,184955,5,0,0:0:0:0:
216,144,185059,1,0,0:0:0:0:
172,260,185162,2,0,L|44:272,1,125.999996154785
296,44,185369,5,0,0:0:0:0:
296,44,185473,1,0,0:0:0:0:
340,160,185576,2,0,L|468:172,1,125.999996154785,8|0,0:0|0:0,0:0:0:0:
212,176,185783,5,0,0:0:0:0:
212,176,185887,1,0,0:0:0:0:
168,292,185990,2,0,L|40:304,1,125.999996154785
292,76,186197,5,0,0:0:0:0:
292,76,186301,1,0,0:0:0:0:
336,192,186404,5,8,0:0:0:0:
168,60,186507,1,0,0:0:0:0:
318,42,186610,1,0,0:0:0:0:
186,210,186713,1,0,0:0:0:0:
380,312,186817,6,0,L|512:296,1,125.999996154785,4|0,0:0|0:0,0:0:0:0:
472,144,187024,2,0,L|340:128,1,125.999996154785
156,312,187231,2,0,L|288:296,1,125.999996154785,8|0,0:0|0:0,0:0:0:0:
248,144,187438,2,0,L|116:128,1,125.999996154785
24,256,187645,6,0,B|16:320|16:320|28:384,1,125.999996154785
156,312,187852,1,0,0:0:0:0:
140,164,187955,1,0,0:0:0:0:
24,256,188059,5,8,0:0:0:0:
272,220,188162,1,0,0:0:0:0:
124,16,188266,2,0,L|136:148,1,125.999996154785
288,368,188473,6,0,B|352:376|352:376|408:352,1,125.999996154785
202,199,188679,2,0,B|163:250|163:250|155:310,1,125.999996154785
391,209,188886,2,0,B|365:149|365:149|317:113,1,125.999996154785,8|0,0:0|0:3,0:3:0:0:
128,88,189093,1,0,0:0:0:0:
168,208,189197,1,0,0:0:0:0:
252,112,189300,5,0,0:0:0:0:
52,184,189404,1,2,0:0:0:0:
188,248,189507,1,0,0:0:0:0:
116,48,189611,1,2,0:0:0:0:
296,100,189714,5,8,0:0:0:0:
8,196,189817,1,0,0:0:0:0:
200,292,189921,1,0,0:0:0:0:
104,4,190024,1,0,0:0:0:0:
344,92,190128,6,0,P|440:108|512:24,1,215.999993408203,4|8,0:0|0:0,0:0:0:0:
404,4,190748,1,0,0:0:0:0:
388,200,190955,2,0,P|440:200|500:176,1,107.999996704102
404,4,191369,2,0,P|352:4|292:28,1,107.999996704102,8|0,0:0|0:0,0:0:0:0:
224,160,191783,6,0,B|216:240|216:240|252:280|252:280|244:361,1,215.999993408203,0|8,0:0|0:0,0:0:0:0:
144,320,192404,1,0,0:0:0:0:
324,201,192610,5,8,0:0:0:0:
324,201,192714,2,0,B|472:221,1,144
464,332,193024,5,8,0:0:0:0:
428,360,193076,1,0,0:0:0:0:
384,368,193128,1,0,0:0:0:0:
340,352,193179,1,0,0:0:0:0:
312,316,193231,1,0,0:0:0:0:
284,280,193283,1,0,0:0:0:0:
240,264,193334,1,0,0:0:0:0:
196,272,193386,1,0,0:0:0:0:
160,300,193438,6,0,L|64:308,1,90,4|0,0:0|0:0,0:0:0:0:
8,136,193645,2,0,L|104:144,1,90
329,256,193852,2,0,L|233:264,1,90,8|0,0:0|0:0,0:0:0:0:
177,92,194059,2,0,L|273:100,1,90
498,212,194266,2,0,L|402:220,1,90
266,99,194473,5,0,0:0:0:0:
452,113,194576,1,0,0:0:0:0:
293,210,194679,1,8,0:0:0:0:
364,38,194783,1,0,0:0:0:0:
408,219,194886,1,0,0:0:0:0:
266,99,194990,1,0,0:0:0:0:
404,16,195093,6,0,L|496:24,1,90
368,241,195300,2,0,L|276:233,1,90
106,196,195507,5,8,0:0:0:0:
90,108,195610,1,0,0:0:0:0:
177,92,195713,1,0,0:0:0:0:
193,180,195817,1,8,0:0:0:0:
24,168,195921,5,8,0:0:0:0:
120,24,196024,2,0,B|208:12|208:12|276:56|276:56|360:44,1,251.999992309571,4|0,0:0|0:0,0:0:0:0:
492,144,196335,5,8,0:0:0:0:
396,288,196438,2,0,B|308:300|308:300|240:256|240:256|156:268,1,251.999992309571,4|0,0:0|0:0,0:0:0:0:
220,348,196748,5,0,0:0:0:0:
220,348,196800,1,0,0:0:0:0:
220,348,196852,1,0,0:0:0:0:
328,212,196955,1,0,0:0:0:0:
156,186,197059,1,0,0:0:0:0:
336,328,197162,5,8,0:0:0:0:
253,122,197266,1,0,0:0:0:0:
116,296,197369,1,0,0:0:0:0:
116,296,197473,1,0,0:0:0:0:
353,200,197576,5,8,0:0:0:0:
134,168,197680,1,0,0:0:0:0:
216,374,197783,1,0,0:0:0:0:
216,374,197886,1,0,0:0:0:0:
334,127,197990,5,0,0:0:0:0:
134,168,198093,1,0,0:0:0:0:
175,370,198197,1,0,0:0:0:0:
375,328,198300,1,0,0:0:0:0:
476,113,198404,5,0,0:0:0:0:
460,71,198455,1,0,0:0:0:0:
422,49,198507,1,0,0:0:0:0:
377,56,198559,1,0,0:0:0:0:
348,91,198611,1,0,0:0:0:0:
348,136,198662,1,0,0:0:0:0:
377,170,198714,1,0,0:0:0:0:
421,178,198766,1,0,0:0:0:0:
450,212,198817,1,0,0:0:0:0:
450,257,198868,1,0,0:0:0:0:
421,292,198920,1,0,0:0:0:0:
376,299,198972,1,0,0:0:0:0:
338,277,199024,1,12,0:0:0:0:
338,277,199645,5,8,0:0:0:0:
320,236,199697,1,0,0:0:0:0:
284,212,199748,1,0,0:0:0:0:
240,208,199800,1,0,0:0:0:0:
196,224,199852,1,0,0:0:0:0:
152,240,199904,1,0,0:0:0:0:
108,236,199956,1,0,0:0:0:0:
72,212,200007,1,0,0:0:0:0:
54,171,200059,6,0,L|48:40,1,125.999996154785,12|0,0:0|0:0,0:0:0:0:
320,132,200266,5,0,0:0:0:0:
248,300,200369,1,0,0:0:0:0:
144,148,200473,1,8,0:0:0:0:
336,148,200576,1,0,0:0:0:0:
228,304,200679,1,0,0:0:0:0:
228,304,200731,1,0,0:0:0:0:
228,304,200782,1,0,0:0:0:0:
152,124,200886,2,0,L|278:114,1,125.999996154785,8|0,0:0|0:0,0:0:0:0:
383,245,201093,5,0,0:0:0:0:
383,245,201145,1,0,0:0:0:0:
383,245,201196,1,0,0:0:0:0:
320,132,201300,2,0,L|446:142,1,125.999996154785,8|0,0:0|0:0,0:0:0:0:
445,357,201507,2,0,L|319:347,1,125.999996154785
320,132,201714,5,8,0:0:0:0:
495,182,201818,1,0,0:0:0:0:
445,357,201921,1,0,0:0:0:0:
270,306,202024,1,0,0:0:0:0:
417,120,202128,5,8,0:0:0:0:
506,279,202232,1,0,0:0:0:0:
347,368,202335,1,0,0:0:0:0:
347,368,202386,1,0,0:0:0:0:
347,368,202438,1,0,0:0:0:0:
258,209,202542,5,8,0:0:0:0:
501,63,202645,2,0,B|509:151|509:151|485:227|485:227|493:315,1,251.999992309571,4|0,0:0|0:0,0:0:0:0:
104,222,202955,5,8,0:0:0:0:
347,368,203058,2,0,B|355:280|355:280|331:204|331:204|339:116,1,251.999992309571,4|0,0:0|0:0,0:0:0:0:
212,24,203369,6,0,L|76:36,1,125.999996154785,4|0,0:0|0:0,0:0:0:0:
16,216,203576,5,0,0:0:0:0:
140,360,203679,1,0,0:0:0:0:
202,180,203783,1,8,0:0:0:0:
12,240,203886,1,0,0:0:0:0:
162,351,203990,1,0,0:0:0:0:
164,352,204042,1,0,0:0:0:0:
164,352,204093,1,0,0:0:0:0:
184,164,204197,2,0,L|196:32,1,125.999996154785,8|0,0:0|0:0,0:0:0:0:
16,264,204404,5,0,0:0:0:0:
16,264,204455,1,0,0:0:0:0:
16,264,204507,1,0,0:0:0:0:
184,336,204610,2,0,B|244:352|244:352|312:344,1,125.999996154785,8|0,0:0|0:0,0:0:0:0:
161,156,204817,2,0,B|101:140|101:140|33:148,1,125.999996154785
264,244,205024,6,0,B|288:188|288:188|280:124,1,125.999996154785,4|0,0:0|0:0,0:0:0:0:
117,19,205231,5,8,0:0:0:0:
61,11,205283,1,0,0:0:0:0:
13,43,205335,1,0,0:0:0:0:
5,99,205386,1,0,0:0:0:0:
37,147,205438,1,0,0:0:0:0:
93,159,205490,1,0,0:0:0:0:
141,131,205542,1,0,0:0:0:0:
189,103,205593,1,0,0:0:0:0:
245,115,205645,1,0,0:0:0:0:
277,163,205697,1,0,0:0:0:0:
269,219,205748,1,0,0:0:0:0:
221,251,205800,1,0,0:0:0:0:
165,243,205852,5,8,0:0:0:0:
357,314,205955,2,0,L|373:61,1,251.999992309571,4|0,0:0|0:0,0:0:0:0:
84,212,206266,5,8,0:0:0:0:
440,344,206369,2,0,L|456:91,1,251.999992309571,4|0,0:0|0:0,0:0:0:0:
3,181,206679,5,4,0:0:0:0:
