osu file format v14

[General]
AudioFilename: MEGALOMANIA.mp3
AudioLeadIn: 0
PreviewTime: 92439
Countdown: 0
SampleSet: None
StackLeniency: 0.3
Mode: 0
LetterboxInBreaks: 0
WidescreenStoryboard: 0

[Editor]
DistanceSpacing: 1
BeatDivisor: 4
GridSize: 4
TimelineZoom: 1.8

[Metadata]
Title:MEGALOMANIA
TitleUnicode:MEGALOMANIA
Artist:UNDEAD CORPORATION
ArtistUnicode:UNDEAD CORPORATION
Creator:GoldenWolf
Version:woof
Source:東方Project
Tags:Patchouli Knowledge
BeatmapID:722844
BeatmapSetID:325421

[Difficulty]
HPDrainRate:5
CircleSize:4.5
OverallDifficulty:9.5
ApproachRate:10
SliderMultiplier:1.6
SliderTickRate:1

[Events]
//Background and Video events
0,0,"orz111.jpg",0,0
//Break Periods
2,121027,123989
//Storyboard Layer 0 (Background)
//Storyboard Layer 1 (Fail)
//Storyboard Layer 2 (Pass)
//Storyboard Layer 3 (Foreground)
//Storyboard Sound Samples

[TimingPoints]
2662,222.222222222222,4,3,1,100,1,0
2736,-100,4,3,2,60,0,0
15106,-100,4,3,2,85,0,0
15550,-100,4,3,12,85,0,0
15847,-100,4,3,11,85,0,0
16143,-100,4,3,10,85,0,0
16439,-100,4,3,1,60,0,0
16884,-83.3333333333333,4,3,1,100,0,0
16995,-83.3333333333333,4,3,1,70,0,0
20439,-83.3333333333333,4,3,2,100,0,0
20550,-83.3333333333333,4,3,1,70,0,0
23328,-83.3333333333333,4,3,1,40,0,0
23384,-83.3333333333333,4,3,1,45,0,0
23439,-83.3333333333333,4,3,1,50,0,0
23495,-83.3333333333333,4,3,1,55,0,0
23550,-83.3333333333333,4,3,1,60,0,0
23606,-83.3333333333333,4,3,1,65,0,0
23661,-83.3333333333333,4,3,1,70,0,0
23717,-83.3333333333333,4,3,1,75,0,0
23773,-83.3333333333333,4,3,1,80,0,0
23828,-83.3333333333333,4,3,1,85,0,0
23884,-83.3333333333333,4,3,1,90,0,0
23939,-83.3333333333333,4,3,1,95,0,0
23995,-83.3333333333333,4,3,3,100,0,0
24106,-83.3333333333333,4,3,1,70,0,0
27550,-83.3333333333333,4,3,2,100,0,0
27661,-83.3333333333333,4,3,1,70,0,0
29328,-83.3333333333333,4,3,3,100,0,0
29550,-83.3333333333333,4,3,4,85,0,0
29773,-83.3333333333333,4,3,12,85,0,0
29995,-83.3333333333333,4,3,11,85,0,0
30217,-83.3333333333333,4,3,10,85,0,0
30661,-83.3333333333333,4,3,2,100,0,0
31106,-83.3333333333333,4,3,1,100,0,0
31161,-83.3333333333333,4,3,4,60,0,0
34661,-83.3333333333333,4,3,3,100,0,0
34717,-83.3333333333333,4,3,4,60,0,0
38217,-83.3333333333333,4,3,2,100,0,0
38273,-83.3333333333333,4,3,4,60,0,0
41773,-83.3333333333333,4,3,3,100,0,0
41828,-83.3333333333333,4,3,4,60,0,0
43773,-83.3333333333333,4,3,4,85,0,0
43884,-83.3333333333333,4,3,11,85,0,0
44106,-83.3333333333333,4,3,4,85,0,0
44217,-83.3333333333333,4,3,11,85,0,0
44328,-83.3333333333333,4,3,7,85,0,0
46217,-83.3333333333333,4,3,1,100,0,0
46328,-83.3333333333333,4,3,4,60,0,0
49773,-83.3333333333333,4,3,3,100,0,0
49884,-83.3333333333333,4,3,4,60,0,0
53328,-83.3333333333333,4,3,2,100,0,0
53439,-83.3333333333333,4,3,4,60,0,0
54217,-83.3333333333333,4,3,6,60,0,0
54550,-83.3333333333333,4,3,4,60,0,0
54661,-83.3333333333333,4,3,6,60,0,0
54995,-83.3333333333333,4,3,4,60,0,0
55106,-83.3333333333333,4,3,6,60,0,0
55439,-83.3333333333333,4,3,4,60,0,0
55550,-83.3333333333333,4,3,6,60,0,0
55884,-83.3333333333333,4,3,4,60,0,0
55995,-83.3333333333333,4,3,6,60,0,0
56106,-83.3333333333333,4,3,4,60,0,0
56217,-83.3333333333333,4,3,6,60,0,0
56328,-83.3333333333333,4,3,4,60,0,0
56439,-83.3333333333333,4,3,6,60,0,0
56550,-83.3333333333333,4,3,4,60,0,0
56661,-83.3333333333333,4,3,6,60,0,0
56773,-83.3333333333333,4,3,4,60,0,0
56884,-74.0740740740741,4,3,3,100,0,0
56995,-74.0740740740741,4,3,4,60,0,0
58661,-83.3333333333333,4,3,4,60,0,0
59217,-83.3333333333333,4,3,4,85,0,0
59328,-83.3333333333333,4,3,12,85,0,0
59439,-83.3333333333333,4,3,4,85,0,0
59550,-83.3333333333333,4,3,11,85,0,0
59661,-83.3333333333333,4,3,4,85,0,0
59995,-83.3333333333333,4,3,10,85,0,0
60439,-83.3333333333333,4,3,1,100,0,0
60550,-83.3333333333333,4,3,2,60,0,0
63995,-83.3333333333333,4,3,3,100,0,0
64106,-83.3333333333333,4,3,2,60,0,0
65773,-83.3333333333333,4,3,1,100,0,0
65884,-83.3333333333333,4,3,2,85,0,0
66217,-83.3333333333333,4,3,12,85,0,0
66328,-83.3333333333333,4,3,2,85,0,0
66439,-83.3333333333333,4,3,11,85,0,0
66550,-83.3333333333333,4,3,2,85,0,0
67106,-83.3333333333333,4,3,10,85,0,0
67217,-83.3333333333333,4,3,2,85,0,0
67328,-83.3333333333333,4,3,10,85,0,0
67439,-83.3333333333333,4,3,2,85,0,0
67550,-71.4285714285714,4,3,3,100,0,0
67661,-71.4285714285714,4,3,2,60,0,0
68439,-74.0740740740741,4,3,2,60,0,0
69328,-76.9230769230769,4,3,2,60,0,0
70217,-80,4,3,2,60,0,0
71106,-83.3333333333333,4,3,3,100,0,0
71161,-83.3333333333333,4,3,2,60,0,0
72884,-83.3333333333333,4,3,12,85,0,0
72995,-83.3333333333333,4,3,4,85,0,0
73106,-83.3333333333333,4,3,11,85,0,0
73217,-83.3333333333333,4,3,4,85,0,0
73328,-83.3333333333333,4,3,10,85,0,0
73439,-83.3333333333333,4,3,4,85,0,0
73550,-83.3333333333333,4,3,10,85,0,0
73661,-83.3333333333333,4,3,4,85,0,0
73773,-83.3333333333333,4,3,4,100,0,0
74661,-83.3333333333333,4,3,1,100,0,0
74773,-83.3333333333333,4,3,4,60,0,0
78217,-83.3333333333333,4,3,2,100,0,0
78328,-83.3333333333333,4,3,4,60,0,0
81773,-83.3333333333333,4,3,3,100,0,0
81884,-83.3333333333333,4,3,4,60,0,0
85328,-83.3333333333333,4,3,2,100,0,0
85439,-83.3333333333333,4,3,4,60,0,0
87328,-83.3333333333333,4,3,10,85,0,0
87550,-83.3333333333333,4,3,4,85,0,0
87773,-83.3333333333333,4,3,10,85,0,0
87995,-83.3333333333333,4,3,4,85,0,0
88217,-83.3333333333333,4,3,11,85,0,0
88439,-83.3333333333333,4,3,4,60,0,0
88661,-83.3333333333333,4,3,12,85,0,0
88884,-83.3333333333333,4,3,3,100,0,0
88995,-83.3333333333333,4,3,7,60,0,0
90661,-83.3333333333333,4,3,3,100,0,0
90884,-83.3333333333333,4,3,4,60,0,0
91328,-83.3333333333333,4,3,4,80,0,0
91550,-83.3333333333333,4,3,2,100,0,0
91661,-83.3333333333333,4,3,4,60,0,0
92217,-74.0740740740741,4,3,4,60,0,0
92439,-80,4,3,1,100,0,1
92550,-80,4,3,4,60,0,1
95995,-74.0740740740741,4,3,2,100,0,1
96106,-80,4,3,4,60,0,1
99550,-80,4,3,2,100,0,1
99606,-80,4,3,4,60,0,1
103106,-80,4,3,2,100,0,1
103161,-80,4,3,4,85,0,1
103328,-80,4,3,10,85,0,1
103439,-80,4,3,4,85,0,1
103550,-80,4,3,12,85,0,1
103773,-80,4,3,4,85,0,1
103995,-80,4,3,11,85,0,1
104106,-80,4,3,10,85,0,1
104328,-80,4,3,4,85,0,1
104661,-80,4,3,10,85,0,1
104773,-80,4,3,4,85,0,1
105106,-80,4,3,12,85,0,1
105328,-80,4,3,11,85,0,1
105439,-80,4,3,4,85,0,1
105550,-80,4,3,11,85,0,1
105773,-80,4,3,4,85,0,1
105995,-80,4,3,10,85,0,1
106217,-80,4,3,3,100,0,1
106273,-80,4,3,4,60,0,1
106661,-80,4,3,2,100,0,1
106717,-80,4,3,4,60,0,1
110217,-80,4,3,2,100,0,1
110328,-80,4,3,4,60,0,1
113773,-80,4,3,3,100,0,1
113828,-80,4,3,4,60,0,1
116439,-80,4,3,12,85,0,1
116661,-80,4,3,4,60,0,1
116773,-80,4,3,11,85,0,1
116995,-80,4,3,4,60,0,1
117106,-80,4,3,10,85,0,1
117328,-80,4,3,2,100,0,1
117384,-80,4,3,4,60,0,1
119106,-80,4,3,3,100,0,1
119217,-80,4,3,4,60,0,1
119328,-80,4,3,12,85,0,1
119439,-80,4,3,4,85,0,1
119550,-80,4,3,12,85,0,1
119661,-80,4,3,4,85,0,1
119773,-80,4,3,11,85,0,1
119884,-80,4,3,4,85,0,1
120217,-80,4,3,11,85,0,1
120328,-80,4,3,4,85,0,1
120439,-80,4,3,10,85,0,1
120550,-80,4,3,4,85,0,1
120661,-80,4,3,10,85,0,1
120773,-80,4,3,4,85,0,1
120828,-100,4,3,4,85,0,0
124439,-83.3333333333333,4,3,1,100,0,0
124495,-83.3333333333333,4,3,4,60,0,0
127995,-83.3333333333333,4,3,2,100,0,0
128050,-83.3333333333333,4,3,4,60,0,0
130661,-83.3333333333333,4,3,2,100,0,0
130717,-83.3333333333333,4,3,4,60,0,0
131550,-83.3333333333333,4,3,3,100,0,0
131606,-83.3333333333333,4,3,4,60,0,0
135106,-83.3333333333333,4,3,2,100,0,0
135161,-83.3333333333333,4,3,4,60,0,0
136884,-83.3333333333333,4,3,12,85,0,0
137106,-83.3333333333333,4,3,4,85,0,0
137217,-83.3333333333333,4,3,11,85,0,0
137439,-83.3333333333333,4,3,4,85,0,0
137550,-83.3333333333333,4,3,10,85,0,0
137773,-83.3333333333333,4,3,4,85,0,0
138217,-83.3333333333333,4,3,3,100,0,0
138661,-76.9230769230769,4,3,1,100,0,0
138773,-76.9230769230769,4,3,4,60,0,0
142217,-76.9230769230769,4,3,2,100,0,0
142328,-76.9230769230769,4,3,4,60,0,0
145773,-76.9230769230769,4,3,3,100,0,0
145884,-76.9230769230769,4,3,4,60,0,0
149328,-76.9230769230769,4,3,2,100,0,0
149439,-76.9230769230769,4,3,4,60,0,0
152884,-76.9230769230769,4,3,1,100,0,0
152995,-76.9230769230769,4,3,2,60,0,0
154661,-76.9230769230769,4,3,3,80,0,0
154773,-76.9230769230769,4,3,2,60,0,0
155995,-86.9565217391304,4,3,2,60,0,0
156439,-86.9565217391304,4,3,2,100,0,0
156550,-86.9565217391304,4,3,2,60,0,0
158217,-76.9230769230769,4,3,3,80,0,0
158328,-76.9230769230769,4,3,2,60,0,0
159995,-76.9230769230769,4,3,2,100,0,0
160106,-76.9230769230769,4,3,2,60,0,0
161773,-76.9230769230769,4,3,3,80,0,0
161884,-76.9230769230769,4,3,2,60,0,0
163550,-76.9230769230769,4,3,3,100,0,0
163661,-76.9230769230769,4,3,2,60,0,0
166661,-76.9230769230769,4,3,12,85,0,0
166884,-76.9230769230769,4,3,11,85,0,0
167106,-83.3333333333333,4,3,1,100,0,0
167217,-83.3333333333333,4,3,2,60,0,0
168884,-83.3333333333333,4,3,2,100,0,0
168995,-83.3333333333333,4,3,2,60,0,0
170661,-76.9230769230769,4,3,3,100,0,0
170773,-76.9230769230769,4,3,2,60,0,0
172439,-76.9230769230769,4,3,2,100,0,0
172550,-76.9230769230769,4,3,2,85,0,0
173106,-76.9230769230769,4,3,11,85,0,0
173217,-76.9230769230769,4,3,2,85,0,0
173550,-76.9230769230769,4,3,12,85,0,0
173661,-76.9230769230769,4,3,2,85,0,0
173773,-76.9230769230769,4,3,10,85,0,0
174217,-71.4285714285714,4,3,1,100,0,0
174328,-71.4285714285714,4,3,2,60,0,0
177773,-71.4285714285714,4,3,3,100,0,0
177828,-71.4285714285714,4,3,2,60,0,0
179550,-83.3333333333333,4,3,12,85,0,0
179661,-83.3333333333333,4,3,4,85,0,0
179773,-83.3333333333333,4,3,12,85,0,0
179884,-83.3333333333333,4,3,4,85,0,0
179995,-83.3333333333333,4,3,11,85,0,0
180106,-83.3333333333333,4,3,4,85,0,0
180217,-83.3333333333333,4,3,11,85,0,0
180328,-83.3333333333333,4,3,4,85,0,0
181328,-83.3333333333333,4,3,1,100,0,0
181439,-83.3333333333333,4,3,4,60,0,0
184884,-83.3333333333333,4,3,3,100,0,0
184995,-83.3333333333333,4,3,4,60,0,0
186661,-83.3333333333333,4,3,2,100,0,0
186773,-83.3333333333333,4,3,4,60,0,0
188439,-83.3333333333333,4,3,3,100,0,0
188550,-83.3333333333333,4,3,4,60,0,0
189328,-83.3333333333333,4,3,6,60,0,0
189661,-83.3333333333333,4,3,4,60,0,0
189773,-83.3333333333333,4,3,6,60,0,0
190106,-83.3333333333333,4,3,4,60,0,0
190217,-83.3333333333333,4,3,6,60,0,0
190550,-83.3333333333333,4,3,4,60,0,0
190661,-83.3333333333333,4,3,6,60,0,0
190995,-83.3333333333333,4,3,4,60,0,0
191106,-83.3333333333333,4,3,6,60,0,0
191217,-83.3333333333333,4,3,4,60,0,0
191328,-83.3333333333333,4,3,6,60,0,0
191439,-83.3333333333333,4,3,4,60,0,0
191550,-83.3333333333333,4,3,6,60,0,0
191661,-83.3333333333333,4,3,4,60,0,0
191773,-83.3333333333333,4,3,6,60,0,0
191884,-83.3333333333333,4,3,4,60,0,0
191995,-76.9230769230769,4,3,3,100,0,0
192106,-76.9230769230769,4,3,4,60,0,0
193328,-83.3333333333333,4,3,4,60,0,0
194217,-83.3333333333333,4,3,4,85,0,0
194550,-83.3333333333333,4,3,12,85,0,0
194773,-83.3333333333333,4,3,4,85,0,0
194884,-83.3333333333333,4,3,11,85,0,0
195106,-83.3333333333333,4,3,4,85,0,0
195550,-83.3333333333333,4,3,1,100,0,0
195661,-83.3333333333333,4,3,4,60,0,0
199106,-83.3333333333333,4,3,2,100,0,0
199217,-83.3333333333333,4,3,4,60,0,0
202661,-76.9230769230769,4,3,3,100,0,0
202773,-76.9230769230769,4,3,4,60,0,0
204439,-83.3333333333333,4,3,4,60,0,0
206217,-83.3333333333333,4,3,2,100,0,0
206328,-83.3333333333333,4,3,4,60,0,0
208217,-83.3333333333333,4,3,10,85,0,0
208439,-83.3333333333333,4,3,4,85,0,0
208661,-83.3333333333333,4,3,10,85,0,0
208884,-83.3333333333333,4,3,4,85,0,0
209106,-83.3333333333333,4,3,11,85,0,0
209328,-83.3333333333333,4,3,4,85,0,0
209550,-83.3333333333333,4,3,12,85,0,0
209773,-83.3333333333333,4,3,3,100,0,0
209884,-83.3333333333333,4,3,7,60,0,0
211550,-83.3333333333333,4,3,3,100,0,0
211606,-83.3333333333333,4,3,4,85,0,0
211773,-83.3333333333333,4,3,12,85,0,0
211995,-83.3333333333333,4,3,4,85,0,0
212217,-83.3333333333333,4,3,11,85,0,0
212439,-83.3333333333333,4,3,10,85,0,0
212884,-83.3333333333333,4,3,3,100,0,0
213328,-80,4,3,1,60,0,1
216884,-80,4,3,3,100,0,1
216939,-80,4,3,1,60,0,1
220439,-80,4,3,2,100,0,1
220495,-80,4,3,1,60,0,1
223995,-80,4,3,1,85,0,1
224106,-80,4,3,10,85,0,1
224328,-80,4,3,1,85,0,1
224884,-80,4,3,12,85,0,1
225106,-80,4,3,11,85,0,1
225217,-80,4,3,1,85,0,1
225328,-80,4,3,11,85,0,1
225439,-80,4,3,1,85,0,1
225550,-80,4,3,10,85,0,1
225773,-80,4,3,3,85,0,1
227550,-80,4,3,1,100,0,1
227606,-80,4,3,1,60,0,1
231106,-80,4,3,2,100,0,1
231161,-80,4,3,1,60,0,1
234661,-80,4,3,3,100,0,1
234717,-80,4,3,1,60,0,1
237328,-80,4,3,1,85,0,1
237550,-80,4,3,12,85,0,1
237661,-80,4,3,1,85,0,1
237773,-80,4,3,12,85,0,1
237884,-80,4,3,1,85,0,1
237995,-80,4,3,11,85,0,1
238217,-80,4,3,2,100,0,1
238273,-80,4,3,2,85,0,1
239995,-80,4,3,3,100,0,1
240106,-80,4,3,3,85,0,1
240439,-80,4,3,12,85,0,1
240661,-80,4,3,11,85,0,1
240884,-80,4,3,1,85,0,1
241106,-80,4,3,10,85,0,1
241328,-80,4,3,1,85,0,1
241550,-80,4,3,10,85,0,1
241773,-83.3333333333333,4,3,1,100,0,0
241828,-83.3333333333333,4,3,1,60,0,0
245328,-83.3333333333333,4,3,2,100,0,0
245384,-83.3333333333333,4,3,1,60,0,0
248884,-83.3333333333333,4,3,3,100,0,0
248939,-83.3333333333333,4,3,1,60,0,0
252439,-83.3333333333333,4,3,2,100,0,0
252495,-83.3333333333333,4,3,1,60,0,0
254217,-83.3333333333333,4,3,1,85,0,0
254550,-83.3333333333333,4,3,12,85,0,0
254773,-83.3333333333333,4,3,1,85,0,0
254884,-83.3333333333333,4,3,11,85,0,0
255106,-83.3333333333333,4,3,1,85,0,0
255550,-76.9230769230769,4,3,3,100,0,0
257773,-71.4285714285714,4,3,3,100,0,0
257828,-71.4285714285714,4,3,1,70,0,0
259550,-71.4285714285714,4,3,3,100,0,0
259606,-71.4285714285714,4,3,1,70,0,0
261328,-71.4285714285714,4,3,2,100,0,0
261384,-71.4285714285714,4,3,1,70,0,0
262717,-71.4285714285714,4,3,11,85,0,0
262884,-71.4285714285714,4,3,10,85,0,0
263106,-71.4285714285714,4,3,3,100,0,0
263161,-71.4285714285714,4,3,4,50,0,0
266661,-71.4285714285714,4,3,3,100,0,0
266717,-71.4285714285714,4,3,4,50,0,0
268439,-71.4285714285714,4,3,1,100,0,0
268661,-71.4285714285714,4,3,1,85,0,0
268884,-71.4285714285714,4,3,12,85,0,0
269106,-71.4285714285714,4,3,1,85,0,0
269328,-71.4285714285714,4,3,11,85,0,0
269550,-71.4285714285714,4,3,1,85,0,0
269773,-71.4285714285714,4,3,10,85,0,0
269995,-71.4285714285714,4,3,1,85,0,0
270217,-500,4,3,1,100,0,0
270328,-500,4,3,1,5,0,0

[Colours]
Combo1 : 240,210,90
Combo2 : 240,90,90
Combo3 : 240,130,90
Combo4 : 240,170,90

[HitObjects]
40,100,2662,6,0,L|96:104,1,53.3333333333333,2|8,0:0|0:0,0:0:0:0:
88,224,2810,2,0,L|144:228,1,53.3333333333333,0|8,0:0|0:0,0:0:0:0:
136,348,2958,2,0,L|192:352,1,53.3333333333333,0|8,0:0|0:0,0:0:0:0:
340,300,3106,2,0,L|396:296,1,53.3333333333333,0|8,0:0|0:0,0:0:0:0:
260,180,3254,2,0,L|204:176,1,53.3333333333333,0|8,0:0|0:0,0:0:0:0:
340,60,3402,2,0,L|396:56,1,53.3333333333333,0|8,0:0|0:0,0:0:0:0:
476,224,3550,5,0,0:0:0:0:
441,251,3624,1,8,0:0:0:0:
399,265,3699,1,0,0:0:0:0:
355,264,3773,1,8,0:0:0:0:
314,248,3847,1,0,0:0:0:0:
281,219,3921,1,8,0:0:0:0:
260,180,3995,1,0,0:0:0:0:
244,212,4069,1,8,0:0:0:0:
219,236,4143,1,0,0:0:0:0:
186,251,4217,1,8,0:0:0:0:
151,254,4291,1,0,0:0:0:0:
117,244,4365,1,8,0:0:0:0:
88,224,4439,6,0,P|80:200|80:172,1,53.3333333333333,2|8,0:0|0:0,0:0:0:0:
144,88,4587,2,0,P|155:64|175:44,1,53.3333333333333,0|8,0:0|0:0,0:0:0:0:
279,30,4736,2,0,P|303:21|331:21,1,53.3333333333333,0|8,0:0|0:0,0:0:0:0:
441,86,4884,2,0,P|449:110|449:138,1,53.3333333333333,0|8,0:0|0:0,0:0:0:0:
385,222,5032,2,0,P|373:245|353:265,1,53.3333333333333,0|8,0:0|0:0,0:0:0:0:
250,280,5180,2,0,P|225:288|197:288,1,53.3333333333333,0|8,0:0|0:0,0:0:0:0:
88,224,5328,6,0,L|36:216,1,53.3333333333333,0|8,0:0|0:0,0:0:0:0:
260,180,5476,2,0,L|312:188,1,53.3333333333333,0|8,0:0|0:0,0:0:0:0:
116,156,5624,2,0,L|64:148,1,53.3333333333333,0|8,0:0|0:0,0:0:0:0:
250,280,5773,2,0,L|302:288,1,53.3333333333333,0|8,0:0|0:0,0:0:0:0:
144,88,5921,2,0,L|92:80,1,53.3333333333333,0|8,0:0|0:0,0:0:0:0:
385,222,6069,2,0,L|437:214,1,53.3333333333333,0|8,0:0|0:0,0:0:0:0:
337,40,6217,5,2,0:0:0:0:
296,29,6291,1,8,0:0:0:0:
253,28,6365,1,0,0:0:0:0:
212,38,6439,1,8,0:0:0:0:
175,58,6513,1,0,0:0:0:0:
144,87,6587,1,8,0:0:0:0:
104,99,6661,1,0,0:0:0:0:
70,76,6736,1,8,0:0:0:0:
67,35,6810,1,0,0:0:0:0:
96,6,6884,1,8,0:0:0:0:
137,11,6958,1,0,0:0:0:0:
159,46,7032,1,8,0:0:0:0:
144,87,7106,5,0,0:0:0:0:
128,128,7180,1,8,0:0:0:0:
127,173,7254,1,0,0:0:0:0:
142,214,7328,1,8,0:0:0:0:
169,249,7402,1,0,0:0:0:0:
207,271,7476,1,8,0:0:0:0:
251,279,7550,1,0,0:0:0:0:
293,276,7624,1,8,0:0:0:0:
323,247,7699,1,0,0:0:0:0:
328,206,7773,1,8,0:0:0:0:
306,170,7847,1,0,0:0:0:0:
266,157,7921,1,8,0:0:0:0:
227,171,7995,6,0,P|200:168|172:168,1,53.3333333333333,2|8,0:0|0:0,0:0:0:0:
0,144,8143,2,0,P|27:140|55:140,1,53.3333333333333,0|8,0:0|0:0,0:0:0:0:
228,104,8291,2,0,P|200:100|172:100,1,53.3333333333333,0|8,0:0|0:0,0:0:0:0:
0,76,8439,2,0,P|27:72|55:72,1,53.3333333333333,0|8,0:0|0:0,0:0:0:0:
228,36,8587,2,0,P|200:32|172:32,1,53.3333333333333,0|8,0:0|0:0,0:0:0:0:
0,8,8736,2,0,P|27:4|55:4,1,53.3333333333333,0|8,0:0|0:0,0:0:0:0:
228,104,8884,5,0,0:0:0:0:
222,147,8958,1,8,0:0:0:0:
196,183,9032,1,0,0:0:0:0:
157,202,9106,1,8,0:0:0:0:
113,201,9180,1,0,0:0:0:0:
75,179,9254,1,8,0:0:0:0:
52,141,9328,1,0,0:0:0:0:
93,152,9402,1,8,0:0:0:0:
126,179,9476,1,0,0:0:0:0:
144,217,9550,1,8,0:0:0:0:
146,259,9624,1,0,0:0:0:0:
129,298,9699,1,8,0:0:0:0:
98,326,9773,6,0,L|104:380,1,53.3333333333333,2|8,0:0|0:0,0:0:0:0:
220,268,9921,2,0,L|225:214,1,53.3333333333333,0|8,0:0|0:0,0:0:0:0:
340,328,10069,2,0,L|345:381,1,53.3333333333333,0|8,0:0|0:0,0:0:0:0:
461,269,10217,2,0,L|466:215,1,53.3333333333333,0|8,0:0|0:0,0:0:0:0:
344,164,10365,2,0,L|338:110,1,53.3333333333333,0|8,0:0|0:0,0:0:0:0:
464,68,10513,2,0,L|469:14,1,53.3333333333333,0|8,0:0|0:0,0:0:0:0:
300,20,10661,5,0,0:0:0:0:
270,46,10736,1,8,0:0:0:0:
233,60,10810,1,0,0:0:0:0:
193,58,10884,1,8,0:0:0:0:
157,41,10958,1,0,0:0:0:0:
121,23,11032,1,8,0:0:0:0:
81,21,11106,1,0,0:0:0:0:
44,35,11180,1,8,0:0:0:0:
14,62,11254,1,0,0:0:0:0:
0,98,11328,1,8,0:0:0:0:
13,135,11402,1,0,0:0:0:0:
47,155,11476,1,8,0:0:0:0:
85,147,11550,6,0,P|112:144|140:144,1,53.3333333333333,2|8,0:0|0:0,0:0:0:0:
308,88,11699,2,0,P|298:112|285:135,1,53.3333333333333,0|8,0:0|0:0,0:0:0:0:
248,311,11847,2,0,P|232:290|219:267,1,53.3333333333333,0|8,0:0|0:0,0:0:0:0:
180,53,11995,2,0,P|196:74|210:98,1,53.3333333333333,0|8,0:0|0:0,0:0:0:0:
343,217,12143,2,0,P|317:220|290:220,1,53.3333333333333,0|8,0:0|0:0,0:0:0:0:
119,277,12291,2,0,P|129:252|143:229,1,53.3333333333333,0|8,0:0|0:0,0:0:0:0:
308,88,12439,5,0,0:0:0:0:
344,104,12513,1,8,0:0:0:0:
383,100,12587,1,0,0:0:0:0:
416,79,12661,1,8,0:0:0:0:
435,44,12736,2,0,P|440:20|432:-8,1,53.3333333333333,0|8,0:0|0:0,0:0:0:0:
361,23,12884,1,0,0:0:0:0:
372,62,12958,1,8,0:0:0:0:
383,100,13032,1,0,0:0:0:0:
394,139,13106,1,8,0:0:0:0:
405,177,13180,2,0,L|420:228,1,53.3333333333333,0|8,0:0|0:0,0:0:0:0:
248,312,13328,6,0,P|220:308|192:308,1,53.3333333333333,2|8,0:0|0:0,0:0:0:0:
290,220,13476,2,0,P|318:216|346:216,1,53.3333333333333,0|8,0:0|0:0,0:0:0:0:
236,128,13624,2,0,P|208:124|180:124,1,53.3333333333333,0|8,0:0|0:0,0:0:0:0:
278,36,13773,2,0,P|306:32|334:32,1,53.3333333333333,0|8,0:0|0:0,0:0:0:0:
447,143,13921,2,0,P|419:139|391:139,1,53.3333333333333,0|8,0:0|0:0,0:0:0:0:
278,250,14069,2,0,P|306:246|334:246,1,53.3333333333333,0|8,0:0|0:0,0:0:0:0:
447,357,14217,6,0,P|419:353|391:353,1,53.3333333333333,0|8,0:0|0:0,0:0:0:0:
248,312,14365,2,0,P|219:315|192:322,1,53.3333333333333,0|8,0:0|0:0,0:0:0:0:
48,320,14513,2,0,P|21:330|-2:344,1,53.3333333333333,0|8,0:0|0:0,0:0:0:0:
38,184,14661,2,0,P|66:188|94:188,1,53.3333333333333,0|8,0:0|0:0,0:0:0:0:
237,229,14810,2,0,P|265:225|292:218,1,53.3333333333333,0|8,0:0|0:0,0:0:0:0:
437,221,14958,2,0,P|463:210|487:196,1,53.3333333333333,0|8,0:0|0:0,0:0:0:0:
393,89,15106,5,2,0:0:0:0:
224,152,15254,1,8,0:0:0:0:
212,148,15328,1,8,0:0:0:0:
200,144,15402,1,8,0:0:0:0:
188,140,15476,1,8,0:0:0:0:
176,136,15550,5,8,0:0:0:0:
197,184,15624,1,8,0:0:0:0:
193,237,15699,1,4,0:0:0:0:
165,281,15773,1,4,0:0:0:0:
119,308,15847,1,8,0:0:0:0:
172,299,15921,1,8,0:0:0:0:
225,305,15995,1,4,0:0:0:0:
274,323,16069,1,4,0:0:0:0:
318,354,16143,1,8,0:0:0:0:
367,374,16217,1,8,0:0:0:0:
419,366,16291,1,4,0:0:0:0:
459,332,16365,1,4,0:0:0:0:
475,282,16439,5,4,0:3:0:0:
468,262,16513,1,4,0:3:0:0:
464,241,16587,1,4,0:3:0:0:
464,220,16661,1,4,0:3:0:0:
466,199,16736,1,4,0:3:0:0:
471,178,16810,1,4,0:3:0:0:
480,160,16884,6,0,B|492:132|492:132|484:100|452:80,1,95.9999970703126,2|0,0:0|0:0,0:0:0:0:
300,80,17106,1,0,0:0:0:0:
244,180,17217,1,0,0:0:0:0:
329,258,17328,2,0,L|317:354,1,95.9999970703126
119,308,17550,1,0,0:0:0:0:
80,200,17661,1,0,0:0:0:0:
164,120,17773,6,0,L|152:24,1,95.9999970703126
80,200,17995,1,0,0:0:0:0:
192,232,18106,1,0,0:0:0:0:
276,152,18217,1,0,0:0:0:0:
248,40,18328,1,0,0:0:0:0:
136,8,18439,6,0,B|104:20|104:20|40:8,1,95.9999970703126
164,120,18661,1,0,0:0:0:0:
276,152,18773,1,0,0:0:0:0:
360,72,18884,2,0,B|392:60|392:60|456:72,1,95.9999970703126
276,152,19106,1,0,0:0:0:0:
164,120,19217,1,0,0:0:0:0:
80,200,19328,6,0,P|76:252|92:296,1,95.9999970703126
276,152,19550,2,0,P|280:100|264:56,1,95.9999970703126
192,232,19773,1,0,0:0:0:0:
304,264,19884,1,0,0:0:0:0:
388,184,19995,2,0,L|484:200,1,95.9999970703126
360,348,20217,1,8,0:0:0:0:
336,344,20273,1,8,0:0:0:0:
312,340,20328,1,8,0:0:0:0:
288,336,20384,1,8,0:0:0:0:
265,332,20439,6,0,B|228:328|228:328|172:348,1,95.9999970703126,2|0,0:0|0:0,0:0:0:0:
1,285,20661,1,0,0:0:0:0:
80,200,20773,1,0,0:0:0:0:
192,232,20884,2,0,P|240:236|288:224,1,95.9999970703126
232,116,21106,1,0,0:0:0:0:
192,232,21217,1,0,0:0:0:0:
264,332,21328,6,0,L|360:316,1,95.9999970703126
192,232,21550,2,0,L|96:248,1,95.9999970703126
40,88,21773,1,0,0:0:0:0:
144,40,21884,1,0,0:0:0:0:
232,116,21995,6,0,L|328:100,1,95.9999970703126
144,40,22217,1,0,0:0:0:0:
112,152,22328,1,0,0:0:0:0:
192,232,22439,2,0,P|240:240|284:224,1,95.9999970703126
232,116,22661,1,0,0:0:0:0:
112,152,22773,1,0,0:0:0:0:
144,40,22884,6,0,B|180:28|180:28|240:36,1,95.9999970703126
112,152,23106,2,0,B|76:164|76:164|16:156,1,95.9999970703126
232,116,23328,1,8,0:0:0:0:
243,117,23384,1,8,0:0:0:0:
255,119,23439,1,8,0:0:0:0:
267,121,23495,1,8,0:0:0:0:
279,123,23550,5,8,0:0:0:0:
317,140,23606,1,8,0:0:0:0:
341,174,23661,1,8,0:0:0:0:
346,215,23717,1,8,0:0:0:0:
329,253,23773,1,8,0:0:0:0:
296,278,23828,1,8,0:0:0:0:
255,282,23884,1,8,0:0:0:0:
217,266,23939,1,8,0:0:0:0:
192,232,23995,6,0,B|172:208|172:208|144:200|104:204,1,95.9999970703126,2|0,0:0|0:0,0:0:0:0:
200,360,24217,1,0,0:0:0:0:
324,380,24328,1,0,0:0:0:0:
416,296,24439,2,0,L|512:308,1,95.9999970703126
346,215,24661,1,0,0:0:0:0:
255,282,24773,1,0,0:0:0:0:
180,160,24884,6,0,P|172:112|188:68,1,95.9999970703126
346,215,25106,2,0,P|354:263|338:307,1,95.9999970703126
200,360,25328,1,0,0:0:0:0:
152,244,25439,1,0,0:0:0:0:
264,188,25550,6,0,L|276:92,1,95.9999970703126
88,72,25773,1,0,0:0:0:0:
40,188,25884,1,0,0:0:0:0:
152,244,25995,2,0,L|164:340,1,95.9999970703126
40,188,26217,1,0,0:0:0:0:
180,160,26328,1,0,0:0:0:0:
284,260,26439,6,0,P|328:264|372:240,1,95.9999970703126
208,84,26661,2,0,P|164:80|120:104,1,95.9999970703126
312,188,26884,1,0,0:0:0:0:
344,48,26995,1,0,0:0:0:0:
208,4,27106,2,0,L|112:12,1,95.9999970703126
216,180,27328,1,8,0:0:0:0:
239,181,27384,1,8,0:0:0:0:
263,183,27439,1,8,0:0:0:0:
287,185,27495,1,8,0:0:0:0:
312,188,27550,6,0,B|360:192|360:192|408:180,1,95.9999970703126,2|0,0:0|0:0,0:0:0:0:
208,84,27773,2,0,L|160:80,3,47.9999985351563,0|8|0|8,0:0|0:0|0:0|0:0,0:0:0:0:
128,156,27995,2,0,L|80:152,3,47.9999985351563,0|8|0|8,0:0|0:0|0:0|0:0,0:0:0:0:
168,256,28217,1,0,0:0:0:0:
170,279,28273,1,8,0:0:0:0:
173,303,28328,1,0,0:0:0:0:
176,327,28384,1,8,0:0:0:0:
179,351,28439,6,0,P|228:344|276:352,1,95.9999970703126
500,300,28661,2,0,P|451:307|403:299,1,95.9999970703126
312,188,28884,2,0,L|304:140,3,47.9999985351563,0|8|0|8,0:0|0:0|0:0|0:0,0:0:0:0:
400,100,29106,2,0,L|408:52,3,47.9999985351563,0|8|0|8,0:0|0:0|0:0|0:0,0:0:0:0:
280,20,29328,5,2,0:0:0:0:
80,160,29550,5,8,0:0:0:0:
80,171,29606,1,8,0:0:0:0:
81,183,29661,1,8,0:0:0:0:
82,195,29717,1,8,0:0:0:0:
108,220,29773,1,8,0:0:0:0:
108,231,29828,1,8,0:0:0:0:
107,243,29884,1,4,0:0:0:0:
106,255,29939,1,4,0:0:0:0:
84,280,29995,1,8,0:0:0:0:
104,293,30050,1,8,0:0:0:0:
126,299,30106,1,4,0:0:0:0:
150,299,30161,1,4,0:0:0:0:
173,292,30217,5,8,0:0:0:0:
209,286,30273,1,8,0:0:0:0:
244,292,30328,1,8,0:0:0:0:
275,309,30384,1,8,0:0:0:0:
299,335,30439,1,4,0:0:0:0:
334,341,30495,1,4,0:0:0:0:
369,335,30550,1,4,0:0:0:0:
401,318,30606,1,4,0:0:0:0:
425,292,30661,5,2,0:0:0:0:
425,292,31106,6,0,L|432:244,3,47.9999985351563,10|0|8|0,0:0|0:0|0:0|0:0,0:0:0:0:
312,188,31328,2,0,L|305:140,3,47.9999985351563,8|0|8|0,0:0|0:0|0:0|0:0,0:0:0:0:
180,220,31550,1,8,0:0:0:0:
152,231,31606,1,0,0:0:0:0:
123,229,31661,1,8,0:0:0:0:
97,214,31717,1,0,0:0:0:0:
81,190,31773,1,8,0:0:0:0:
77,160,31828,1,0,0:0:0:0:
88,132,31884,1,8,0:0:0:0:
109,112,31939,1,0,0:0:0:0:
138,104,31995,2,0,P|164:104|188:108,3,47.9999985351563,8|0|8|0,0:0|0:0|0:0|0:0,0:0:0:0:
312,188,32217,2,0,P|337:188|361:184,3,47.9999985351563,8|0|8|0,0:0|0:0|0:0|0:0,0:0:0:0:
480,132,32439,5,8,0:0:0:0:
497,100,32495,1,0,0:0:0:0:
498,65,32550,1,8,0:0:0:0:
482,33,32606,1,0,0:0:0:0:
453,12,32661,2,0,P|432:4|408:0,3,47.9999985351563,8|0|8|0,0:0|0:0|0:0|0:0,0:0:0:0:
304,56,32884,1,8,0:0:0:0:
269,66,32939,1,0,0:0:0:0:
233,67,32995,1,8,0:0:0:0:
199,58,33050,1,0,0:0:0:0:
168,40,33106,2,0,P|148:32|120:28,3,47.9999985351563,8|0|8|0,0:0|0:0|0:0|0:0,0:0:0:0:
77,160,33328,2,0,P|55:161|28:169,3,47.9999985351563,8|0|8|0,0:0|0:0|0:0|0:0,0:0:0:0:
44,307,33550,2,0,P|24:317|3:336,3,47.9999985351563,8|0|8|0,0:0|0:0|0:0|0:0,0:0:0:0:
192,352,33773,5,8,0:0:0:0:
225,364,33828,1,0,0:0:0:0:
261,365,33884,1,8,0:0:0:0:
295,353,33939,1,0,0:0:0:0:
323,332,33995,1,8,0:0:0:0:
351,310,34050,1,0,0:0:0:0:
385,298,34106,1,8,0:0:0:0:
421,299,34161,1,0,0:0:0:0:
454,312,34217,2,0,P|480:320|504:324,3,47.9999985351563,8|0|8|0,0:0|0:0|0:0|0:0,0:0:0:0:
358,178,34439,2,0,P|331:181|308:188,3,47.9999985351563,8|0|8|0,0:0|0:0|0:0|0:0,0:0:0:0:
169,287,34661,5,10,0:0:0:0:
141,298,34717,1,0,0:0:0:0:
111,298,34773,1,8,0:0:0:0:
83,287,34828,1,0,0:0:0:0:
62,267,34884,1,8,0:0:0:0:
49,240,34939,1,0,0:0:0:0:
47,210,34995,1,8,0:0:0:0:
57,182,35050,1,0,0:0:0:0:
76,159,35106,2,0,P|84:140|88:112,3,47.9999985351563,8|0|8|0,0:0|0:0|0:0|0:0,0:0:0:0:
233,67,35328,2,0,P|231:46|223:19,3,47.9999985351563,8|0|8|0,0:0|0:0|0:0|0:0,0:0:0:0:
358,178,35550,5,8,0:0:0:0:
392,187,35606,1,0,0:0:0:0:
428,184,35661,1,8,0:0:0:0:
459,167,35717,1,0,0:0:0:0:
483,140,35773,2,0,P|492:116|488:84,3,47.9999985351563,8|0|8|0,0:0|0:0|0:0|0:0,0:0:0:0:
304,116,35995,1,8,0:0:0:0:
282,144,36050,1,0,0:0:0:0:
276,179,36106,1,8,0:0:0:0:
284,214,36161,1,0,0:0:0:0:
307,242,36217,2,0,P|320:264|328:288,3,47.9999985351563,8|0|8|0,0:0|0:0|0:0|0:0,0:0:0:0:
180,360,36439,6,0,P|156:364|132:372,3,47.9999985351563,8|0|8|0,0:0|0:0|0:0|0:0,0:0:0:0:
109,272,36661,2,0,P|85:267|59:266,3,47.9999985351563,8|0|8|0,0:0|0:0|0:0|0:0,0:0:0:0:
72,165,36884,2,0,P|51:152|27:143,3,47.9999985351563,8|0|8|0,0:0|0:0|0:0|0:0,0:0:0:0:
73,51,37106,2,0,P|57:32|38:15,3,47.9999985351563,8|0|8|0,0:0|0:0|0:0|0:0,0:0:0:0:
172,160,37328,5,8,0:0:0:0:
186,178,37384,1,0,0:0:0:0:
205,193,37439,1,8,0:0:0:0:
227,203,37495,1,0,0:0:0:0:
250,207,37550,1,8,0:0:0:0:
274,206,37606,1,0,0:0:0:0:
297,199,37661,1,8,0:0:0:0:
318,186,37717,1,0,0:0:0:0:
334,169,37773,1,8,0:0:0:0:
350,151,37828,1,0,0:0:0:0:
370,139,37884,1,8,0:0:0:0:
393,131,37939,1,0,0:0:0:0:
417,130,37995,1,8,0:0:0:0:
441,134,38050,1,0,0:0:0:0:
462,144,38106,1,8,0:0:0:0:
481,159,38161,1,0,0:0:0:0:
496,178,38217,6,0,P|504:200|508:232,3,47.9999985351563,10|0|8|0,0:0|0:0|0:0|0:0,0:0:0:0:
428,308,38439,2,0,P|420:329|416:361,3,47.9999985351563,8|0|8|0,0:0|0:0|0:0|0:0,0:0:0:0:
284,288,38661,1,8,0:0:0:0:
249,277,38717,1,0,0:0:0:0:
213,277,38773,1,8,0:0:0:0:
179,287,38828,1,0,0:0:0:0:
149,306,38884,1,8,0:0:0:0:
118,325,38939,1,0,0:0:0:0:
84,335,38995,1,8,0:0:0:0:
48,335,39050,1,0,0:0:0:0:
14,324,39106,2,0,B|8:308|8:308|12:276,3,47.9999985351563,8|0|8|0,0:0|0:0|0:0|0:0,0:0:0:0:
124,224,39328,2,0,B|130:207|130:207|126:175,3,47.9999985351563,8|0|8|0,0:0|0:0|0:0|0:0,0:0:0:0:
28,132,39550,5,8,0:0:0:0:
12,99,39606,1,0,0:0:0:0:
12,63,39661,1,8,0:0:0:0:
27,31,39717,1,0,0:0:0:0:
55,8,39773,2,0,P|80:4|104:4,3,47.9999985351563,8|0|8|0,0:0|0:0|0:0|0:0,0:0:0:0:
200,88,39995,1,8,0:0:0:0:
233,101,40050,1,0,0:0:0:0:
268,104,40106,1,8,0:0:0:0:
303,95,40161,1,0,0:0:0:0:
334,77,40217,2,0,P|356:64|380:56,3,47.9999985351563,8|0|8|0,0:0|0:0|0:0|0:0,0:0:0:0:
416,192,40439,6,0,P|441:189|466:192,3,47.9999985351563,8|0|8|0,0:0|0:0|0:0|0:0,0:0:0:0:
441,330,40661,2,0,P|465:338|486:351,3,47.9999985351563,8|0|8|0,0:0|0:0|0:0|0:0,0:0:0:0:
280,340,40884,1,8,0:0:0:0:
252,327,40939,1,0,0:0:0:0:
233,304,40995,1,8,0:0:0:0:
225,276,41050,1,0,0:0:0:0:
231,246,41106,1,8,0:0:0:0:
248,222,41161,1,0,0:0:0:0:
274,207,41217,1,8,0:0:0:0:
303,205,41273,1,0,0:0:0:0:
331,215,41328,2,0,P|356:220|380:216,3,47.9999985351563,8|0|8|0,0:0|0:0|0:0|0:0,0:0:0:0:
268,104,41550,2,0,P|243:99|219:103,3,47.9999985351563,8|0|8|0,0:0|0:0|0:0|0:0,0:0:0:0:
136,196,41773,5,10,0:0:0:0:
109,208,41828,1,0,0:0:0:0:
79,211,41884,1,8,0:0:0:0:
50,204,41939,1,0,0:0:0:0:
26,187,41995,1,8,0:0:0:0:
9,162,42050,1,0,0:0:0:0:
2,133,42106,1,8,0:0:0:0:
5,103,42161,1,0,0:0:0:0:
19,77,42217,2,0,P|28:52|28:28,3,47.9999985351563,8|0|8|0,0:0|0:0|0:0|0:0,0:0:0:0:
145,149,42439,2,0,P|136:174|136:198,3,47.9999985351563,8|0|8|0,0:0|0:0|0:0|0:0,0:0:0:0:
303,205,42661,5,8,0:0:0:0:
337,216,42717,1,0,0:0:0:0:
373,216,42773,1,8,0:0:0:0:
407,204,42828,1,0,0:0:0:0:
434,181,42884,2,0,P|460:172|484:168,3,47.9999985351563,8|0|8|0,0:0|0:0|0:0|0:0,0:0:0:0:
492,304,43106,1,8,0:0:0:0:
467,329,43161,1,0,0:0:0:0:
433,340,43217,1,8,0:0:0:0:
398,334,43273,1,0,0:0:0:0:
371,311,43328,2,0,P|348:296|324:288,3,47.9999985351563,8|0|8|0,0:0|0:0|0:0|0:0,0:0:0:0:
200,340,43550,5,8,0:0:0:0:
356,120,43773,1,4,0:0:0:0:
356,120,43828,1,4,0:0:0:0:
356,120,43884,2,0,L|360:72,3,47.9999985351563,8|8|4|4,0:0|0:0|0:0|0:0,0:0:0:0:
256,152,44106,1,4,0:0:0:0:
256,152,44161,1,4,0:0:0:0:
256,152,44217,2,0,L|252:200,1,47.9999985351563,8|4,0:0|0:0,0:0:0:0:
160,124,44328,5,4,0:0:0:0:
136,120,44384,1,4,0:0:0:0:
112,116,44439,1,4,0:0:0:0:
88,112,44495,1,4,0:0:0:0:
65,108,44550,2,0,B|72:156|72:156|56:200,1,95.9999970703126,4|4,0:0|0:0,0:0:0:0:
104,324,44773,5,4,0:0:0:0:
152,332,44828,1,4,0:0:0:0:
200,340,44884,1,6,0:0:0:0:
348,216,44995,1,4,0:0:0:0:
300,224,45050,1,4,0:0:0:0:
252,232,45106,1,10,0:0:0:0:
19,91,46217,6,0,P|67:99|111:115,1,95.9999970703126,2|10,0:0|0:0,0:0:0:0:
348,216,46439,1,0,0:0:0:0:
464,144,46550,1,10,0:0:0:0:
284,120,46661,2,0,P|236:128|192:144,1,95.9999970703126,0|10,0:0|0:0,0:0:0:0:
32,252,46884,1,0,0:0:0:0:
32,252,46995,1,10,0:0:0:0:
200,340,47106,6,0,B|236:348|236:348|292:332,1,95.9999970703126,0|10,0:0|0:0,0:0:0:0:
348,216,47328,1,0,0:0:0:0:
191,144,47439,1,10,0:0:0:0:
368,48,47550,2,0,P|416:52|460:72,1,95.9999970703126,0|10,0:0|0:0,0:0:0:0:
280,244,47773,2,0,P|232:240|188:220,1,95.9999970703126,0|10,0:0|0:0,0:0:0:0:
267,41,47995,6,0,B|295:57|295:57|297:90|283:121,1,95.9999970703126,0|10,0:0|0:0,0:0:0:0:
96,169,48217,1,0,0:0:0:0:
20,81,48328,1,10,0:0:0:0:
164,49,48439,1,0,0:0:0:0:
92,173,48550,1,10,0:0:0:0:
168,45,48661,1,0,0:0:0:0:
88,177,48773,1,10,0:0:0:0:
172,41,48884,6,0,P|220:33|268:41,1,95.9999970703126,0|10,0:0|0:0,0:0:0:0:
136,252,49106,2,0,P|88:260|40:252,1,95.9999970703126,0|10,0:0|0:0,0:0:0:0:
224,124,49328,2,0,B|256:116|256:116|320:128,1,95.9999970703126,0|10,0:0|0:0,0:0:0:0:
96,169,49550,2,0,B|64:177|64:177|0:165,1,95.9999970703126,0|10,0:0|0:0,0:0:0:0:
280,244,49773,5,2,0:0:0:0:
416,288,49884,1,10,0:0:0:0:
500,172,49995,2,0,B|508:124|508:124|496:76,1,95.9999970703126,0|10,0:0|0:0,0:0:0:0:
352,244,50217,2,0,B|344:292|344:292|356:340,1,95.9999970703126,0|10,0:0|0:0,0:0:0:0:
424,168,50439,2,0,P|432:120|420:72,1,95.9999970703126,0|10,0:0|0:0,0:0:0:0:
280,244,50661,2,0,P|272:292|284:340,1,95.9999970703126,0|10,0:0|0:0,0:0:0:0:
344,104,50884,2,0,B|347:78|347:78|337:52|303:25,1,95.9999970703126,0|10,0:0|0:0,0:0:0:0:
136,252,51106,2,0,B|132:277|132:277|142:303|176:330,1,95.9999970703126,0|10,0:0|0:0,0:0:0:0:
224,124,51328,5,12,0:0:0:0:
222,112,51384,1,12,0:0:0:0:
220,100,51439,1,12,0:0:0:0:
218,88,51495,1,12,0:0:0:0:
216,76,51550,2,0,P|168:64|124:72,1,95.9999970703126,0|10,0:0|0:0,0:0:0:0:
4,184,51773,1,0,0:0:0:0:
136,252,51884,1,10,0:0:0:0:
280,244,51995,2,0,B|312:240|312:240|372:260,1,95.9999970703126,0|10,0:0|0:0,0:0:0:0:
172,316,52217,2,0,P|124:324|80:300,1,95.9999970703126,0|10,0:0|0:0,0:0:0:0:
244,180,52439,2,0,P|292:172|336:196,1,95.9999970703126,0|10,0:0|0:0,0:0:0:0:
136,252,52661,6,0,B|120:228|120:228|116:200|128:160,1,95.9999970703126,0|10,0:0|0:0,0:0:0:0:
209,0,52884,2,0,B|225:24|225:24|229:52|217:92,1,95.9999970703126,0|10,0:0|0:0,0:0:0:0:
50,172,53106,1,12,0:0:0:0:
38,174,53161,1,12,0:0:0:0:
26,177,53217,1,12,0:0:0:0:
15,180,53273,1,12,0:0:0:0:
4,184,53328,6,0,B|0:216|0:216|8:244|36:268,1,95.9999970703126,0|10,0:0|0:0,0:0:0:0:
280,244,53550,2,0,P|328:236|376:244,1,95.9999970703126,0|10,0:0|0:0,0:0:0:0:
192,100,53773,2,0,P|174:145|143:183,1,95.9999970703126,0|10,0:0|0:0,0:0:0:0:
360,95,53995,2,0,P|329:57|312:11,1,95.9999970703126,0|10,0:0|0:0,0:0:0:0:
140,40,54217,5,6,0:0:0:0:
128,42,54273,1,4,0:0:0:0:
116,45,54328,1,4,0:0:0:0:
105,48,54384,1,4,0:0:0:0:
93,51,54439,2,0,B|88:84|88:84|96:112|96:112|88:148,1,95.9999970703126,0|10,0:0|0:0,0:0:0:0:
360,95,54661,5,6,0:0:0:0:
371,97,54717,1,4,0:0:0:0:
383,100,54773,1,4,0:0:0:0:
394,103,54828,1,4,0:0:0:0:
406,106,54884,2,0,B|411:138|411:138|403:166|403:166|411:202,1,95.9999970703126,0|10,0:0|0:0,0:0:0:0:
136,204,55106,5,6,0:0:0:0:
124,206,55161,1,4,0:0:0:0:
112,209,55217,1,4,0:0:0:0:
101,212,55273,1,4,0:0:0:0:
89,215,55328,2,0,B|83:247|83:247|91:275|91:275|83:311,1,95.9999970703126,0|10,0:0|0:0,0:0:0:0:
356,259,55550,5,6,0:0:0:0:
367,261,55606,1,4,0:0:0:0:
379,264,55661,1,4,0:0:0:0:
390,267,55717,1,4,0:0:0:0:
402,270,55773,2,0,B|407:302|407:302|399:330|399:330|407:366,1,95.9999970703126,0|10,0:0|0:0,0:0:0:0:
200,260,55995,5,6,0:0:0:0:
200,260,56050,1,4,0:0:0:0:
200,260,56106,1,10,0:0:0:0:
328,176,56217,1,6,0:0:0:0:
328,176,56273,1,4,0:0:0:0:
328,176,56328,1,10,0:0:0:0:
160,120,56439,1,6,0:0:0:0:
160,120,56495,1,4,0:0:0:0:
160,120,56550,1,10,0:0:0:0:
368,36,56661,1,6,0:0:0:0:
368,36,56717,1,4,0:0:0:0:
368,36,56773,1,10,0:0:0:0:
128,20,56884,6,0,B|96:16|96:16|68:32|52:76,1,108.000000411987,2|10,0:0|0:0,0:0:0:0:
196,336,57106,2,0,B|228:340|228:340|256:324|272:280,1,108.000000411987,0|10,0:0|0:0,0:0:0:0:
160,120,57328,2,0,P|108:124|72:164,1,108.000000411987,0|10,0:0|0:0,0:0:0:0:
328,176,57550,2,0,P|350:128|333:77,1,108.000000411987,0|10,0:0|0:0,0:0:0:0:
195,293,57773,2,0,P|224:336|277:347,1,108.000000411987,0|10,0:0|0:0,0:0:0:0:
440,132,57995,2,0,B|444:92|444:92|436:64|436:64|440:24,1,108.000000411987,0|10,0:0|0:0,0:0:0:0:
124,216,58217,2,0,B|128:256|128:256|120:284|120:284|124:324,1,108.000000411987,0|10,0:0|0:0,0:0:0:0:
328,176,58439,5,12,0:0:0:0:
328,162,58495,1,12,0:0:0:0:
329,149,58550,1,12,0:0:0:0:
330,135,58606,1,12,0:0:0:0:
331,122,58661,2,0,P|288:104|240:108,1,95.9999970703126,0|10,0:0|0:0,0:0:0:0:
376,244,58884,2,0,P|419:262|467:258,1,95.9999970703126,0|10,0:0|0:0,0:0:0:0:
196,192,59106,1,0,0:0:0:0:
123,322,59217,1,8,0:0:0:0:
123,322,59273,1,8,0:0:0:0:
123,322,59328,5,8,0:0:0:0:
156,308,59384,1,4,0:0:0:0:
192,307,59439,1,4,0:0:0:0:
226,318,59495,1,4,0:0:0:0:
255,339,59550,1,8,0:0:0:0:
283,360,59606,1,4,0:0:0:0:
318,370,59661,1,4,0:0:0:0:
353,369,59717,1,4,0:0:0:0:
387,356,59773,2,0,B|396:320|396:320|392:300|392:300|400:260,1,95.9999970703126,8|4,0:0|0:0,0:0:0:0:
472,128,59995,5,8,0:0:0:0:
439,141,60050,1,8,0:0:0:0:
403,142,60106,1,8,0:0:0:0:
370,129,60161,1,8,0:0:0:0:
344,104,60217,1,4,0:0:0:0:
318,79,60273,1,4,0:0:0:0:
285,65,60328,1,4,0:0:0:0:
249,66,60384,1,4,0:0:0:0:
216,80,60439,6,0,P|168:92|124:80,1,95.9999970703126,2|0,0:0|0:0,0:0:0:0:
340,220,60661,2,0,P|388:208|432:220,1,95.9999970703126
72,196,60884,2,0,B|52:172|52:172|50:138|60:104,1,95.9999970703126,10|0,0:0|0:0,0:0:0:0:
384,288,61106,2,0,B|404:312|404:312|405:345|396:380,1,95.9999970703126
177,104,61328,5,6,0:0:0:0:
318,79,61439,1,0,0:0:0:0:
340,219,61550,1,0,0:0:0:0:
200,248,61661,1,0,0:0:0:0:
177,104,61773,2,0,B|180:68|180:68|192:48|192:48|196:12,1,95.9999970703126,10|0,0:0|0:0,0:0:0:0:
68,148,61995,1,12,0:0:0:0:
68,159,62050,1,12,0:0:0:0:
69,171,62106,1,12,0:0:0:0:
70,183,62161,1,12,0:0:0:0:
71,195,62217,6,0,P|116:212|164:204,1,95.9999970703126,6|0,0:0|0:0,0:0:0:0:
318,79,62439,2,0,P|273:62|225:70,1,95.9999970703126
112,288,62661,1,10,0:0:0:0:
208,332,62773,1,0,0:0:0:0:
300,280,62884,1,0,0:0:0:0:
400,316,62995,1,0,0:0:0:0:
472,192,63106,6,0,P|480:148|464:100,1,95.9999970703126,6|0,0:0|0:0,0:0:0:0:
300,280,63328,2,0,P|292:324|308:372,1,95.9999970703126
376,156,63550,1,14,0:0:0:0:
368,146,63606,1,4,0:0:0:0:
361,136,63661,1,4,0:0:0:0:
354,127,63717,1,4,0:0:0:0:
347,117,63773,1,12,0:0:0:0:
340,108,63828,1,12,0:0:0:0:
332,98,63884,1,12,0:0:0:0:
325,88,63939,1,12,0:0:0:0:
318,79,63995,6,0,B|300:60|300:60|267:55|227:63,1,95.9999970703126,6|0,0:0|0:0,0:0:0:0:
52,208,64217,1,0,0:0:0:0:
136,284,64328,1,0,0:0:0:0:
240,240,64439,2,0,L|336:260,1,95.9999970703126,10|0,0:0|0:0,0:0:0:0:
472,192,64661,2,0,P|424:180|376:188,1,95.9999970703126
290,323,64884,6,0,P|338:335|386:327,1,95.9999970703126,6|0,0:0|0:0,0:0:0:0:
268,148,65106,2,0,L|172:168,1,95.9999970703126
136,284,65328,1,10,0:0:0:0:
290,323,65439,1,0,0:0:0:0:
376,188,65550,2,0,P|384:140|368:92,1,95.9999970703126
130,191,65773,6,0,P|122:239|138:287,1,95.9999970703126,2|0,0:0|0:0,0:0:0:0:
457,323,65995,1,8,0:0:0:0:
472,304,66050,1,8,0:0:0:0:
483,283,66106,1,8,0:0:0:0:
489,260,66161,1,8,0:0:0:0:
489,236,66217,1,8,0:0:0:0:
483,213,66273,1,4,0:0:0:0:
472,191,66328,1,4,0:0:0:0:
460,169,66384,1,4,0:0:0:0:
454,146,66439,1,8,0:0:0:0:
454,122,66495,1,4,0:0:0:0:
460,99,66550,1,4,0:0:0:0:
471,78,66606,1,4,0:0:0:0:
486,59,66661,6,0,L|480:12,3,47.9999985351563,8|4|4|4,0:0|0:0|0:0|0:0,0:0:0:0:
384,112,66884,2,0,B|352:124|352:124|324:114|292:112,1,95.9999970703126,8|4,0:0|0:0,0:0:0:0:
130,191,67106,1,8,0:0:0:0:
112,224,67161,1,8,0:0:0:0:
108,262,67217,1,4,0:0:0:0:
118,299,67273,1,4,0:0:0:0:
142,329,67328,1,4,0:0:0:0:
175,348,67384,1,4,0:0:0:0:
212,354,67439,1,4,0:0:0:0:
249,345,67495,1,4,0:0:0:0:
280,323,67550,6,0,P|336:312|388:324,1,111.999996582031,10|0,0:0|0:0,0:0:0:0:
130,191,67773,2,0,P|74:202|22:190,1,111.999996582031,8|0,0:0|0:0,0:0:0:0:
352,168,67995,2,0,P|408:157|460:169,1,111.999996582031,8|0,0:0|0:0,0:0:0:0:
202,36,68217,2,0,P|146:47|94:35,1,111.999996582031,8|0,0:0|0:0,0:0:0:0:
352,168,68439,5,10,0:0:0:0:
374,201,68495,1,0,0:0:0:0:
382,240,68550,1,0,0:0:0:0:
374,279,68606,1,0,0:0:0:0:
351,312,68661,2,0,P|336:336|328:360,3,54.0000002059937,8|0|0|0,0:0|0:0|0:0|0:0,0:0:0:0:
220,280,68884,1,10,0:0:0:0:
181,266,68939,1,0,0:0:0:0:
141,263,68995,1,0,0:0:0:0:
101,270,69050,1,0,0:0:0:0:
65,287,69106,2,0,P|36:292|12:288,3,54.0000002059937,8|0|0|0,0:0|0:0|0:0|0:0,0:0:0:0:
60,120,69328,6,0,B|76:96|76:96|108:88|152:92,1,103.999995239258,10|0,0:0|0:0,0:0:0:0:
280,324,69550,2,0,B|264:348|264:348|232:356|188:352,1,103.999995239258,8|0,0:0|0:0,0:0:0:0:
268,68,69773,2,0,B|284:44|284:44|316:36|360:40,1,103.999995239258,10|0,0:0|0:0,0:0:0:0:
488,272,69995,2,0,B|472:296|472:296|440:304|396:300,1,103.999995239258,8|0,0:0|0:0,0:0:0:0:
168,180,70217,5,10,0:0:0:0:
145,150,70273,1,0,0:0:0:0:
136,114,70328,1,0,0:0:0:0:
143,77,70384,1,0,0:0:0:0:
164,46,70439,2,0,P|172:24|176:-4,3,50,8|0|0|0,0:0|0:0|0:0|0:0,0:0:0:0:
287,141,70661,1,10,0:0:0:0:
310,171,70717,1,0,0:0:0:0:
319,207,70773,1,0,0:0:0:0:
312,244,70828,1,0,0:0:0:0:
291,275,70884,2,0,P|283:297|279:325,3,50,8|0|0|0,0:0|0:0|0:0|0:0,0:0:0:0:
474,305,71106,5,10,0:0:0:0:
488,272,71161,1,0,0:0:0:0:
487,236,71217,1,0,0:0:0:0:
472,204,71273,1,0,0:0:0:0:
445,180,71328,1,8,0:0:0:0:
417,156,71384,1,0,0:0:0:0:
402,124,71439,1,0,0:0:0:0:
402,88,71495,1,0,0:0:0:0:
416,55,71550,2,0,L|408:8,3,47.9999985351563,10|0|0|0,0:0|0:0|0:0|0:0,0:0:0:0:
295,93,71773,2,0,L|287:140,3,47.9999985351563,8|0|0|0,0:0|0:0|0:0|0:0,0:0:0:0:
164,46,71995,5,10,0:0:0:0:
141,38,72050,1,0,0:0:0:0:
117,34,72106,1,0,0:0:0:0:
93,32,72161,1,0,0:0:0:0:
69,33,72217,2,0,P|44:36|20:40,3,47.9999985351563,8|0|0|0,0:0|0:0|0:0|0:0,0:0:0:0:
177,200,72439,1,10,0:0:0:0:
199,207,72495,1,0,0:0:0:0:
223,211,72550,1,0,0:0:0:0:
247,213,72606,1,0,0:0:0:0:
271,212,72661,2,0,P|296:209|320:205,3,47.9999985351563,8|0|0|0,0:0|0:0|0:0|0:0,0:0:0:0:
168,332,72884,5,8,0:0:0:0:
168,332,72939,1,4,0:0:0:0:
168,332,72995,2,0,L|120:340,1,47.9999985351563,4|4,0:0|0:0,0:0:0:0:
8,236,73106,1,8,0:0:0:0:
8,236,73161,1,4,0:0:0:0:
8,236,73217,2,0,L|56:244,1,47.9999985351563,4|4,0:0|0:0,0:0:0:0:
180,120,73328,1,8,0:0:0:0:
180,120,73384,1,8,0:0:0:0:
180,120,73439,2,0,L|132:128,1,47.9999985351563,4|4,0:0|0:0,0:0:0:0:
22,25,73550,1,4,0:0:0:0:
22,25,73606,1,4,0:0:0:0:
22,25,73661,2,0,L|70:33,1,47.9999985351563,4|4,0:0|0:0,0:0:0:0:
260,80,73773,5,8,0:0:0:0:
340,112,73884,1,8,0:0:0:0:
408,60,73995,1,8,0:0:0:0:
328,24,74106,1,8,0:0:0:0:
276,164,74217,1,8,0:0:0:0:
296,248,74328,1,8,0:0:0:0:
160,204,74439,1,8,0:0:0:0:
180,120,74550,1,8,0:0:0:0:
340,112,74661,6,0,B|368:120|368:120|384:140|384:188,1,95.9999970703126,10|0,0:0|0:0,0:0:0:0:
128,272,74884,2,0,B|100:264|100:264|84:244|84:196,1,95.9999970703126,10|0,0:0|0:0,0:0:0:0:
296,248,75106,2,0,P|299:297|284:340,1,95.9999970703126,10|4,0:0|0:0,0:0:0:0:
180,120,75328,2,0,P|176:70|192:28,1,95.9999970703126,10|4,0:0|0:0,0:0:0:0:
276,164,75550,5,10,0:0:0:0:
160,204,75661,1,4,0:0:0:0:
160,204,75717,1,4,0:0:0:0:
160,204,75773,1,10,0:0:0:0:
104,72,75884,1,4,0:0:0:0:
104,72,75939,1,4,0:0:0:0:
104,72,75995,1,10,0:0:0:0:
276,164,76106,1,4,0:0:0:0:
276,164,76161,1,4,0:0:0:0:
276,164,76217,1,10,0:0:0:0:
220,296,76328,1,4,0:0:0:0:
220,296,76384,1,4,0:0:0:0:
220,296,76439,6,0,P|264:292|312:308,1,95.9999970703126,10|4,0:0|0:0,0:0:0:0:
508,208,76661,2,0,P|464:212|416:196,1,95.9999970703126,10|4,0:0|0:0,0:0:0:0:
183,151,76884,2,0,P|227:147|275:163,1,95.9999970703126,10|4,0:0|0:0,0:0:0:0:
471,63,77106,2,0,P|427:67|379:51,1,95.9999970703126,10|4,0:0|0:0,0:0:0:0:
146,6,77328,5,10,0:0:0:0:
72,152,77439,1,4,0:0:0:0:
72,152,77495,1,4,0:0:0:0:
72,152,77550,1,10,0:0:0:0:
220,224,77661,1,4,0:0:0:0:
220,224,77717,1,4,0:0:0:0:
220,224,77773,1,10,0:0:0:0:
360,140,77884,1,4,0:0:0:0:
360,140,77939,1,4,0:0:0:0:
360,140,77995,1,10,0:0:0:0:
508,208,78106,1,4,0:0:0:0:
508,208,78161,1,4,0:0:0:0:
508,208,78217,6,0,B|504:244|504:244|512:268|512:268|508:304|508:308,1,95.9999970703126,10|4,0:0|0:0,0:0:0:0:
220,224,78439,2,0,B|216:188|216:188|224:164|224:164|220:128|220:124,1,95.9999970703126,10|4,0:0|0:0,0:0:0:0:
359,230,78661,2,0,B|355:266|355:266|363:290|363:290|359:326|359:330,1,95.9999970703126,10|4,0:0|0:0,0:0:0:0:
71,246,78884,2,0,B|67:210|67:210|75:186|75:186|71:150|71:146,1,95.9999970703126,10|4,0:0|0:0,0:0:0:0:
212,48,79106,5,10,0:0:0:0:
296,184,79217,1,4,0:0:0:0:
296,184,79273,1,4,0:0:0:0:
296,184,79328,1,10,0:0:0:0:
200,316,79439,1,4,0:0:0:0:
200,316,79495,1,4,0:0:0:0:
200,316,79550,1,10,0:0:0:0:
116,180,79661,1,4,0:0:0:0:
116,180,79717,1,4,0:0:0:0:
116,180,79773,1,10,0:0:0:0:
212,48,79884,1,4,0:0:0:0:
212,48,79939,1,4,0:0:0:0:
212,48,79995,6,0,P|260:40|308:48,1,95.9999970703126,10|4,0:0|0:0,0:0:0:0:
165,245,80217,2,0,P|117:253|69:245,1,95.9999970703126,10|4,0:0|0:0,0:0:0:0:
408,152,80439,2,0,P|456:144|504:152,1,95.9999970703126,10|4,0:0|0:0,0:0:0:0:
361,349,80661,2,0,P|313:357|265:349,1,95.9999970703126,10|4,0:0|0:0,0:0:0:0:
116,180,80884,5,14,0:0:0:0:
80,183,80939,1,4,0:0:0:0:
53,206,80995,1,4,0:0:0:0:
43,240,81050,1,4,0:0:0:0:
55,274,81106,1,14,0:0:0:0:
83,295,81161,1,4,0:0:0:0:
118,297,81217,1,4,0:0:0:0:
149,278,81273,1,4,0:0:0:0:
165,245,81328,1,14,0:0:0:0:
196,262,81384,1,4,0:0:0:0:
231,268,81439,1,4,0:0:0:0:
266,262,81495,1,4,0:0:0:0:
297,244,81550,1,14,0:0:0:0:
328,226,81606,1,4,0:0:0:0:
363,220,81661,1,4,0:0:0:0:
398,226,81717,1,4,0:0:0:0:
429,244,81773,6,0,B|456:252|456:252|488:240|504:204,1,95.9999970703126,10|4,0:0|0:0,0:0:0:0:
286,9,81995,2,0,B|259:1|259:1|227:13|211:49,1,95.9999970703126,10|4,0:0|0:0,0:0:0:0:
480,140,82217,2,0,P|496:92|488:48,1,95.9999970703126,10|4,0:0|0:0,0:0:0:0:
244,112,82439,2,0,P|228:160|236:204,1,95.9999970703126,10|4,0:0|0:0,0:0:0:0:
416,88,82661,5,10,0:0:0:0:
286,9,82773,1,4,0:0:0:0:
286,9,82828,1,4,0:0:0:0:
286,9,82884,1,10,0:0:0:0:
308,160,82995,1,4,0:0:0:0:
308,160,83050,1,4,0:0:0:0:
308,160,83106,1,10,0:0:0:0:
172,232,83217,1,4,0:0:0:0:
172,232,83273,1,4,0:0:0:0:
172,232,83328,1,10,0:0:0:0:
194,383,83439,1,4,0:0:0:0:
194,383,83495,1,4,0:0:0:0:
194,383,83550,6,0,P|144:376|100:384,1,95.9999970703126,10|4,0:0|0:0,0:0:0:0:
334,245,83773,2,0,P|384:252|428:244,1,95.9999970703126,10|4,0:0|0:0,0:0:0:0:
146,147,83995,2,0,P|96:140|52:148,1,95.9999970703126,10|4,0:0|0:0,0:0:0:0:
286,9,84217,2,0,P|336:16|380:8,1,95.9999970703126,10|4,0:0|0:0,0:0:0:0:
308,160,84439,5,10,0:0:0:0:
212,76,84550,1,4,0:0:0:0:
212,76,84606,1,4,0:0:0:0:
212,76,84661,1,10,0:0:0:0:
252,240,84773,1,4,0:0:0:0:
252,240,84828,1,4,0:0:0:0:
252,240,84884,1,10,0:0:0:0:
146,147,84995,1,4,0:3:0:0:
146,147,85050,1,4,0:3:0:0:
146,147,85106,1,10,0:3:0:0:
308,160,85217,1,4,0:3:0:0:
308,160,85273,1,4,0:3:0:0:
308,160,85328,6,0,B|356:156|356:156|400:132,1,95.9999970703126,10|4,0:0|0:0,0:0:0:0:
120,72,85550,2,0,B|72:76|72:76|28:100,1,95.9999970703126,10|4,0:0|0:0,0:0:0:0:
324,248,85773,2,0,P|372:248|416:228,1,95.9999970703126,10|4,0:0|0:0,0:0:0:0:
146,147,85995,2,0,P|98:147|54:167,1,95.9999970703126,10|4,0:0|0:0,0:0:0:0:
340,340,86217,5,10,0:0:0:0:
480,180,86328,1,4,0:0:0:0:
480,180,86384,1,4,0:0:0:0:
480,180,86439,1,10,0:0:0:0:
308,160,86550,1,4,0:0:0:0:
308,160,86606,1,4,0:0:0:0:
308,160,86661,1,10,0:0:0:0:
464,88,86773,1,4,0:0:0:0:
464,88,86828,1,4,0:0:0:0:
464,88,86884,1,10,0:0:0:0:
324,248,86995,1,4,0:0:0:0:
324,248,87050,1,4,0:0:0:0:
324,248,87106,6,0,P|276:256|232:276,1,95.9999970703126,10|4,0:0|0:0,0:0:0:0:
112,348,87328,1,4,0:0:0:0:
88,345,87384,1,4,0:0:0:0:
64,340,87439,1,4,0:0:0:0:
42,331,87495,1,4,0:0:0:0:
21,320,87550,2,0,P|15:271|0:228,1,95.9999970703126,8|4,0:0|0:0,0:0:0:0:
132,72,87773,1,8,0:0:0:0:
156,75,87828,1,8,0:0:0:0:
180,80,87884,1,8,0:0:0:0:
202,89,87939,1,8,0:0:0:0:
223,100,87995,2,0,P|228:148|244:192,1,95.9999970703126,8|4,0:0|0:0,0:0:0:0:
392,296,88217,5,8,0:0:0:0:
391,307,88273,1,8,0:0:0:0:
390,319,88328,1,4,0:0:0:0:
389,331,88384,1,4,0:0:0:0:
388,343,88439,2,0,P|344:332|292:328,1,95.9999970703126,8|4,0:0|0:0,0:0:0:0:
156,200,88661,1,8,0:0:0:0:
155,189,88717,1,8,0:0:0:0:
154,177,88773,1,4,0:0:0:0:
153,165,88828,1,4,0:0:0:0:
152,152,88884,2,0,P|199:148|246:136,1,95.9999970703126,10|4,0:0|0:0,0:0:0:0:
376,52,89106,5,4,0:0:0:0:
395,38,89161,1,4,0:0:0:0:
419,34,89217,1,4,0:0:0:0:
442,39,89273,1,4,0:0:0:0:
462,53,89328,1,14,0:0:0:0:
475,73,89384,1,4,0:0:0:0:
479,96,89439,1,4,0:0:0:0:
474,119,89495,1,4,0:0:0:0:
460,139,89550,1,4,0:0:0:0:
440,152,89606,1,4,0:0:0:0:
417,159,89661,1,4,0:0:0:0:
393,158,89717,1,4,0:0:0:0:
370,151,89773,5,6,0:0:0:0:
351,138,89828,1,4,0:0:0:0:
335,119,89884,1,4,0:0:0:0:
319,100,89939,1,4,0:0:0:0:
300,87,89995,1,4,0:0:0:0:
277,79,90050,1,4,0:0:0:0:
253,79,90106,1,4,0:0:0:0:
230,86,90161,1,4,0:0:0:0:
210,99,90217,2,0,P|192:112|168:120,3,47.9999985351563,14|4|4|4,0:0|0:0|0:0|0:0,0:0:0:0:
96,56,90439,2,0,P|77:43|53:35,3,47.9999985351563,4|4|4|4,0:0|0:0|0:0|0:0,0:0:0:0:
0,128,90661,5,6,0:0:0:0:
200,216,90884,2,0,L|248:208,3,47.9999985351563,6|4|4|4,0:0|0:0|0:0|0:0,0:0:0:0:
236,300,91106,2,0,L|284:292,3,47.9999985351563,6|4|4|4,0:0|0:0|0:0|0:0,0:0:0:0:
120,320,91328,1,8,0:0:0:0:
108,318,91384,1,8,0:0:0:0:
96,316,91439,1,8,0:0:0:0:
84,314,91495,1,8,0:0:0:0:
72,312,91550,6,0,B|64:264|64:264|80:220,1,95.9999970703126,2|4,0:0|0:0,0:0:0:0:
176,140,91773,1,8,0:0:0:0:
199,135,91828,1,8,0:0:0:0:
223,138,91884,1,8,0:0:0:0:
244,148,91939,1,8,0:0:0:0:
261,165,91995,1,8,0:0:0:0:
278,181,92050,1,8,0:0:0:0:
299,191,92106,1,8,0:0:0:0:
323,194,92161,1,8,0:0:0:0:
347,190,92217,2,0,B|376:176|376:176|392:144|376:96,1,108.000000411987,8|8,0:0|0:0,0:0:0:0:
108,88,92439,6,0,P|92:132|104:188,1,100,2|4,0:0|0:0,0:0:0:0:
236,300,92661,1,0,0:0:0:0:
269,316,92717,1,8,0:0:0:0:
306,319,92773,1,0,0:0:0:0:
342,308,92828,1,8,0:0:0:0:
370,285,92884,1,0,0:0:0:0:
398,261,92939,1,8,0:0:0:0:
434,250,92995,1,0,0:0:0:0:
471,253,93050,1,8,0:0:0:0:
505,270,93106,2,0,P|512:292|512:320,3,50,4|8|0|8,0:0|0:0|0:0|0:0,0:0:0:0:
347,190,93328,2,0,P|340:168|340:140,3,50,4|8|0|8,0:0|0:0|0:0|0:0,0:0:0:0:
208,232,93550,5,0,0:0:0:0:
178,254,93606,1,8,0:0:0:0:
163,287,93661,1,0,0:0:0:0:
166,324,93717,1,8,0:0:0:0:
186,355,93773,1,0,0:0:0:0:
219,372,93828,1,8,0:0:0:0:
256,371,93884,1,0,0:0:0:0:
288,351,93939,1,8,0:0:0:0:
306,319,93995,2,0,P|312:292|308:264,3,50,4|8|0|8,0:0|0:0|0:0|0:0,0:0:0:0:
261,165,94217,2,0,P|255:137|259:109,3,50,4|8|0|8,0:0|0:0|0:0|0:0,0:0:0:0:
364,64,94439,5,0,0:0:0:0:
385,94,94495,1,8,0:0:0:0:
389,131,94550,1,0,0:0:0:0:
375,166,94606,1,8,0:0:0:0:
347,190,94661,1,0,0:0:0:0:
318,214,94717,1,8,0:0:0:0:
305,248,94773,1,0,0:0:0:0:
309,285,94828,1,8,0:0:0:0:
330,316,94884,2,0,P|356:324|380:324,3,50,4|8|0|8,0:0|0:0|0:0|0:0,0:0:0:0:
456,240,95106,2,0,P|430:232|406:232,3,50,4|8|0|8,0:0|0:0|0:0|0:0,0:0:0:0:
236,300,95328,5,0,0:0:0:0:
200,311,95384,1,8,0:0:0:0:
164,305,95439,1,0,0:0:0:0:
135,282,95495,1,8,0:0:0:0:
120,248,95550,1,0,0:0:0:0:
105,214,95606,1,8,0:0:0:0:
75,191,95661,1,0,0:0:0:0:
39,185,95717,1,8,0:0:0:0:
4,196,95773,2,0,B|0:248|0:248|28:292,1,100,4|4,0:0|0:0,0:0:0:0:
268,168,95995,6,0,P|256:116|216:80,1,108.000000411987,6|4,0:0|0:0,0:0:0:0:
236,300,96217,1,0,0:0:0:0:
261,314,96273,1,8,0:0:0:0:
291,321,96328,1,0,0:0:0:0:
320,318,96384,1,8,0:0:0:0:
348,307,96439,1,0,0:0:0:0:
371,288,96495,1,8,0:0:0:0:
392,268,96550,1,0,0:0:0:0:
422,262,96606,1,8,0:0:0:0:
449,273,96661,1,0,0:0:0:0:
467,297,96717,1,8,0:0:0:0:
469,327,96773,1,0,0:0:0:0:
455,353,96828,1,8,0:0:0:0:
430,368,96884,5,0,0:0:0:0:
400,367,96939,1,8,0:0:0:0:
374,352,96995,1,0,0:0:0:0:
355,329,97050,1,8,0:0:0:0:
346,300,97106,1,0,0:0:0:0:
348,271,97161,1,8,0:0:0:0:
360,243,97217,1,0,0:0:0:0:
371,215,97273,1,8,0:0:0:0:
373,185,97328,2,0,P|372:160|364:136,3,50,0|8|0|8,0:0|0:0|0:0|0:0,0:0:0:0:
227,251,97550,2,0,P|228:276|236:300,3,50,0|8|0|8,0:0|0:0|0:0|0:0,0:0:0:0:
272,144,97773,5,0,0:0:0:0:
287,110,97828,1,8,0:0:0:0:
283,73,97884,1,0,0:0:0:0:
261,43,97939,1,8,0:0:0:0:
228,28,97995,2,0,P|180:36|128:24,1,100,4|4,0:0|0:0,0:0:0:0:
373,185,98217,2,0,P|421:177|473:189,1,100,4|4,0:0|0:0,0:0:0:0:
147,165,98439,2,0,P|98:172|46:160,1,100,4|4,0:0|0:0,0:0:0:0:
291,321,98661,2,0,P|339:313|391:325,1,100,4|4,0:0|0:0,0:0:0:0:
144,356,98884,5,4,0:0:0:0:
107,360,98939,1,8,0:0:0:0:
74,344,98995,1,0,0:0:0:0:
55,312,99050,1,8,0:0:0:0:
56,275,99106,2,0,P|60:248|56:224,3,50,4|8|0|8,0:0|0:0|0:0|0:0,0:0:0:0:
216,324,99328,2,0,P|212:351|216:375,3,50,0|8|0|8,0:0|0:0|0:0|0:0,0:0:0:0:
359,277,99550,5,2,0:0:0:0:
374,257,99606,1,8,0:0:0:0:
382,233,99661,1,0,0:0:0:0:
382,208,99717,1,8,0:0:0:0:
373,185,99773,1,0,0:0:0:0:
357,166,99828,1,8,0:0:0:0:
336,153,99884,1,0,0:0:0:0:
314,140,99939,1,8,0:0:0:0:
298,120,99995,1,0,0:0:0:0:
290,97,100050,1,8,0:0:0:0:
290,72,100106,1,0,0:0:0:0:
298,49,100161,1,8,0:0:0:0:
313,29,100217,2,0,P|360:12|408:24,1,100,4|4,0:0|0:0,0:0:0:0:
312,220,100439,5,0,0:0:0:0:
289,231,100495,1,8,0:0:0:0:
265,235,100550,1,0,0:0:0:0:
240,234,100606,1,8,0:0:0:0:
216,225,100661,1,0,0:0:0:0:
196,211,100717,1,8,0:0:0:0:
180,192,100773,1,0,0:0:0:0:
163,172,100828,1,8,0:0:0:0:
143,158,100884,1,0,0:0:0:0:
119,150,100939,1,8,0:0:0:0:
95,148,100995,1,0,0:0:0:0:
70,153,101050,1,8,0:0:0:0:
48,164,101106,2,0,P|32:212|52:256,1,100,4|4,0:0|0:0,0:0:0:0:
220,360,101328,5,0,0:0:0:0:
242,371,101384,1,8,0:0:0:0:
266,377,101439,1,0,0:0:0:0:
291,377,101495,1,8,0:0:0:0:
315,371,101550,1,0,0:0:0:0:
337,359,101606,1,8,0:0:0:0:
356,343,101661,1,0,0:0:0:0:
374,326,101717,1,8,0:0:0:0:
396,315,101773,1,0,0:0:0:0:
421,309,101828,1,8,0:0:0:0:
446,309,101884,1,0,0:0:0:0:
470,315,101939,1,8,0:0:0:0:
492,326,101995,2,0,P|508:352|512:372,3,50,4|8|0|8,0:0|0:0|0:0|0:0,0:0:0:0:
392,244,102217,2,0,P|376:218|372:198,3,50,0|8|0|8,0:0|0:0|0:0|0:0,0:0:0:0:
233,117,102439,5,4,0:0:0:0:
196,109,102495,1,8,0:0:0:0:
159,111,102550,1,0,0:0:0:0:
124,125,102606,1,8,0:0:0:0:
95,148,102661,2,0,P|68:160|44:164,3,50,4|8|0|8,0:0|0:0|0:0|0:0,0:0:0:0:
184,224,102884,2,0,P|211:212|235:208,3,50,0|8|0|8,0:0|0:0|0:0|0:0,0:0:0:0:
96,316,103106,5,2,0:0:0:0:
83,319,103161,1,4,0:0:0:0:
71,322,103217,1,4,0:0:0:0:
59,325,103273,1,4,0:0:0:0:
47,328,103328,2,0,P|36:280|16:232,1,100,8|4,0:0|0:0,0:0:0:0:
124,125,103550,1,8,0:0:0:0:
134,102,103606,1,8,0:0:0:0:
136,77,103661,1,4,0:0:0:0:
130,53,103717,1,4,0:0:0:0:
116,32,103773,2,0,B|96:24|96:24|68:20,2,50,8|8|8,0:0|0:0|0:0,0:0:0:0:
272,120,103995,5,4,0:0:0:0:
295,128,104050,1,4,0:0:0:0:
320,132,104106,1,8,0:0:0:0:
345,130,104161,1,8,0:0:0:0:
369,124,104217,1,4,0:0:0:0:
392,114,104273,1,4,0:0:0:0:
412,99,104328,2,0,B|408:136|408:136|424:200,1,100,4|8,0:0|0:0,0:0:0:0:
432,220,104495,1,8,0:0:0:0:
408,211,104550,1,4,0:0:0:0:
383,208,104606,1,4,0:0:0:0:
358,209,104661,1,8,0:0:0:0:
334,216,104717,1,8,0:0:0:0:
312,227,104773,1,4,0:0:0:0:
293,242,104828,1,4,0:0:0:0:
276,260,104884,5,8,0:0:0:0:
168,216,104995,1,4,0:0:0:0:
160,220,105050,1,4,0:0:0:0:
152,224,105106,1,8,0:0:0:0:
130,211,105161,1,8,0:0:0:0:
105,207,105217,1,4,0:0:0:0:
81,213,105273,1,4,0:0:0:0:
60,226,105328,1,8,0:0:0:0:
45,246,105384,1,8,0:0:0:0:
38,270,105439,1,4,0:0:0:0:
40,295,105495,1,4,0:0:0:0:
51,317,105550,1,8,0:0:0:0:
69,334,105606,1,8,0:0:0:0:
92,344,105661,1,4,0:0:0:0:
117,345,105717,1,4,0:0:0:0:
140,337,105773,6,0,B|176:328|176:328|240:340,1,100,8|4,0:0|0:0,0:0:0:0:
352,372,105995,1,8,0:0:0:0:
388,377,106050,1,8,0:0:0:0:
424,368,106106,1,4,0:0:0:0:
454,345,106161,1,4,0:0:0:0:
471,312,106217,2,0,B|480:264|480:264|460:224|460:224|488:184|464:120,1,200,10|4,0:0|0:0,0:0:0:0:
60,72,106661,5,0,0:0:0:0:
82,100,106717,1,8,0:0:0:0:
111,120,106773,1,0,0:0:0:0:
146,131,106828,1,8,0:0:0:0:
181,131,106884,1,0,0:0:0:0:
216,121,106939,1,8,0:0:0:0:
246,101,106995,1,0,0:0:0:0:
275,81,107050,1,8,0:0:0:0:
310,71,107106,1,0,0:0:0:0:
346,71,107161,1,8,0:0:0:0:
380,82,107217,1,0,0:0:0:0:
409,102,107273,1,8,0:0:0:0:
432,130,107328,2,0,P|436:156|436:180,3,50,4|8|0|8,0:0|0:0|0:0|0:0,0:0:0:0:
368,268,107550,2,0,P|364:293|364:317,3,50,4|8|0|8,0:0|0:0|0:0|0:0,0:0:0:0:
248,364,107773,5,0,0:0:0:0:
214,370,107828,1,8,0:0:0:0:
180,361,107884,1,0,0:0:0:0:
155,337,107939,1,8,0:0:0:0:
143,305,107995,1,0,0:0:0:0:
147,271,108050,1,8,0:0:0:0:
166,242,108106,1,0,0:0:0:0:
197,225,108161,1,8,0:0:0:0:
232,224,108217,2,0,P|256:228|284:224,3,50,4|8|0|8,0:0|0:0|0:0|0:0,0:0:0:0:
181,131,108439,2,0,P|157:127|129:131,3,50,4|8|0|8,0:0|0:0|0:0|0:0,0:0:0:0:
37,217,108661,5,0,0:0:0:0:
61,244,108717,1,8,0:0:0:0:
95,259,108773,1,0,0:0:0:0:
132,259,108828,1,8,0:0:0:0:
166,242,108884,1,0,0:0:0:0:
197,225,108939,1,8,0:0:0:0:
232,224,108995,1,0,0:0:0:0:
264,240,109050,1,8,0:0:0:0:
289,268,109106,2,0,P|296:292|296:316,3,50,4|8|0|8,0:0|0:0|0:0|0:0,0:0:0:0:
396,204,109328,2,0,P|389:180|389:156,3,50,4|8|0|8,0:0|0:0|0:0|0:0,0:0:0:0:
288,72,109550,5,0,0:0:0:0:
254,55,109606,1,8,0:0:0:0:
217,51,109661,1,0,0:0:0:0:
181,61,109717,1,8,0:0:0:0:
151,84,109773,1,0,0:0:0:0:
121,106,109828,1,8,0:0:0:0:
85,116,109884,1,0,0:0:0:0:
48,112,109939,1,8,0:0:0:0:
14,96,109995,2,0,P|4:50|20:0,1,100,4|4,0:0|0:0,0:0:0:0:
224,152,110217,6,0,P|233:197|218:248,1,100,2|4,0:0|0:0,0:0:0:0:
84,336,110439,1,0,0:0:0:0:
59,331,110495,1,8,0:0:0:0:
37,320,110550,1,0,0:0:0:0:
19,303,110606,1,8,0:0:0:0:
6,281,110661,1,0,0:0:0:0:
0,257,110717,1,8,0:0:0:0:
1,232,110773,1,0,0:0:0:0:
9,209,110828,1,8,0:0:0:0:
23,188,110884,1,0,0:0:0:0:
43,173,110939,1,8,0:0:0:0:
66,163,110995,1,0,0:0:0:0:
91,161,111050,1,8,0:0:0:0:
115,166,111106,5,0,0:0:0:0:
137,177,111161,1,8,0:0:0:0:
155,194,111217,1,0,0:0:0:0:
171,212,111273,1,8,0:0:0:0:
193,225,111328,1,0,0:0:0:0:
217,230,111384,1,8,0:0:0:0:
242,227,111439,1,0,0:0:0:0:
264,217,111495,1,8,0:0:0:0:
283,200,111550,1,0,0:0:0:0:
295,178,111606,1,8,0:0:0:0:
300,154,111661,1,0,0:0:0:0:
297,129,111717,1,8,0:0:0:0:
286,107,111773,1,0,0:0:0:0:
269,89,111828,1,8,0:0:0:0:
247,77,111884,1,0,0:0:0:0:
223,72,111939,1,8,0:0:0:0:
198,75,111995,2,0,P|172:66|148:64,3,50,0|8|0|8,0:0|0:0|0:0|0:0,0:0:0:0:
52,83,112217,6,0,B|32:103|32:103|24:135|44:175,1,100,4|4,0:0|0:0,0:0:0:0:
255,306,112439,2,0,B|275:286|275:286|283:254|263:214,1,100,4|4,0:0|0:0,0:0:0:0:
88,252,112661,2,0,B|78:278|78:278|84:310|119:338,1,100,4|4,0:0|0:0,0:0:0:0:
364,176,112884,2,0,B|373:149|373:149|367:117|332:89,1,100,4|4,0:0|0:0,0:0:0:0:
204,360,113106,6,0,P|248:380|300:364,1,100,4|4,0:0|0:0,0:0:0:0:
221,204,113328,2,0,L|169:212,3,50,4|8|0|8,0:0|0:0|0:0|0:0,0:0:0:0:
160,124,113550,2,0,L|108:116,3,50,0|8|0|8,0:0|0:0|0:0|0:0,0:0:0:0:
247,77,113773,5,2,0:0:0:0:
278,66,113828,1,8,0:0:0:0:
311,68,113884,1,0,0:0:0:0:
341,82,113939,1,8,0:0:0:0:
364,106,113995,1,0,0:0:0:0:
376,137,114050,1,8,0:0:0:0:
375,170,114106,1,0,0:0:0:0:
362,200,114161,1,8,0:0:0:0:
339,224,114217,1,0,0:0:0:0:
309,237,114273,1,8,0:0:0:0:
275,238,114328,1,0,0:0:0:0:
244,226,114384,1,8,0:0:0:0:
221,204,114439,2,0,B|200:180|200:180|168:176|132:184,1,100,4|4,0:0|0:0,0:0:0:0:
28,276,114661,5,0,0:0:0:0:
23,308,114717,1,8,0:0:0:0:
31,340,114773,1,0,0:0:0:0:
52,366,114828,1,8,0:0:0:0:
81,382,114884,1,0,0:0:0:0:
114,384,114939,1,8,0:0:0:0:
145,374,114995,1,0,0:0:0:0:
169,351,115050,1,8,0:0:0:0:
183,321,115106,1,0,0:0:0:0:
183,288,115161,1,8,0:0:0:0:
170,258,115217,1,0,0:0:0:0:
146,235,115273,1,8,0:0:0:0:
115,223,115328,2,0,B|104:176|104:176|120:128,1,100,4|4,0:0|0:0,0:0:0:0:
292,152,115550,5,0,0:0:0:0:
328,168,115606,1,8,0:0:0:0:
368,168,115661,1,0,0:0:0:0:
404,152,115717,1,8,0:0:0:0:
424,116,115773,1,0,0:0:0:0:
416,76,115828,1,8,0:0:0:0:
380,56,115884,1,0,0:0:0:0:
340,64,115939,1,8,0:0:0:0:
324,100,115995,1,0,0:0:0:0:
348,132,116050,1,8,0:0:0:0:
368,168,116106,1,0,0:0:0:0:
364,208,116161,1,8,0:0:0:0:
340,240,116217,2,0,P|296:252|244:236,1,100,4|4,0:0|0:0,0:0:0:0:
180,120,116439,5,8,0:0:0:0:
178,107,116495,1,8,0:0:0:0:
176,95,116550,1,4,0:0:0:0:
174,82,116606,1,4,0:0:0:0:
172,70,116661,2,0,P|148:60|124:56,1,50,4|4,0:0|0:0,0:0:0:0:
48,68,116773,5,8,0:0:0:0:
34,88,116828,1,8,0:0:0:0:
32,113,116884,1,4,0:0:0:0:
41,136,116939,1,4,0:0:0:0:
60,152,116995,2,0,P|86:161|104:176,1,50,4|4,0:0|0:0,0:0:0:0:
167,249,117106,5,8,0:0:0:0:
193,275,117161,1,8,0:0:0:0:
228,287,117217,1,4,0:0:0:0:
265,283,117273,1,4,0:0:0:0:
296,263,117328,6,0,P|320:246|344:238,3,50,2|8|0|8,0:0|0:0|0:0|0:0,0:0:0:0:
440,252,117550,2,0,P|463:243|483:228,3,50,0|8|0|8,0:0|0:0|0:0|0:0,0:0:0:0:
492,116,117773,1,0,0:0:0:0:
489,91,117828,1,8,0:0:0:0:
477,69,117884,1,0,0:0:0:0:
458,53,117939,1,8,0:0:0:0:
434,46,117995,1,0,0:0:0:0:
409,48,118050,1,8,0:0:0:0:
387,59,118106,1,0,0:0:0:0:
370,77,118161,1,8,0:0:0:0:
362,101,118217,5,0,0:0:0:0:
363,125,118273,1,8,0:0:0:0:
373,148,118328,1,0,0:0:0:0:
387,169,118384,1,8,0:0:0:0:
395,192,118439,1,0,0:0:0:0:
395,217,118495,1,8,0:0:0:0:
389,241,118550,1,0,0:0:0:0:
376,263,118606,1,8,0:0:0:0:
358,280,118661,1,0,0:0:0:0:
335,291,118717,1,8,0:0:0:0:
311,295,118773,1,0,0:0:0:0:
286,293,118828,1,8,0:0:0:0:
264,284,118884,2,0,P|240:272|212:268,3,50,0|8|0|8,0:0|0:0|0:0|0:0,0:0:0:0:
120,228,119106,6,0,B|100:200|100:200|112:168|108:128,1,100,2|4,0:0|0:0,0:0:0:0:
196,44,119328,1,8,0:0:0:0:
208,42,119383,1,8,0:0:0:0:
220,40,119439,1,4,0:0:0:0:
233,38,119494,1,4,0:0:0:0:
260,52,119550,1,4,0:0:0:0:
272,50,119605,1,4,0:0:0:0:
284,48,119661,1,4,0:0:0:0:
297,46,119716,1,4,0:0:0:0:
324,60,119773,1,8,0:0:0:0:
336,58,119828,1,8,0:0:0:0:
348,56,119884,1,4,0:0:0:0:
361,54,119939,1,4,0:0:0:0:
388,68,119995,6,0,L|448:56,1,50,8|8,0:0|0:0,0:0:0:0:
440,140,120106,2,0,L|500:128,1,50,4|4,0:0|0:0,0:0:0:0:
416,224,120217,1,4,0:0:0:0:
415,236,120272,1,4,0:0:0:0:
414,248,120328,1,4,0:0:0:0:
413,261,120383,1,4,0:0:0:0:
388,280,120439,1,8,0:0:0:0:
387,292,120494,1,8,0:0:0:0:
386,304,120550,1,4,0:0:0:0:
385,317,120605,1,4,0:0:0:0:
360,336,120661,1,4,0:0:0:0:
359,348,120716,1,4,0:0:0:0:
358,360,120772,1,4,0:0:0:0:
357,373,120827,1,4,0:0:0:0:
357,373,124439,5,10,0:0:0:0:
332,355,124494,1,0,0:0:0:0:
304,346,124550,1,0,0:0:0:0:
274,344,124605,1,0,0:0:0:0:
245,351,124661,1,2,0:0:0:0:
215,357,124716,1,0,0:0:0:0:
186,356,124772,1,0,0:0:0:0:
157,346,124827,1,0,0:0:0:0:
133,329,124884,1,8,0:0:0:0:
114,300,124939,1,0,0:0:0:0:
111,265,124995,1,0,0:0:0:0:
124,233,125050,1,0,0:0:0:0:
150,210,125106,1,2,0:0:0:0:
183,201,125161,1,0,0:0:0:0:
217,208,125217,1,0,0:0:0:0:
244,229,125272,1,0,0:0:0:0:
259,261,125328,6,0,L|264:308,3,47.9999985351563,8|0|0|0,0:0|0:0|0:0|0:0,0:0:0:0:
372,228,125550,2,0,L|367:274,3,47.9999985351563,2|0|0|0,0:0|0:0|0:0|0:0,0:0:0:0:
432,136,125773,1,8,0:0:0:0:
439,105,125828,1,0,0:0:0:0:
431,74,125884,1,0,0:0:0:0:
411,49,125939,1,0,0:0:0:0:
382,36,125995,1,2,0:0:0:0:
351,37,126050,1,0,0:0:0:0:
323,52,126106,1,0,0:0:0:0:
296,69,126161,1,0,0:0:0:0:
265,78,126217,5,8,0:0:0:0:
233,79,126272,1,0,0:0:0:0:
202,72,126328,1,0,0:0:0:0:
174,57,126383,1,0,0:0:0:0:
151,35,126439,2,0,P|132:20|108:8,3,47.9999985351563,2|0|0|0,0:0|0:0|0:0|0:0,0:0:0:0:
24,52,126661,1,8,0:0:0:0:
24,85,126716,1,0,0:0:0:0:
40,114,126772,1,0,0:0:0:0:
68,132,126827,1,0,0:0:0:0:
101,134,126884,2,0,P|128:132|148:136,3,47.9999985351563,2|0|0|0,0:0|0:0|0:0|0:0,0:0:0:0:
228,200,127106,5,8,0:0:0:0:
247,227,127161,1,0,0:0:0:0:
252,260,127217,1,0,0:0:0:0:
244,292,127272,1,0,0:0:0:0:
223,318,127328,1,2,0:0:0:0:
193,332,127383,1,0,0:0:0:0:
160,333,127439,1,0,0:0:0:0:
129,319,127494,1,0,0:0:0:0:
107,295,127550,2,0,P|92:276|68:264,3,47.9999985351563,8|0|0|0,0:0|0:0|0:0|0:0,0:0:0:0:
121,177,127773,2,0,P|114:153|98:132,3,47.9999985351563,2|0|0|0,0:0|0:0|0:0|0:0,0:0:0:0:
224,124,127995,5,10,0:0:0:0:
259,126,128050,1,0,0:0:0:0:
290,144,128106,1,0,0:0:0:0:
310,173,128161,1,0,0:0:0:0:
316,208,128217,1,2,0:0:0:0:
321,243,128272,1,0,0:0:0:0:
341,272,128328,1,0,0:0:0:0:
372,290,128383,1,0,0:0:0:0:
408,292,128439,2,0,P|432:288|452:276,3,47.9999985351563,8|0|0|0,0:0|0:0|0:0|0:0,0:0:0:0:
316,208,128661,2,0,P|292:212|272:224,3,47.9999985351563,2|0|0|0,0:0|0:0|0:0|0:0,0:0:0:0:
142,287,128884,5,8,0:0:0:0:
107,295,128939,1,0,0:0:0:0:
72,289,128995,1,0,0:0:0:0:
42,269,129050,1,0,0:0:0:0:
22,240,129106,2,0,P|14:215|2:195,3,47.9999985351563,2|0|0|0,0:0|0:0|0:0|0:0,0:0:0:0:
121,177,129328,1,8,0:0:0:0:
143,149,129383,1,0,0:0:0:0:
153,114,129439,1,0,0:0:0:0:
148,79,129494,1,0,0:0:0:0:
129,49,129550,2,0,P|112:36|84:28,3,47.9999985351563,2|0|0|0,0:0|0:0|0:0|0:0,0:0:0:0:
224,124,129773,6,0,P|249:131|273:131,3,47.9999985351563,8|0|0|0,0:0|0:0|0:0|0:0,0:0:0:0:
368,88,129995,2,0,P|393:81|417:81,3,47.9999985351563,2|0|0|0,0:0|0:0|0:0|0:0,0:0:0:0:
468,180,130217,2,0,P|443:187|419:187,3,47.9999985351563,8|0|0|0,0:0|0:0|0:0|0:0,0:0:0:0:
316,208,130439,2,0,P|291:201|267:201,3,47.9999985351563,2|0|0|0,0:0|0:0|0:0|0:0,0:0:0:0:
152,248,130661,5,10,0:0:0:0:
135,265,130716,1,0,0:0:0:0:
126,287,130772,1,0,0:0:0:0:
125,311,130827,1,0,0:0:0:0:
132,334,130883,1,2,0:0:0:0:
146,352,130938,1,0,0:0:0:0:
167,365,130994,1,0,0:0:0:0:
190,370,131049,1,0,0:0:0:0:
214,367,131105,1,8,0:0:0:0:
234,355,131161,1,0,0:0:0:0:
250,337,131217,1,0,0:0:0:0:
264,318,131272,1,0,0:0:0:0:
283,304,131328,1,2,0:0:0:0:
306,295,131383,1,0,0:0:0:0:
330,293,131439,1,0,0:0:0:0:
353,299,131494,1,0,0:0:0:0:
392,328,131550,5,10,0:0:0:0:
418,341,131605,1,0,0:0:0:0:
446,343,131661,1,0,0:0:0:0:
473,334,131716,1,0,0:0:0:0:
495,315,131772,1,2,0:0:0:0:
509,290,131827,1,0,0:0:0:0:
511,262,131883,1,0,0:0:0:0:
503,234,131938,1,0,0:0:0:0:
486,212,131995,2,0,P|466:198|442:190,3,47.9999985351563,8|0|0|0,0:0|0:0|0:0|0:0,0:0:0:0:
316,172,132217,2,0,P|293:164|273:150,3,47.9999985351563,2|0|0|0,0:0|0:0|0:0|0:0,0:0:0:0:
192,68,132439,5,8,0:0:0:0:
158,56,132494,1,0,0:0:0:0:
122,59,132550,1,0,0:0:0:0:
90,74,132605,1,0,0:0:0:0:
65,100,132661,2,0,P|44:116|24:124,3,47.9999985351563,2|0|0|0,0:0|0:0|0:0|0:0,0:0:0:0:
152,216,132884,1,8,0:0:0:0:
185,227,132939,1,0,0:0:0:0:
221,224,132995,1,0,0:0:0:0:
253,209,133050,1,0,0:0:0:0:
278,183,133106,2,0,P|299:167|319:159,3,47.9999985351563,2|0|0|0,0:0|0:0|0:0|0:0,0:0:0:0:
440,160,133328,5,8,0:0:0:0:
471,142,133383,1,0,0:0:0:0:
488,111,133439,1,0,0:0:0:0:
488,76,133494,1,0,0:0:0:0:
470,46,133550,2,0,P|456:24|448:0,3,47.9999985351563,2|0|0|0,0:0|0:0|0:0|0:0,0:0:0:0:
309,70,133773,1,8,0:0:0:0:
277,87,133828,1,0,0:0:0:0:
260,118,133884,1,0,0:0:0:0:
260,153,133939,1,0,0:0:0:0:
278,183,133995,2,0,P|292:205|300:229,3,47.9999985351563,2|0|0|0,0:0|0:0|0:0|0:0,0:0:0:0:
228,336,134217,6,0,L|180:348,3,47.9999985351563,8|0|0|0,0:0|0:0|0:0|0:0,0:0:0:0:
120,280,134439,2,0,L|71:270,3,47.9999985351563,2|0|0|0,0:0|0:0|0:0|0:0,0:0:0:0:
60,180,134661,2,0,L|19:150,3,47.9999985351563,8|0|0|0,0:0|0:0|0:0|0:0,0:0:0:0:
33,61,134883,2,0,L|8:17,3,47.9999985351563,2|0|0|0,0:0|0:0|0:0|0:0,0:0:0:0:
176,48,135106,5,10,0:0:0:0:
203,58,135161,1,0,0:0:0:0:
225,79,135217,1,0,0:0:0:0:
237,106,135272,1,0,0:0:0:0:
239,135,135328,1,2,0:0:0:0:
228,163,135383,1,0,0:0:0:0:
208,185,135439,1,0,0:0:0:0:
181,198,135494,1,0,0:0:0:0:
151,199,135550,1,8,0:0:0:0:
121,200,135605,1,0,0:0:0:0:
94,213,135661,1,0,0:0:0:0:
74,235,135716,1,0,0:0:0:0:
63,263,135772,1,2,0:0:0:0:
64,292,135827,1,0,0:0:0:0:
77,319,135883,1,0,0:0:0:0:
99,340,135938,1,0,0:0:0:0:
126,350,135995,6,0,P|152:356|176:352,3,47.9999985351563,8|0|0|0,0:0|0:0|0:0|0:0,0:0:0:0:
260,308,136217,2,0,P|285:302|309:306,3,47.9999985351563,2|0|0|0,0:0|0:0|0:0|0:0,0:0:0:0:
396,344,136439,2,0,P|420:337|440:324,3,47.9999985351563,8|0|0|0,0:0|0:0|0:0|0:0,0:0:0:0:
464,232,136661,2,0,P|484:219|507:213,3,47.9999985351563,2|0|0|0,0:0|0:0|0:0|0:0,0:0:0:0:
400,128,136884,5,8,0:0:0:0:
397,116,136939,1,8,0:0:0:0:
394,104,136995,1,4,0:0:0:0:
391,93,137050,1,4,0:0:0:0:
388,81,137106,2,0,L|344:64,1,47.9999985351563,4|4,0:0|0:0,0:0:0:0:
280,160,137217,5,8,0:0:0:0:
277,171,137272,1,8,0:0:0:0:
274,183,137328,1,4,0:0:0:0:
271,194,137383,1,4,0:0:0:0:
268,206,137439,2,0,L|223:223,1,47.9999985351563,4|4,0:0|0:0,0:0:0:0:
168,116,137550,5,8,0:0:0:0:
165,104,137605,1,8,0:0:0:0:
162,92,137661,1,4,0:0:0:0:
159,81,137716,1,4,0:0:0:0:
156,69,137772,6,0,L|111:51,2,47.9999985351563,4|4|4,0:0|0:0|0:0,0:0:0:0:
60,224,137995,1,8,0:0:0:0:
204,328,138106,1,4,0:0:0:0:
204,328,138161,1,4,0:0:0:0:
204,328,138217,1,10,0:0:0:0:
360,240,138328,1,4,0:0:0:0:
360,240,138383,1,4,0:0:0:0:
360,240,138439,1,10,0:0:0:0:
60,224,138661,6,0,B|36:240|36:240|24:272|36:316,1,103.999995239258,2|10,0:0|0:0,0:0:0:0:
360,240,138884,2,0,B|384:224|384:224|396:192|384:148,1,103.999995239258,4|10,0:0|0:0,0:0:0:0:
57,52,139106,2,0,P|104:72|156:68,1,103.999995239258,4|10,0:0|0:0,0:0:0:0:
424,172,139328,2,0,P|377:152|325:156,1,103.999995239258,4|10,0:0|0:0,0:0:0:0:
60,224,139550,6,0,L|164:240,1,103.999995239258,4|10,0:0|0:0,0:0:0:0:
444,84,139773,2,0,L|340:68,1,103.999995239258,4|10,0:0|0:0,0:0:0:0:
116,328,139995,2,0,B|168:340|168:340|216:324,1,103.999995239258,4|10,0:0|0:0,0:0:0:0:
424,172,140217,2,0,B|372:160|372:160|324:176,1,103.999995239258,4|10,0:0|0:0,0:0:0:0:
60,224,140439,5,4,0:0:0:0:
40,112,140550,1,10,0:0:0:0:
132,44,140661,1,4,0:0:0:0:
244,76,140773,1,10,0:0:0:0:
220,276,140884,1,4,0:0:0:0:
116,328,140995,1,10,0:0:0:0:
60,224,141106,1,4,0:0:0:0:
164,172,141216,1,10,0:0:0:0:
328,320,141328,5,4,0:0:0:0:
428,344,141439,1,10,0:0:0:0:
508,276,141550,1,4,0:0:0:0:
500,172,141661,1,10,0:0:0:0:
334,120,141773,1,4,0:0:0:0:
282,210,141884,1,10,0:0:0:0:
372,262,141995,1,4,0:0:0:0:
424,172,142106,1,10,0:0:0:0:
244,76,142217,6,0,P|192:72|144:88,1,103.999995239258,2|10,0:0|0:0,0:0:0:0:
328,320,142439,2,0,P|380:324|428:308,1,103.999995239258,4|10,0:0|0:0,0:0:0:0:
164,172,142661,1,4,0:0:0:0:
60,224,142773,1,10,0:0:0:0:
172,168,142884,1,4,0:0:0:0:
52,228,142995,1,10,0:0:0:0:
180,164,143106,6,0,B|208:152|208:152|240:152|280:176,1,103.999995239258,4|10,0:0|0:0,0:0:0:0:
100,292,143328,2,0,B|72:304|72:304|40:304|0:280,1,103.999995239258,4|10,0:0|0:0,0:0:0:0:
236,116,143550,2,0,B|266:116|266:116|295:130|321:169,1,103.999995239258,4|10,0:0|0:0,0:0:0:0:
104,368,143772,2,0,B|73:367|73:367|44:353|18:314,1,103.999995239258,4|10,0:0|0:0,0:0:0:0:
72,56,143995,5,4,0:0:0:0:
176,40,144106,1,10,0:0:0:0:
280,24,144217,1,4,0:0:0:0:
384,8,144328,1,10,0:0:0:0:
444,148,144439,1,4,0:0:0:0:
340,132,144550,1,10,0:0:0:0:
236,116,144661,1,4,0:0:0:0:
132,100,144772,1,10,0:0:0:0:
72,240,144884,6,0,L|48:304,2,69.3333301595054,4|2|2,0:0|2:0|2:0,0:0:0:0:
208,312,145106,2,0,L|213:380,2,69.3333301595054,4|2|2,0:0|2:0|2:0,0:0:0:0:
360,308,145328,1,2,2:0:0:0:
391,275,145402,1,2,2:0:0:0:
400,230,145476,1,2,2:0:0:0:
384,188,145550,1,2,2:0:0:0:
367,145,145624,1,2,2:0:0:0:
376,100,145698,1,2,2:0:0:0:
408,68,145773,6,0,B|432:96|432:96|376:120|320:84|320:84|284:100|284:100|248:64|248:64|220:80|184:80,1,311.999985717774,6|10,0:0|0:0,0:0:0:0:
16,20,146217,2,0,P|32:68|20:120,1,103.999995239258,4|10,0:0|0:0,0:0:0:0:
144,364,146439,2,0,P|128:316|140:264,1,103.999995239258,4|10,0:0|0:0,0:0:0:0:
288,87,146661,5,2,2:0:0:0:
334,78,146736,1,2,2:0:0:0:
376,100,146810,1,2,2:0:0:0:
395,142,146884,1,2,2:0:0:0:
385,188,146958,1,2,2:0:0:0:
349,217,147032,1,2,2:0:0:0:
302,218,147106,1,2,2:0:0:0:
254,209,147180,1,2,2:0:0:0:
206,217,147254,1,2,2:0:0:0:
164,240,147328,1,2,2:0:0:0:
131,275,147402,1,2,2:0:0:0:
87,254,147476,1,2,2:0:0:0:
40,242,147550,6,0,B|24:192|24:192|56:152|56:152|32:104|32:52,1,207.999990478516,4|4,0:0|0:0,0:0:0:0:
168,0,147884,1,10,0:0:0:0:
216,92,147995,1,4,0:0:0:0:
152,172,148106,1,10,0:0:0:0:
48,168,148217,1,4,0:0:0:0:
216,92,148328,6,0,B|248:92|280:104|280:104|320:88|320:88|364:108|416:88,2,207.999990478516,10|10|10,0:0|0:0|0:0,0:0:0:0:
296,320,148884,2,0,P|348:328|396:308,1,103.999995239258,4|10,0:0|0:0,0:0:0:0:
252,208,149106,2,0,P|200:200|152:220,1,103.999995239258,4|10,0:0|0:0,0:0:0:0:
385,188,149328,6,0,B|397:158|397:158|392:127|358:98,1,103.999995239258,2|10,0:0|0:0,0:0:0:0:
212,280,149550,2,0,B|199:309|199:309|204:340|238:369,1,103.999995239258,4|10,0:0|0:0,0:0:0:0:
48,168,149773,1,2,2:0:0:0:
90,220,149847,1,2,2:0:0:0:
157,236,149921,1,2,2:0:0:0:
219,208,149995,1,2,2:0:0:0:
281,180,150069,1,2,2:0:0:0:
347,195,150143,1,2,2:0:0:0:
390,248,150217,6,0,P|400:284|396:320,2,69.3333301595054,4|2|2,0:0|2:0|2:0,0:0:0:0:
488,160,150439,2,0,P|478:124|482:88,2,69.3333301595054,4|2|2,0:0|2:0|2:0,0:0:0:0:
344,32,150661,5,2,2:0:0:0:
331,30,150716,1,2,2:0:0:0:
318,28,150772,1,2,2:0:0:0:
305,26,150827,1,2,2:0:0:0:
292,24,150884,2,0,B|260:36|260:36|192:24,1,103.999995239258,2|10,2:0|0:0,0:0:0:0:
41,104,151106,5,2,2:0:0:0:
42,116,151161,1,4,0:0:0:0:
43,129,151217,1,4,0:0:0:0:
45,142,151272,1,4,0:0:0:0:
46,155,151328,1,4,0:0:0:0:
48,168,151383,1,4,0:0:0:0:
49,181,151439,1,4,0:0:0:0:
51,194,151494,1,4,0:0:0:0:
90,220,151550,5,2,2:0:0:0:
89,232,151605,1,4,0:0:0:0:
88,245,151661,1,4,0:0:0:0:
86,258,151716,1,4,0:0:0:0:
85,271,151772,1,4,0:0:0:0:
83,284,151827,1,4,0:0:0:0:
82,297,151883,1,4,0:0:0:0:
80,310,151938,1,4,0:0:0:0:
52,348,151995,5,2,2:0:0:0:
73,362,152050,1,4,0:0:0:0:
98,367,152106,1,4,0:0:0:0:
124,364,152161,1,4,0:0:0:0:
147,352,152217,1,4,0:0:0:0:
169,339,152272,1,4,0:0:0:0:
195,336,152328,1,4,0:0:0:0:
220,342,152383,1,4,0:0:0:0:
242,356,152439,2,0,P|260:352|296:348,3,51.999997619629,2|4|4|4,2:0|0:0|0:0|0:0,0:0:0:0:
284,248,152661,2,0,P|298:236|329:217,3,51.999997619629,6|4|4|4,0:0|0:0|0:0|0:0,0:0:0:0:
224,136,152884,6,0,B|208:96|208:96|220:36,1,103.999995239258,2|4,0:0|0:0,0:0:0:0:
408,168,153106,2,0,B|424:208|424:208|412:268,1,103.999995239258,4|4,0:0|0:0,0:0:0:0:
242,356,153328,1,10,0:0:0:0:
208,260,153439,1,4,0:0:0:0:
316,184,153550,1,4,0:0:0:0:
282,88,153661,1,4,0:0:0:0:
96,56,153773,5,6,0:0:0:0:
56,164,153884,1,4,0:0:0:0:
128,252,153995,2,0,B|124:292|124:292|112:312|112:312|108:360,1,103.999995239258,4|4,0:0|0:0,0:0:0:0:
319,282,154217,2,0,P|331:230|315:182,1,103.999995239258,10|4,0:0|0:0,0:0:0:0:
56,164,154439,2,0,P|44:216|60:264,1,103.999995239258,4|4,0:0|0:0,0:0:0:0:
242,356,154661,5,2,0:0:0:0:
382,315,154773,1,4,0:0:0:0:
344,176,154884,1,4,0:0:0:0:
203,213,154995,1,4,0:0:0:0:
320,360,155106,5,10,0:0:0:0:
380,240,155217,1,4,0:0:0:0:
268,164,155328,1,4,0:0:0:0:
328,44,155439,1,4,0:0:0:0:
488,180,155550,5,6,0:0:0:0:
380,240,155661,1,4,0:0:0:0:
272,300,155773,1,4,0:0:0:0:
164,360,155884,1,4,0:0:0:0:
28,264,155995,6,0,B|12:204|40:155|40:155|10:107|10:107|40:56|20:4,1,276.000005264282,10|4,0:0|0:0,0:0:0:0:
204,128,156439,6,0,P|160:148|116:140,1,92.0000017547608,2|4,0:0|0:0,0:0:0:0:
242,56,156661,2,0,P|286:36|330:44,1,92.0000017547608,4|4,0:0|0:0,0:0:0:0:
240,196,156884,2,0,P|192:203|151:184,1,92.0000017547608,10|4,0:0|0:0,0:0:0:0:
295,136,157106,2,0,P|342:128|383:147,1,92.0000017547608,4|4,0:0|0:0,0:0:0:0:
272,300,157328,5,2,0:0:0:0:
184,324,157439,1,0,0:0:0:0:
116,264,157550,2,0,B|96:244|96:244|68:244|32:260,1,92.0000017547608,4|4,0:0|0:0,0:0:0:0:
240,196,157773,2,0,B|260:216|260:216|288:216|324:200,1,92.0000017547608,10|4,0:0|0:0,0:0:0:0:
118,124,157995,2,0,B|98:104|98:104|70:104|34:120,1,92.0000017547608,4|4,0:0|0:0,0:0:0:0:
295,136,158217,6,0,P|311:84|295:36,1,103.999995239258,2|4,0:0|0:0,0:0:0:0:
136,196,158439,2,0,B|136:231|152:256|152:256|124:292|124:292|156:332|168:384,2,207.999990478516,4|10|4,0:0|0:0|0:0,0:0:0:0:
236,88,158995,1,4,0:0:0:0:
368,172,159106,2,0,P|420:176|460:144,1,103.999995239258,2|4,0:0|0:0,0:0:0:0:
266,24,159328,2,0,P|214:20|174:52,1,103.999995239258,4|4,0:0|0:0,0:0:0:0:
400,108,159550,2,0,B|404:68|404:68|396:44|396:44|400:4,1,103.999995239258,10|4,0:0|0:0,0:0:0:0:
236,88,159773,2,0,B|240:128|240:128|232:152|232:152|236:192,1,103.999995239258,4|4,0:0|0:0,0:0:0:0:
344,356,159995,5,2,0:0:0:0:
448,352,160106,1,4,0:0:0:0:
472,252,160217,1,4,0:0:0:0:
384,192,160328,1,4,0:0:0:0:
304,256,160439,1,10,0:0:0:0:
224,320,160550,5,4,0:0:0:0:
128,284,160661,1,4,0:0:0:0:
88,188,160772,1,4,0:0:0:0:
132,92,160884,1,2,0:0:0:0:
236,88,160995,5,4,0:0:0:0:
284,180,161106,1,4,0:0:0:0:
204,248,161217,1,4,0:0:0:0:
156,156,161328,2,0,P|152:100|172:56,1,103.999995239258,10|4,0:0|0:0,0:0:0:0:
304,256,161550,2,0,P|308:312|288:356,1,103.999995239258,4|4,0:0|0:0,0:0:0:0:
156,156,161773,5,2,0:0:0:0:
259,139,161884,1,4,0:0:0:0:
327,215,161995,1,4,0:0:0:0:
430,198,162106,1,4,0:0:0:0:
285,37,162217,5,10,0:0:0:0:
259,139,162328,1,4,0:0:0:0:
327,215,162439,1,4,0:0:0:0:
299,315,162550,1,4,0:0:0:0:
259,139,162661,6,0,P|304:116|360:116,1,103.999995239258,2|4,0:0|0:0,0:0:0:0:
184,252,162884,2,0,P|132:251|86:228,1,103.999995239258,4|4,0:0|0:0,0:0:0:0:
285,37,163106,1,10,0:0:0:0:
337,121,163217,1,4,0:0:0:0:
288,207,163328,1,4,0:0:0:0:
239,293,163439,1,4,0:0:0:0:
291,377,163550,6,0,B|328:384|328:384|392:364,1,103.999995239258,2|4,0:0|0:0,0:0:0:0:
172,324,163773,2,0,B|135:317|135:317|71:337,1,103.999995239258,4|4,0:0|0:0,0:0:0:0:
337,121,163995,2,0,B|373:114|373:114|437:134,1,103.999995239258,10|4,0:0|0:0,0:0:0:0:
217,174,164218,2,0,B|180:180|180:180|116:160,1,103.999995239258,4|4,0:0|0:0,0:0:0:0:
239,293,164439,6,0,B|275:299|275:299|339:279,1,103.999995239258,2|4,0:0|0:0,0:0:0:0:
119,239,164662,2,0,B|82:232|82:232|18:252,1,103.999995239258,4|4,0:0|0:0,0:0:0:0:
284,36,164884,2,0,B|320:29|320:29|384:49,1,103.999995239258,10|4,0:0|0:0,0:0:0:0:
164,89,165107,2,0,B|127:95|127:95|63:75,1,103.999995239258,4|4,0:0|0:0,0:0:0:0:
337,121,165328,5,8,0:0:0:0:
368,252,165439,1,8,0:0:0:0:
217,174,165550,1,4,0:0:0:0:
217,174,165606,1,4,0:0:0:0:
217,174,165661,2,0,P|172:156|120:168,1,103.999995239258,4|8,0:0|0:0,0:0:0:0:
337,121,165884,1,4,0:0:0:0:
337,121,165940,1,4,0:0:0:0:
337,121,165995,2,0,P|375:91|390:39,1,103.999995239258,4|8,0:0|0:0,0:0:0:0:
322,251,166217,1,4,0:0:0:0:
322,251,166273,1,4,0:0:0:0:
322,251,166328,2,0,P|328:298|365:338,1,103.999995239258,8|8,0:0|0:0,0:0:0:0:
132,112,166550,5,4,0:0:0:0:
132,112,166606,1,4,0:0:0:0:
132,112,166661,1,8,0:0:0:0:
101,136,166716,1,8,0:0:0:0:
88,172,166772,1,4,0:0:0:0:
94,209,166827,1,4,0:0:0:0:
119,239,166884,1,8,0:0:0:0:
143,268,166939,1,8,0:0:0:0:
150,306,166995,1,4,0:0:0:0:
136,342,167050,1,4,0:0:0:0:
106,366,167106,6,0,P|56:372|20:348,1,95.9999970703126,2|4,0:0|0:0,0:0:0:0:
160,180,167328,2,0,P|210:174|246:198,1,95.9999970703126,2|4,0:0|0:0,0:0:0:0:
76,300,167550,1,10,0:0:0:0:
20,200,167661,1,4,0:0:0:0:
162,266,167773,1,4,0:0:0:0:
106,366,167884,1,4,0:0:0:0:
12,291,167995,6,0,P|4:243|20:199,1,95.9999970703126,2|4,0:0|0:0,0:0:0:0:
243,140,168217,2,0,P|205:170|159:179,1,95.9999970703126,4|4,0:0|0:0,0:0:0:0:
1,15,168439,2,0,P|46:32|76:67,1,95.9999970703126,10|4,0:0|0:0,0:0:0:0:
162,266,168661,1,12,0:0:0:0:
173,268,168716,1,12,0:0:0:0:
185,271,168772,1,12,0:0:0:0:
197,273,168827,1,12,0:0:0:0:
208,276,168884,6,0,P|256:272|292:244,1,95.9999970703126,2|4,0:0|0:0,0:0:0:0:
260,60,169106,2,0,P|212:64|176:92,1,95.9999970703126,4|4,0:0|0:0,0:0:0:0:
344,308,169328,1,10,0:0:0:0:
477,272,169439,1,4,0:0:0:0:
441,137,169550,1,4,0:0:0:0:
308,173,169661,1,4,0:0:0:0:
280,344,169773,6,0,B|268:368|268:368|232:376|200:360,1,95.9999970703126,2|4,0:0|0:0,0:0:0:0:
172,148,169995,2,0,B|184:124|184:124|220:116|252:132,1,95.9999970703126,4|4,0:0|0:0,0:0:0:0:
400,200,170217,1,6,0:0:0:0:
421,210,170272,1,4,0:0:0:0:
445,212,170328,1,4,0:0:0:0:
468,207,170383,1,4,0:0:0:0:
488,194,170439,1,12,0:0:0:0:
504,176,170494,1,12,0:0:0:0:
512,153,170550,1,12,0:0:0:0:
512,129,170605,1,12,0:0:0:0:
505,107,170661,6,0,P|484:80|408:72,1,103.999995239258,2|4,0:0|0:0,0:0:0:0:
344,308,170884,2,0,P|365:335|441:343,1,103.999995239258,4|4,0:0|0:0,0:0:0:0:
192,76,171106,2,0,P|141:79|105:115,1,103.999995239258,10|4,0:0|0:0,0:0:0:0:
179,355,171329,2,0,P|229:351|265:315,1,103.999995239258,4|4,0:0|0:0,0:0:0:0:
40,192,171550,6,0,B|36:228|36:228|44:256|44:256|40:296,1,103.999995239258,2|4,0:0|0:0,0:0:0:0:
308,173,171773,2,0,B|304:137|304:137|312:109|312:109|308:69,1,103.999995239258,4|4,0:0|0:0,0:0:0:0:
178,252,171995,2,0,B|174:288|174:288|182:316|182:316|178:356,1,103.999995239258,10|4,0:0|0:0,0:0:0:0:
446,233,172218,2,0,B|442:197|442:197|450:169|450:169|446:129,1,103.999995239258,4|4,0:0|0:0,0:0:0:0:
192,76,172439,6,0,B|164:88|164:88|152:120|168:160,1,103.999995239258,2|4,0:0|0:0,0:0:0:0:
300,244,172661,1,8,0:0:0:0:
372,104,172773,2,0,L|376:52,2,51.999997619629,4|4|4,0:0|0:0|0:0,0:0:0:0:
224,216,172995,5,4,0:0:0:0:
225,231,173050,1,4,0:0:0:0:
227,246,173106,1,8,0:0:0:0:
229,262,173161,1,4,0:0:0:0:
231,277,173217,1,4,0:0:0:0:
232,293,173272,1,4,0:0:0:0:
234,308,173328,1,8,0:0:0:0:
136,316,173439,5,4,0:0:0:0:
116,299,173494,1,4,0:0:0:0:
104,276,173550,1,8,0:0:0:0:
101,250,173605,1,4,0:0:0:0:
107,225,173661,2,0,L|100:172,1,51.999997619629,4|4,0:0|0:0,0:0:0:0:
95,68,173773,5,8,0:0:0:0:
116,81,173828,1,8,0:0:0:0:
142,87,173884,1,8,0:0:0:0:
167,85,173939,1,8,0:0:0:0:
191,75,173995,1,4,0:0:0:0:
212,61,174050,1,4,0:0:0:0:
238,55,174106,1,4,0:0:0:0:
263,57,174161,1,4,0:0:0:0:
287,67,174217,6,0,P|344:80|392:60,1,111.999996582031,10|4,0:0|0:0,0:0:0:0:
156,160,174439,2,0,P|99:147|51:167,1,111.999996582031,4|4,0:0|0:0,0:0:0:0:
324,236,174661,2,0,P|381:249|429:229,1,111.999996582031,10|4,0:0|0:0,0:0:0:0:
193,329,174883,2,0,P|136:316|88:336,1,111.999996582031,4|4,0:0|0:0,0:0:0:0:
376,180,175106,6,0,P|400:232|384:284,1,111.999996582031,10|4,0:0|0:0,0:0:0:0:
104,216,175328,2,0,P|80:164|96:112,1,111.999996582031,4|4,0:0|0:0,0:0:0:0:
464,192,175550,2,0,B|476:248|476:248|456:300,1,111.999996582031,10|4,0:0|0:0,0:0:0:0:
16,200,175773,2,0,B|4:144|4:144|24:92,1,111.999996582031,4|4,0:0|0:0,0:0:0:0:
324,236,175995,6,0,B|328:276|328:276|344:300|344:300|348:344,1,111.999996582031,10|4,0:0|0:0,0:0:0:0:
94,113,176217,2,0,B|98:73|98:73|114:49|114:49|118:5,1,111.999996582031,4|4,0:0|0:0,0:0:0:0:
216,222,176439,2,0,B|212:262|212:262|196:286|196:286|192:330,1,111.999996582031,10|4,0:0|0:0,0:0:0:0:
428,112,176661,2,0,B|424:72|424:72|408:48|408:48|404:4,1,111.999996582031,4|4,0:0|0:0,0:0:0:0:
104,216,176884,6,0,B|84:236|84:236|80:276|108:316,1,111.999996582031,10|4,0:0|0:0,0:0:0:0:
379,278,177106,2,0,B|399:258|399:258|403:218|375:178,1,111.999996582031,4|4,0:0|0:0,0:0:0:0:
40,72,177328,2,0,B|20:92|20:92|16:132|44:172,1,111.999996582031,10|4,0:0|0:0,0:0:0:0:
332,120,177550,2,0,B|352:100|352:100|356:60|328:20,1,111.999996582031,4|4,0:0|0:0,0:0:0:0:
104,216,177773,5,10,0:0:0:0:
117,232,177828,1,4,0:0:0:0:
134,244,177884,1,4,0:0:0:0:
152,253,177939,1,4,0:0:0:0:
173,258,177995,1,4,0:0:0:0:
194,258,178050,1,4,0:0:0:0:
214,254,178106,1,4,0:0:0:0:
233,245,178161,1,4,0:0:0:0:
250,233,178217,1,14,0:0:0:0:
266,220,178272,1,4,0:0:0:0:
285,211,178328,1,4,0:0:0:0:
306,207,178383,1,4,0:0:0:0:
327,207,178439,1,4,0:0:0:0:
347,212,178494,1,4,0:0:0:0:
366,221,178550,1,4,0:0:0:0:
383,234,178605,1,4,0:0:0:0:
396,250,178661,5,14,0:0:0:0:
408,275,178716,1,4,0:0:0:0:
409,303,178772,1,4,0:0:0:0:
401,329,178827,1,4,0:0:0:0:
384,351,178883,1,4,0:0:0:0:
360,365,178938,1,4,0:0:0:0:
332,370,178994,1,4,0:0:0:0:
305,365,179049,1,4,0:0:0:0:
282,350,179105,1,14,0:0:0:0:
265,327,179161,1,4,0:0:0:0:
257,301,179216,1,4,0:0:0:0:
260,273,179272,1,4,0:0:0:0:
272,248,179328,1,4,0:0:0:0:
284,223,179383,1,4,0:0:0:0:
287,195,179439,1,4,0:0:0:0:
282,168,179494,1,4,0:0:0:0:
268,144,179550,6,0,P|248:128|224:120,3,47.9999985351563,8|8|4|4,0:0|0:0|0:0|0:0,0:0:0:0:
144,236,179773,2,0,P|164:252|188:260,3,47.9999985351563,4|4|4|4,0:0|0:0|0:0|0:0,0:0:0:0:
128,60,179995,2,0,P|107:43|83:35,3,47.9999985351563,8|8|4|4,0:0|0:0|0:0|0:0,0:0:0:0:
3,151,180218,2,0,P|23:167|47:175,3,47.9999985351563,4|4|4|4,0:0|0:0|0:0|0:0,0:0:0:0:
157,142,180439,5,8,0:0:0:0:
232,83,180550,1,8,0:0:0:0:
327,96,180662,1,8,0:0:0:0:
386,171,180773,1,8,0:0:0:0:
373,267,180884,1,8,0:0:0:0:
297,325,180995,1,8,0:0:0:0:
201,313,181106,1,8,0:0:0:0:
144,236,181217,1,8,0:0:0:0:
157,142,181328,6,0,B|172:120|172:120|208:112|240:120,1,95.9999970703126,2|10,0:0|0:0,0:0:0:0:
386,171,181550,1,0,0:0:0:0:
216,200,181661,1,10,0:0:0:0:
327,96,181773,2,0,B|364:80|364:80|420:84,1,95.9999970703126,0|10,0:0|0:0,0:0:0:0:
500,240,181995,1,0,0:0:0:0:
500,240,182106,1,10,0:0:0:0:
297,325,182217,6,0,P|248:316|200:312,1,95.9999970703126,0|10,0:0|0:0,0:0:0:0:
232,124,182439,1,0,0:0:0:0:
144,236,182550,1,10,0:0:0:0:
88,104,182661,2,0,B|84:68|84:68|88:44|88:44|84:8,1,95.9999970703126,0|10,0:0|0:0,0:0:0:0:
36,156,182884,2,0,P|80:176|128:164,1,95.9999970703126,0|10,0:0|0:0,0:0:0:0:
378,43,183106,6,0,P|334:23|286:35,1,95.9999970703126,0|10,0:0|0:0,0:0:0:0:
216,200,183328,1,0,0:0:0:0:
336,260,183439,1,10,0:0:0:0:
364,128,183550,1,0,0:0:0:0:
208,204,183661,1,10,0:0:0:0:
372,124,183773,1,0,0:0:0:0:
200,208,183884,1,10,0:0:0:0:
380,120,183995,6,0,P|428:112|476:120,1,95.9999970703126,0|10,0:0|0:0,0:0:0:0:
236,151,184217,2,0,P|205:113|187:67,1,95.9999970703126,0|10,0:0|0:0,0:0:0:0:
336,260,184439,2,0,P|318:305|288:343,1,95.9999970703126,0|10,0:0|0:0,0:0:0:0:
80,240,184661,1,12,0:0:0:0:
78,228,184716,1,12,0:0:0:0:
76,216,184772,1,12,0:0:0:0:
74,204,184827,1,12,0:0:0:0:
72,192,184884,6,0,B|88:156|88:156|80:100,1,95.9999970703126,2|10,0:0|0:0,0:0:0:0:
180,248,185106,2,0,P|192:296|180:340,1,95.9999970703126,0|10,0:0|0:0,0:0:0:0:
236,151,185328,2,0,P|224:103|236:59,1,95.9999970703126,0|10,0:0|0:0,0:0:0:0:
336,260,185550,2,0,P|348:308|336:352,1,95.9999970703126,0|10,0:0|0:0,0:0:0:0:
392,163,185772,2,0,P|380:115|392:71,1,95.9999970703126,0|10,0:0|0:0,0:0:0:0:
272,308,185995,6,0,B|248:316|248:316|212:312|188:284,1,95.9999970703126,0|10,0:0|0:0,0:0:0:0:
184,280,186161,1,4,0:0:0:0:
180,276,186217,2,0,P|136:260|88:264,1,95.9999970703126,4|10,0:0|0:0,0:0:0:0:
336,351,186439,1,12,0:0:0:0:
347,350,186494,1,12,0:0:0:0:
359,349,186550,1,12,0:0:0:0:
371,348,186605,1,12,0:0:0:0:
383,347,186661,6,0,P|400:300|384:256,1,95.9999970703126,2|10,0:0|0:0,0:0:0:0:
236,151,186884,2,0,P|219:198|235:242,1,95.9999970703126,2|10,0:0|0:0,0:0:0:0:
452,208,187106,2,0,P|468:160|452:116,1,95.9999970703126,0|10,0:0|0:0,0:0:0:0:
304,11,187329,2,0,P|287:58|303:102,1,95.9999970703126,2|10,0:0|0:0,0:0:0:0:
452,36,187550,6,0,B|404:36|404:36|360:56,1,95.9999970703126,0|10,0:0|0:0,0:0:0:0:
272,308,187773,2,0,B|296:266|296:266|300:218,1,95.9999970703126,0|10,0:0|0:0,0:0:0:0:
126,16,187995,2,0,B|150:57|150:57|189:85,1,95.9999970703126,0|10,0:0|0:0,0:0:0:0:
304,11,188217,1,12,0:0:0:0:
292,13,188272,1,12,0:0:0:0:
280,15,188328,1,12,0:0:0:0:
268,17,188383,1,12,0:0:0:0:
256,19,188439,6,0,P|268:68|272:120,1,95.9999970703126,2|10,0:0|0:0,0:0:0:0:
212,364,188661,2,0,P|200:315|196:263,1,95.9999970703126,0|10,0:0|0:0,0:0:0:0:
336,72,188884,2,0,P|352:116|340:164,1,95.9999970703126,0|10,0:0|0:0,0:0:0:0:
124,320,189106,2,0,P|108:276|120:228,1,95.9999970703126,0|10,0:0|0:0,0:0:0:0:
392,112,189328,5,6,0:0:0:0:
403,111,189383,1,4,0:0:0:0:
415,110,189439,1,4,0:0:0:0:
427,109,189494,1,4,0:0:0:0:
439,108,189550,2,0,B|464:88|464:88|468:60|452:20,1,95.9999970703126,4|10,0:0|0:0,0:0:0:0:
128,152,189773,5,6,0:0:0:0:
116,151,189828,1,4,0:0:0:0:
104,150,189884,1,4,0:0:0:0:
92,149,189939,1,4,0:0:0:0:
80,148,189995,2,0,B|55:127|55:127|51:99|67:59,1,95.9999970703126,4|10,0:0|0:0,0:0:0:0:
388,280,190217,5,6,0:0:0:0:
399,279,190272,1,4,0:0:0:0:
411,278,190328,1,4,0:0:0:0:
423,277,190383,1,4,0:0:0:0:
435,276,190439,2,0,B|459:255|459:255|463:227|447:187,1,95.9999970703126,4|10,0:0|0:0,0:0:0:0:
124,320,190662,5,6,0:0:0:0:
112,319,190717,1,4,0:0:0:0:
100,318,190773,1,4,0:0:0:0:
88,317,190828,1,4,0:0:0:0:
76,316,190884,2,0,B|51:295|51:295|47:267|63:227,1,95.9999970703126,4|10,0:0|0:0,0:0:0:0:
316,288,191106,5,6,0:0:0:0:
316,288,191161,1,4,0:0:0:0:
316,288,191217,1,10,0:0:0:0:
160,220,191328,1,6,0:0:0:0:
160,220,191383,1,4,0:0:0:0:
160,220,191439,1,10,0:0:0:0:
340,144,191550,1,6,0:0:0:0:
340,144,191605,1,4,0:0:0:0:
340,144,191661,1,10,0:0:0:0:
140,80,191773,1,6,0:0:0:0:
140,80,191828,1,4,0:0:0:0:
140,80,191884,1,10,0:0:0:0:
364,0,191995,6,0,P|412:0|464:20,1,103.999995239258,2|10,0:0|0:0,0:0:0:0:
160,220,192217,2,0,P|112:220|60:200,1,103.999995239258,0|10,0:0|0:0,0:0:0:0:
460,88,192439,2,0,B|484:104|484:104|496:136|484:184,1,103.999995239258,0|10,0:0|0:0,0:0:0:0:
76,128,192661,2,0,B|52:112|52:112|40:80|52:32,1,103.999995239258,0|10,0:0|0:0,0:0:0:0:
309,76,192884,1,4,0:0:0:0:
332,106,192939,1,4,0:0:0:0:
340,144,192995,1,4,0:0:0:0:
332,182,193050,1,4,0:0:0:0:
308,212,193106,1,4,0:0:0:0:
284,242,193161,1,4,0:0:0:0:
275,280,193217,1,4,0:0:0:0:
283,317,193272,1,4,0:0:0:0:
307,348,193328,6,0,P|352:363|400:355,1,95.9999970703126,4|10,0:0|0:0,0:0:0:0:
260,144,193550,2,0,P|214:128|166:136,1,95.9999970703126,0|10,0:0|0:0,0:0:0:0:
460,304,193773,2,0,B|476:260|476:260|468:212,1,95.9999970703126,0|10,0:0|0:0,0:0:0:0:
112,192,193995,2,0,B|96:236|96:236|104:284,1,95.9999970703126,0|10,0:0|0:0,0:0:0:0:
352,280,194217,5,8,0:0:0:0:
362,275,194272,1,8,0:0:0:0:
373,270,194328,1,8,0:0:0:0:
384,265,194383,1,8,0:0:0:0:
395,260,194439,2,0,L|404:212,1,47.9999985351563,4|4,0:0|0:0,0:0:0:0:
340,144,194550,5,8,0:0:0:0:
335,133,194605,1,8,0:0:0:0:
330,122,194661,1,4,0:0:0:0:
325,111,194716,1,4,0:0:0:0:
320,100,194772,2,0,L|271:91,1,47.9999985351563,8|8,0:0|0:0,0:0:0:0:
184,120,194884,5,8,0:0:0:0:
172,122,194939,1,8,0:0:0:0:
160,123,194995,1,4,0:0:0:0:
148,124,195050,1,4,0:0:0:0:
136,124,195106,1,8,0:0:0:0:
36,184,195217,5,4,0:0:0:0:
36,184,195273,1,4,0:0:0:0:
36,184,195328,1,8,0:0:0:0:
38,207,195383,1,8,0:0:0:0:
41,231,195439,1,8,0:0:0:0:
44,255,195494,1,8,0:0:0:0:
47,279,195550,6,0,P|96:288|140:304,1,95.9999970703126,2|4,0:0|0:0,0:0:0:0:
395,260,195773,2,0,P|346:251|302:235,1,95.9999970703126,10|4,0:0|0:0,0:0:0:0:
43,99,195995,2,0,P|92:108|136:124,1,95.9999970703126,10|4,0:0|0:0,0:0:0:0:
391,80,196218,2,0,P|342:71|298:55,1,95.9999970703126,10|4,0:0|0:0,0:0:0:0:
136,4,196439,5,10,0:0:0:0:
256,116,196550,1,4,0:0:0:0:
256,116,196606,1,4,0:0:0:0:
256,116,196661,1,10,0:0:0:0:
112,196,196773,1,4,0:0:0:0:
112,196,196829,1,4,0:0:0:0:
112,196,196884,1,10,0:0:0:0:
232,308,196994,1,4,0:0:0:0:
232,308,197049,1,4,0:0:0:0:
232,308,197105,1,10,0:0:0:0:
376,228,197217,1,4,0:0:0:0:
376,228,197272,1,4,0:0:0:0:
376,228,197328,6,0,P|384:180|368:136,1,95.9999970703126,10|4,0:0|0:0,0:0:0:0:
160,272,197550,2,0,P|152:320|168:364,1,95.9999970703126,10|4,0:0|0:0,0:0:0:0:
256,116,197773,2,0,P|264:68|248:24,1,95.9999970703126,10|4,0:0|0:0,0:0:0:0:
40,160,197995,2,0,P|32:208|48:252,1,95.9999970703126,10|4,0:0|0:0,0:0:0:0:
232,308,198217,5,10,0:0:0:0:
336,148,198328,1,4,0:0:0:0:
336,148,198384,1,4,0:0:0:0:
336,148,198439,1,10,0:0:0:0:
156,84,198550,1,4,0:0:0:0:
156,84,198606,1,4,0:0:0:0:
156,84,198661,1,10,0:0:0:0:
103,275,198773,1,4,0:0:0:0:
103,275,198829,1,4,0:0:0:0:
103,275,198884,1,10,0:0:0:0:
283,211,198995,1,4,0:0:0:0:
283,211,199051,1,4,0:0:0:0:
283,211,199106,6,0,B|319:219|319:219|339:215|339:215|375:227,1,95.9999970703126,10|4,0:0|0:0,0:0:0:0:
156,356,199328,2,0,B|120:348|120:348|100:352|100:352|64:340,1,95.9999970703126,10|4,0:0|0:0,0:0:0:0:
264,60,199550,2,0,B|300:68|300:68|320:64|320:64|356:76,1,95.9999970703126,10|4,0:0|0:0,0:0:0:0:
137,205,199772,2,0,B|101:197|101:197|81:201|81:201|45:189,1,95.9999970703126,10|4,0:0|0:0,0:0:0:0:
156,84,199995,5,10,0:0:0:0:
240,280,200106,1,4,0:0:0:0:
240,280,200161,1,4,0:0:0:0:
240,280,200217,1,10,0:0:0:0:
52,236,200328,1,4,0:0:0:0:
52,236,200383,1,4,0:0:0:0:
52,236,200439,1,10,0:0:0:0:
96,48,200550,1,4,0:0:0:0:
96,48,200605,1,4,0:0:0:0:
96,48,200661,1,10,0:0:0:0:
284,92,200772,1,4,0:0:0:0:
284,92,200827,1,4,0:0:0:0:
284,92,200884,6,0,P|328:100|376:84,1,95.9999970703126,10|4,0:0|0:0,0:0:0:0:
92,168,201106,2,0,P|48:160|0:176,1,95.9999970703126,10|4,0:0|0:0,0:0:0:0:
348,280,201328,2,0,P|392:288|440:272,1,95.9999970703126,10|4,0:0|0:0,0:0:0:0:
156,356,201550,2,0,P|112:348|64:364,1,95.9999970703126,10|4,0:0|0:0,0:0:0:0:
278,276,201773,5,14,0:0:0:0:
290,248,201828,1,4,0:0:0:0:
291,219,201884,1,4,0:0:0:0:
279,191,201939,1,4,0:0:0:0:
258,171,201995,1,14,0:0:0:0:
230,160,202050,1,4,0:0:0:0:
200,162,202106,1,4,0:0:0:0:
174,176,202161,1,4,0:0:0:0:
156,200,202217,1,14,0:0:0:0:
137,223,202272,1,4,0:0:0:0:
110,236,202328,1,4,0:0:0:0:
81,238,202383,1,4,0:0:0:0:
53,228,202439,1,14,0:0:0:0:
31,208,202494,1,4,0:0:0:0:
20,180,202550,1,4,0:0:0:0:
20,150,202605,1,4,0:0:0:0:
33,123,202661,6,0,P|52:76|44:24,1,103.999995239258,10|4,0:0|0:0,0:0:0:0:
167,257,202884,2,0,P|148:304|156:356,1,103.999995239258,10|4,0:0|0:0,0:0:0:0:
316,132,203106,2,0,P|334:84|326:32,1,103.999995239258,10|4,0:0|0:0,0:0:0:0:
450,265,203329,2,0,P|431:312|439:364,1,103.999995239258,10|4,0:0|0:0,0:0:0:0:
440,120,203550,5,10,0:0:0:0:
252,76,203661,1,4,0:0:0:0:
252,76,203717,1,4,0:0:0:0:
252,76,203773,1,10,0:0:0:0:
208,264,203884,1,4,0:0:0:0:
208,264,203940,1,4,0:0:0:0:
208,264,203996,1,10,0:0:0:0:
396,308,204106,1,4,0:0:0:0:
396,308,204162,1,4,0:0:0:0:
396,308,204218,1,10,0:0:0:0:
440,120,204328,1,4,0:0:0:0:
440,120,204384,1,4,0:0:0:0:
440,120,204439,6,0,B|436:84|436:84|444:60|444:60|440:24,1,95.9999970703126,10|4,0:0|0:0,0:0:0:0:
320,280,204661,2,0,B|316:316|316:316|324:340|324:340|320:376,1,95.9999970703126,10|4,0:0|0:0,0:0:0:0:
184,104,204884,2,0,B|180:68|180:68|188:44|188:44|184:8,1,95.9999970703126,10|4,0:0|0:0,0:0:0:0:
64,264,205106,2,0,B|60:300|60:300|68:324|68:324|64:360,1,95.9999970703126,10|4,0:0|0:0,0:0:0:0:
0,148,205328,5,10,0:0:0:0:
112,36,205439,1,4,0:0:0:0:
112,36,205495,1,4,0:0:0:0:
112,36,205550,1,10,0:0:0:0:
196,184,205661,1,4,0:0:0:0:
196,184,205717,1,4,0:0:0:0:
196,184,205772,1,10,0:0:0:0:
280,332,205884,1,4,0:0:0:0:
280,332,205940,1,4,0:0:0:0:
280,332,205995,1,10,0:0:0:0:
392,220,206106,1,4,0:0:0:0:
392,220,206162,1,4,0:0:0:0:
392,220,206217,6,0,P|404:176|388:128,1,95.9999970703126,10|4,0:0|0:0,0:0:0:0:
212,288,206439,2,0,P|200:332|216:380,1,95.9999970703126,10|4,0:0|0:0,0:0:0:0:
240,105,206661,2,0,P|252:61|236:13,1,95.9999970703126,10|4,0:0|0:0,0:0:0:0:
60,173,206883,2,0,P|48:217|64:265,1,95.9999970703126,10|4,0:0|0:0,0:0:0:0:
280,332,207106,5,10,0:0:0:0:
316,160,207217,1,4,0:0:0:0:
316,160,207273,1,4,0:0:0:0:
316,160,207328,1,10,0:0:0:0:
152,216,207439,1,4,0:0:0:0:
152,216,207495,1,4,0:0:0:0:
152,216,207550,1,10,0:0:0:0:
76,49,207661,1,4,0:0:0:0:
76,49,207717,1,4,0:0:0:0:
76,49,207772,1,10,0:0:0:0:
240,105,207883,1,4,0:0:0:0:
240,105,207939,1,4,0:0:0:0:
240,105,207995,6,0,B|264:108|264:108|292:96|304:52,1,95.9999970703126,10|4,0:0|0:0,0:0:0:0:
136,124,208217,1,4,0:0:0:0:
133,147,208272,1,4,0:0:0:0:
135,171,208328,1,4,0:0:0:0:
142,194,208383,1,4,0:0:0:0:
152,216,208439,2,0,P|144:264|124:308,1,95.9999970703126,8|4,0:0|0:0,0:0:0:0:
332,252,208661,1,8,0:0:0:0:
334,228,208716,1,8,0:0:0:0:
332,204,208772,1,8,0:0:0:0:
325,181,208827,1,8,0:0:0:0:
316,160,208883,2,0,P|324:112|344:68,1,95.9999970703126,8|4,0:0|0:0,0:0:0:0:
392,312,209106,5,8,0:0:0:0:
371,324,209161,1,8,0:0:0:0:
348,331,209217,1,4,0:0:0:0:
324,333,209272,1,4,0:0:0:0:
301,328,209328,2,0,P|252:336|208:356,1,95.9999970703126,8|4,0:0|0:0,0:0:0:0:
62,233,209550,1,8,0:0:0:0:
82,220,209605,1,8,0:0:0:0:
105,213,209661,1,4,0:0:0:0:
129,211,209716,1,4,0:0:0:0:
152,216,209772,2,0,P|201:208|245:188,1,95.9999970703126,10|4,0:0|0:0,0:0:0:0:
192,40,209995,5,4,0:0:0:0:
172,26,210050,1,4,0:0:0:0:
149,21,210106,1,4,0:0:0:0:
125,25,210161,1,4,0:0:0:0:
105,37,210217,1,14,0:0:0:0:
90,56,210272,1,4,0:0:0:0:
84,79,210328,1,4,0:0:0:0:
87,103,210383,1,4,0:0:0:0:
98,124,210439,1,4,0:0:0:0:
117,139,210495,1,4,0:0:0:0:
140,146,210550,1,4,0:0:0:0:
164,144,210606,1,4,0:0:0:0:
185,133,210661,5,14,0:0:0:0:
206,122,210716,1,4,0:0:0:0:
229,116,210772,1,4,0:0:0:0:
253,115,210827,1,4,0:0:0:0:
277,120,210883,1,4,0:0:0:0:
298,130,210938,1,4,0:0:0:0:
318,144,210994,1,4,0:0:0:0:
333,163,211049,1,4,0:0:0:0:
344,184,211106,2,0,P|348:208|348:232,3,47.9999985351563,14|4|4|4,0:0|0:0|0:0|0:0,0:0:0:0:
444,244,211328,2,0,P|437:266|427:288,3,47.9999985351563,4|4|4|4,0:0|0:0|0:0|0:0,0:0:0:0:
352,340,211550,6,0,L|304:348,1,47.9999985351563,10|8,0:0|0:0,0:0:0:0:
276,268,211661,2,0,L|228:260,1,47.9999985351563,8|8,0:0|0:0,0:0:0:0:
160,348,211773,1,8,0:0:0:0:
148,348,211828,1,8,0:0:0:0:
136,349,211884,1,4,0:0:0:0:
124,350,211939,1,4,0:0:0:0:
112,351,211995,2,0,P|88:340|68:336,3,47.9999985351563,4|4|4|4,0:0|0:0|0:0|0:0,0:0:0:0:
96,252,212217,2,0,P|69:246|49:247,3,47.9999985351563,8|8|4|4,0:0|0:0|0:0|0:0,0:0:0:0:
248,208,212439,5,8,0:0:0:0:
268,181,212494,1,8,0:0:0:0:
270,148,212550,1,8,0:0:0:0:
255,119,212605,1,8,0:0:0:0:
227,102,212661,1,4,0:0:0:0:
194,103,212716,1,4,0:0:0:0:
166,121,212772,1,4,0:0:0:0:
153,152,212827,1,4,0:0:0:0:
158,184,212884,2,0,P|172:228|164:276,1,95.9999970703126,10|4,0:0|0:0,0:0:0:0:
352,340,213106,2,0,P|338:296|346:248,1,95.9999970703126,10|4,0:0|0:0,0:0:0:0:
424,100,213328,5,2,0:0:0:0:
463,97,213383,1,8,0:0:0:0:
496,118,213439,1,0,0:0:0:0:
509,155,213494,1,8,0:0:0:0:
498,193,213550,1,0,0:0:0:0:
466,216,213605,1,8,0:0:0:0:
427,216,213661,1,0,0:0:0:0:
396,192,213717,1,8,0:0:0:0:
372,160,213772,1,0,0:0:0:0:
335,144,213828,1,8,0:0:0:0:
296,149,213883,1,0,0:0:0:0:
264,172,213939,1,8,0:0:0:0:
248,208,213995,2,0,P|244:232|244:260,3,50,4|8|0|8,0:0|0:0|0:0|0:0,0:0:0:0:
120,296,214217,2,0,P|126:319|138:344,3,50,4|8|0|8,0:0|0:0|0:0|0:0,0:0:0:0:
27,206,214439,5,0,0:0:0:0:
19,167,214494,1,8,0:0:0:0:
30,129,214550,1,0,0:0:0:0:
58,101,214605,1,8,0:0:0:0:
96,89,214661,1,0,0:0:0:0:
135,96,214716,1,8,0:0:0:0:
166,121,214772,1,0,0:0:0:0:
204,136,214828,1,8,0:0:0:0:
244,128,214884,2,0,P|268:120|296:116,3,50,4|8|0|8,0:0|0:0|0:0|0:0,0:0:0:0:
396,192,215106,2,0,P|420:200|448:204,3,50,4|8|0|8,0:0|0:0|0:0|0:0,0:0:0:0:
456,56,215328,5,0,0:0:0:0:
424,35,215383,1,8,0:0:0:0:
388,27,215439,1,0,0:0:0:0:
351,35,215494,1,8,0:0:0:0:
320,55,215550,1,0,0:0:0:0:
288,75,215605,1,8,0:0:0:0:
252,82,215661,1,0,0:0:0:0:
215,74,215716,1,8,0:0:0:0:
184,54,215773,2,0,P|160:40|136:32,3,50,4|8|0|8,0:0|0:0|0:0|0:0,0:0:0:0:
112,176,215995,2,0,P|84:173|59:176,3,50,4|8|0|8,0:0|0:0|0:0|0:0,0:0:0:0:
212,304,216217,5,0,0:0:0:0:
239,332,216272,1,8,0:0:0:0:
276,343,216328,1,0,0:0:0:0:
315,334,216383,1,8,0:0:0:0:
343,306,216439,1,0,0:0:0:0:
353,268,216494,1,8,0:0:0:0:
343,230,216550,1,0,0:0:0:0:
314,202,216605,1,8,0:0:0:0:
276,193,216661,2,0,P|228:200|180:184,1,100,4|4,0:0|0:0,0:0:0:0:
184,54,216884,5,2,0:0:0:0:
203,38,216939,1,8,0:0:0:0:
226,28,216995,1,0,0:0:0:0:
251,27,217050,1,8,0:0:0:0:
275,34,217106,1,0,0:0:0:0:
295,47,217161,1,8,0:0:0:0:
311,67,217217,1,0,0:0:0:0:
319,90,217272,1,8,0:0:0:0:
320,115,217328,1,0,0:0:0:0:
320,139,217383,1,8,0:0:0:0:
329,163,217439,1,0,0:0:0:0:
344,182,217494,1,8,0:0:0:0:
365,196,217550,1,0,0:0:0:0:
389,203,217605,1,8,0:0:0:0:
414,201,217661,1,0,0:0:0:0:
437,192,217716,1,8,0:0:0:0:
456,176,217773,5,0,0:0:0:0:
467,154,217828,1,8,0:0:0:0:
471,130,217884,1,0,0:0:0:0:
467,105,217939,1,8,0:0:0:0:
456,83,217995,1,0,0:0:0:0:
439,65,218050,1,8,0:0:0:0:
417,54,218106,1,0,0:0:0:0:
392,50,218161,1,8,0:0:0:0:
368,53,218217,2,0,P|340:60|312:56,3,50,0|8|0|8,0:0|0:0|0:0|0:0,0:0:0:0:
240,160,218439,2,0,P|212:153|184:157,3,50,0|8|0|8,0:0|0:0|0:0|0:0,0:0:0:0:
128,280,218661,5,0,0:0:0:0:
81,296,218716,1,8,0:0:0:0:
35,278,218772,1,0,0:0:0:0:
11,236,218827,1,8,0:0:0:0:
20,187,218884,2,0,P|31:135|19:91,1,100,4|4,0:0|0:0,0:0:0:0:
128,280,219106,2,0,P|116:331|128:375,1,100,4|4,0:0|0:0,0:0:0:0:
168,136,219328,2,0,P|179:84|167:40,1,100,4|4,0:0|0:0,0:0:0:0:
276,229,219550,2,0,P|264:280|276:324,1,100,4|4,0:0|0:0,0:0:0:0:
321,69,219773,5,4,0:0:0:0:
368,53,219828,1,8,0:0:0:0:
414,71,219884,1,0,0:0:0:0:
438,113,219939,1,8,0:0:0:0:
420,160,219995,2,0,P|415:182|415:214,3,50,4|8|0|8,0:0|0:0|0:0|0:0,0:0:0:0:
340,280,220217,2,0,P|344:302|358:331,3,50,0|8|0|8,0:0|0:0|0:0|0:0,0:0:0:0:
216,316,220439,5,2,0:0:0:0:
180,333,220494,1,8,0:0:0:0:
141,331,220550,1,0,0:0:0:0:
107,309,220605,1,8,0:0:0:0:
89,274,220661,1,0,0:0:0:0:
90,235,220716,1,8,0:0:0:0:
111,201,220772,1,0,0:0:0:0:
145,182,220827,1,8,0:0:0:0:
185,182,220884,1,0,0:0:0:0:
224,190,220939,1,8,0:0:0:0:
261,175,220995,1,0,0:0:0:0:
285,144,221050,1,8,0:0:0:0:
289,105,221106,2,0,P|288:76|280:52,3,50,4|8|0|8,0:0|0:0|0:0|0:0,0:0:0:0:
224,190,221328,2,0,P|225:219|233:243,3,50,4|8|0|8,0:0|0:0|0:0|0:0,0:0:0:0:
124,100,221550,5,0,0:0:0:0:
84,105,221605,1,8,0:0:0:0:
52,129,221661,1,0,0:0:0:0:
34,164,221716,1,8,0:0:0:0:
34,203,221772,1,0,0:0:0:0:
52,239,221827,1,8,0:0:0:0:
84,262,221883,1,0,0:0:0:0:
123,268,221938,1,8,0:0:0:0:
160,256,221995,2,0,P|184:248|208:244,3,50,4|8|0|8,0:0|0:0|0:0|0:0,0:0:0:0:
320,304,222217,2,0,P|344:312|368:316,3,50,4|8|0|8,0:0|0:0|0:0|0:0,0:0:0:0:
480,260,222439,5,0,0:0:0:0:
492,225,222494,1,8,0:0:0:0:
487,188,222550,1,0,0:0:0:0:
464,159,222605,1,8,0:0:0:0:
430,144,222661,1,0,0:0:0:0:
396,129,222716,1,8,0:0:0:0:
373,99,222772,1,0,0:0:0:0:
367,63,222827,1,8,0:0:0:0:
380,28,222884,2,0,P|400:8|424:0,3,50,4|8|0|8,0:0|0:0|0:0|0:0,0:0:0:0:
328,160,223106,2,0,P|299:160|277:148,3,50,0|8|0|8,0:0|0:0|0:0|0:0,0:0:0:0:
192,72,223328,5,4,0:0:0:0:
146,52,223383,1,8,0:0:0:0:
96,54,223439,1,0,0:0:0:0:
52,76,223494,1,8,0:0:0:0:
20,114,223550,2,0,P|12:136|12:168,3,50,4|8|0|8,0:0|0:0|0:0|0:0,0:0:0:0:
84,262,223773,2,0,P|92:283|92:315,3,50,0|8|0|8,0:0|0:0|0:0|0:0,0:0:0:0:
218,233,223995,6,0,B|254:225|254:225|318:241,1,100,8|8,0:0|0:0,0:0:0:0:
324,236,224161,1,8,0:0:0:0:
332,232,224217,2,0,L|384:244,2,50,4|4|4,0:0|0:0|0:0,0:0:0:0:
396,129,224439,2,0,L|448:117,2,50,4|4|8,0:0|0:0|0:0,0:0:0:0:
296,52,224661,2,0,L|338:19,2,50,4|4|8,0:0|0:0|0:0,0:0:0:0:
224,152,224884,5,8,0:0:0:0:
193,165,224939,1,8,0:0:0:0:
161,161,224995,1,4,0:0:0:0:
134,141,225050,1,4,0:0:0:0:
122,111,225106,1,8,0:0:0:0:
126,79,225161,1,8,0:0:0:0:
146,53,225217,1,4,0:0:0:0:
176,40,225272,1,4,0:0:0:0:
208,49,225328,1,4,0:0:0:0:
226,75,225383,1,4,0:0:0:0:
224,108,225439,1,4,0:0:0:0:
201,132,225494,1,4,0:0:0:0:
169,136,225550,1,8,0:0:0:0:
138,144,225605,1,8,0:0:0:0:
119,170,225661,1,4,0:0:0:0:
121,203,225716,1,4,0:0:0:0:
143,226,225772,5,10,0:0:0:0:
288,192,225884,2,0,L|296:140,2,50,4|4|10,0:0|0:0|0:0,0:0:0:0:
376,324,226106,2,0,L|384:376,2,50,4|4|10,0:0|0:0|0:0,0:0:0:0:
412,177,226328,2,0,L|420:125,2,50,4|4|10,0:0|0:0|0:0,0:0:0:0:
280,316,226550,1,4,0:0:0:0:
270,318,226606,1,4,0:0:0:0:
260,320,226661,5,4,0:0:0:0:
250,321,226716,1,4,0:0:0:0:
241,323,226772,1,4,0:0:0:0:
232,324,226827,1,4,0:0:0:0:
222,326,226883,1,4,0:0:0:0:
213,327,226938,1,4,0:0:0:0:
204,329,226994,1,4,0:0:0:0:
195,330,227049,1,4,0:0:0:0:
185,332,227105,1,4,0:0:0:0:
176,333,227161,1,4,0:0:0:0:
167,335,227216,1,4,0:0:0:0:
158,336,227272,1,4,0:0:0:0:
148,338,227327,1,4,0:0:0:0:
139,339,227383,1,4,0:0:0:0:
130,341,227438,1,4,0:0:0:0:
121,342,227494,1,4,0:0:0:0:
111,344,227550,5,2,0:0:0:0:
79,336,227605,1,8,0:0:0:0:
55,313,227661,1,0,0:0:0:0:
46,282,227716,1,8,0:0:0:0:
53,250,227772,1,0,0:0:0:0:
75,226,227827,1,8,0:0:0:0:
107,216,227884,1,0,0:0:0:0:
138,205,227939,1,8,0:0:0:0:
160,181,227995,1,0,0:0:0:0:
167,149,228050,1,8,0:0:0:0:
158,118,228106,1,0,0:0:0:0:
134,95,228161,1,8,0:0:0:0:
102,88,228217,2,0,P|76:88|52:92,3,50,4|8|0|8,0:0|0:0|0:0|0:0,0:0:0:0:
232,180,228439,2,0,P|258:180|282:176,3,50,4|8|0|8,0:0|0:0|0:0|0:0,0:0:0:0:
352,48,228661,5,0,0:0:0:0:
378,25,228716,1,8,0:0:0:0:
412,20,228772,1,0,0:0:0:0:
444,34,228827,1,8,0:0:0:0:
464,62,228883,1,0,0:0:0:0:
466,97,228938,1,8,0:0:0:0:
450,127,228994,1,0,0:0:0:0:
420,145,229049,1,8,0:0:0:0:
386,144,229106,2,0,P|356:136|328:136,3,50,4|8|0|8,0:0|0:0|0:0|0:0,0:0:0:0:
272,248,229328,2,0,P|241:256|213:256,3,50,4|8|0|8,0:0|0:0|0:0|0:0,0:0:0:0:
76,200,229550,5,0,0:0:0:0:
45,173,229605,1,8,0:0:0:0:
36,133,229661,1,0,0:0:0:0:
54,96,229716,1,8,0:0:0:0:
91,78,229772,1,0,0:0:0:0:
131,86,229827,1,8,0:0:0:0:
158,116,229884,1,0,0:0:0:0:
187,143,229939,1,8,0:0:0:0:
226,146,229995,2,0,P|256:140|284:140,3,50,4|8|0|8,0:0|0:0|0:0|0:0,0:0:0:0:
152,272,230217,2,0,P|122:265|94:265,3,50,4|8|0|8,0:0|0:0|0:0|0:0,0:0:0:0:
272,336,230439,5,0,0:0:0:0:
300,349,230494,1,8,0:0:0:0:
331,351,230550,1,0,0:0:0:0:
361,343,230605,1,8,0:0:0:0:
386,326,230661,1,0,0:0:0:0:
405,301,230716,1,8,0:0:0:0:
413,271,230772,1,0,0:0:0:0:
411,240,230827,1,8,0:0:0:0:
399,211,230884,2,0,B|396:172|396:172|404:152|404:152|400:112,1,100,4|0,0:0|0:0,0:0:0:0:
312,20,231106,5,2,0:0:0:0:
289,30,231161,1,8,0:0:0:0:
265,35,231217,1,0,0:0:0:0:
240,34,231272,1,8,0:0:0:0:
216,28,231328,1,0,0:0:0:0:
193,17,231383,1,8,0:0:0:0:
169,14,231439,1,0,0:0:0:0:
144,19,231494,1,8,0:0:0:0:
123,31,231550,1,0,0:0:0:0:
106,50,231605,1,8,0:0:0:0:
97,73,231661,1,0,0:0:0:0:
95,98,231716,1,8,0:0:0:0:
101,122,231772,1,0,0:0:0:0:
115,143,231828,1,8,0:0:0:0:
135,158,231883,1,0,0:0:0:0:
158,166,231939,1,8,0:0:0:0:
183,167,231994,5,0,0:0:0:0:
207,159,232050,1,8,0:0:0:0:
227,144,232106,1,0,0:0:0:0:
244,126,232161,1,8,0:0:0:0:
265,113,232217,1,0,0:0:0:0:
289,106,232272,1,8,0:0:0:0:
314,105,232328,1,0,0:0:0:0:
338,111,232383,1,8,0:0:0:0:
360,123,232439,1,0,0:0:0:0:
378,140,232494,1,8,0:0:0:0:
391,161,232550,1,0,0:0:0:0:
399,185,232606,1,8,0:0:0:0:
400,210,232661,2,0,P|400:236|404:264,3,50,0|8|0|8,0:0|0:0|0:0|0:0,0:0:0:0:
304,200,232884,2,0,P|304:174|300:146,3,50,0|8|0|8,0:0|0:0|0:0|0:0,0:0:0:0:
224,304,233106,6,0,B|208:324|208:324|172:332|132:316,1,100,4|0,0:0|0:0,0:0:0:0:
256,96,233328,2,0,B|272:76|272:76|308:68|348:84,1,100,4|0,0:0|0:0,0:0:0:0:
56,256,233550,2,0,P|40:212|52:160,1,100,4|0,0:0|0:0,0:0:0:0:
304,200,233773,2,0,P|320:244|308:296,1,100,4|0,0:0|0:0,0:0:0:0:
156,128,233995,5,4,0:0:0:0:
152,103,234050,1,8,0:0:0:0:
148,78,234106,1,0,0:0:0:0:
144,53,234161,1,8,0:0:0:0:
140,29,234217,2,0,L|92:16,3,50,4|8|0|8,0:0|0:0|0:0|0:0,0:0:0:0:
256,96,234439,2,0,L|304:109,3,50,0|8|0|8,0:0|0:0|0:0|0:0,0:0:0:0:
136,204,234661,5,2,0:0:0:0:
125,235,234716,1,8,0:0:0:0:
127,268,234772,1,0,0:0:0:0:
139,299,234827,1,8,0:0:0:0:
161,324,234883,1,0,0:0:0:0:
190,340,234938,1,8,0:0:0:0:
223,345,234994,1,0,0:0:0:0:
255,338,235049,1,8,0:0:0:0:
284,321,235105,1,0,0:0:0:0:
305,295,235161,1,8,0:0:0:0:
316,264,235216,1,0,0:0:0:0:
315,231,235272,1,8,0:0:0:0:
304,200,235328,2,0,P|296:168|296:144,3,50,4|8|0|8,0:0|0:0|0:0|0:0,0:0:0:0:
220,256,235550,2,0,P|228:288|228:312,3,50,4|8|0|8,0:0|0:0|0:0|0:0,0:0:0:0:
136,204,235773,5,0,0:0:0:0:
113,192,235828,1,8,0:0:0:0:
90,184,235884,1,0,0:0:0:0:
65,180,235939,1,8,0:0:0:0:
40,179,235995,1,0,0:0:0:0:
36,155,236050,1,8,0:0:0:0:
27,131,236106,1,0,0:0:0:0:
16,109,236161,1,8,0:0:0:0:
1,89,236217,2,0,P|4:60|0:32,3,50,4|8|0|8,0:0|0:0|0:0|0:0,0:0:0:0:
122,98,236439,2,0,P|136:72|145:45,3,50,4|8|0|8,0:0|0:0|0:0|0:0,0:0:0:0:
200,168,236661,5,0,0:0:0:0:
229,190,236716,1,8,0:0:0:0:
265,200,236772,1,0,0:0:0:0:
302,195,236827,1,8,0:0:0:0:
334,177,236884,1,0,0:0:0:0:
366,158,236939,1,8,0:0:0:0:
403,153,236995,1,0,0:0:0:0:
439,163,237050,1,8,0:0:0:0:
468,186,237106,2,0,B|484:224|484:224|472:284,1,100,4|0,0:0|0:0,0:0:0:0:
316,348,237328,6,0,B|280:352|280:352|252:344|252:344|216:348,1,100,4|4,0:0|0:0,0:0:0:0:
208,344,237495,1,4,0:0:0:0:
200,340,237550,1,8,0:0:0:0:
192,336,237606,1,8,0:0:0:0:
184,332,237661,1,4,0:0:0:0:
176,328,237717,1,4,0:0:0:0:
168,324,237773,2,0,L|156:276,2,50,4|4|4,0:0|0:0|0:0,0:0:0:0:
229,190,237995,5,8,0:0:0:0:
232,178,238050,1,8,0:0:0:0:
234,166,238106,1,4,0:0:0:0:
237,153,238161,1,4,0:0:0:0:
239,141,238217,5,2,0:0:0:0:
217,152,238272,1,4,0:0:0:0:
192,155,238328,1,4,0:0:0:0:
167,152,238383,1,4,0:0:0:0:
145,142,238439,1,4,0:0:0:0:
126,126,238494,1,4,0:0:0:0:
112,105,238550,1,4,0:0:0:0:
98,84,238605,1,4,0:0:0:0:
77,72,238661,1,6,0:0:0:0:
52,69,238716,1,4,0:0:0:0:
29,77,238772,1,4,0:0:0:0:
11,95,238827,1,4,0:0:0:0:
2,118,238883,1,4,0:0:0:0:
4,142,238938,1,4,0:0:0:0:
16,164,238994,1,4,0:0:0:0:
36,179,239050,1,4,0:0:0:0:
60,184,239106,5,6,0:0:0:0:
84,183,239161,1,4,0:0:0:0:
107,192,239217,1,4,0:0:0:0:
125,209,239272,1,4,0:0:0:0:
135,232,239328,1,4,0:0:0:0:
135,257,239383,1,4,0:0:0:0:
126,280,239439,1,4,0:0:0:0:
108,297,239494,1,4,0:0:0:0:
85,307,239550,1,6,0:0:0:0:
60,306,239606,1,4,0:0:0:0:
37,296,239661,1,4,0:0:0:0:
20,278,239717,1,4,0:0:0:0:
11,255,239773,2,0,P|8:228|12:204,2,50,4|4|4,0:0|0:0|0:0,0:0:0:0:
19,354,239995,6,0,P|72:348|120:352,1,100,10|4,0:0|0:0,0:0:0:0:
380,280,240217,2,0,P|327:286|279:282,1,100,4|4,0:0|0:0,0:0:0:0:
196,180,240439,5,8,0:0:0:0:
194,167,240494,1,8,0:0:0:0:
192,155,240550,1,8,0:0:0:0:
190,142,240605,1,8,0:0:0:0:
220,120,240661,1,4,0:0:0:0:
221,107,240716,1,4,0:0:0:0:
223,95,240772,1,4,0:0:0:0:
225,82,240827,1,4,0:0:0:0:
200,52,240884,6,0,P|180:44|152:40,3,50,8|8|4|4,0:0|0:0|0:0|0:0,0:0:0:0:
56,88,241106,1,8,0:0:0:0:
46,110,241161,1,8,0:0:0:0:
46,135,241217,1,8,0:0:0:0:
57,158,241272,1,8,0:0:0:0:
75,175,241328,2,0,L|88:224,3,50,8|8|4|4,0:0|0:0|0:0|0:0,0:0:0:0:
168,264,241550,1,4,0:0:0:0:
177,286,241605,1,4,0:0:0:0:
177,311,241661,1,4,0:0:0:0:
166,334,241716,1,4,0:0:0:0:
148,351,241773,6,0,L|100:364,7,47.9999985351563,2|8|0|8|0|8|0|8,0:0|0:0|0:0|0:0|0:0|0:0|0:0|0:0,0:0:0:0:
52,248,242217,2,0,L|4:235,7,47.9999985351563,0|8|0|8|0|8|0|8,0:0|0:0|0:0|0:0|0:0|0:0|0:0|0:0,0:0:0:0:
156,176,242661,2,0,P|164:148|164:128,3,47.9999985351563,0|8|0|8,0:0|0:0|0:0|0:0,0:0:0:0:
88,68,242884,2,0,P|80:40|80:20,3,47.9999985351563,0|8|0|8,0:0|0:0|0:0|0:0,0:0:0:0:
224,84,243106,5,0,0:0:0:0:
257,95,243161,1,8,0:0:0:0:
293,96,243217,1,0,0:0:0:0:
327,85,243272,1,8,0:0:0:0:
356,63,243328,2,0,P|384:48|408:40,3,47.9999985351563,0|8|0|8,0:0|0:0|0:0|0:0,0:0:0:0:
288,197,243550,1,0,0:0:0:0:
254,208,243605,1,8,0:0:0:0:
218,209,243661,1,0,0:0:0:0:
184,198,243716,1,8,0:0:0:0:
156,176,243772,2,0,P|128:160|104:152,3,47.9999985351563,0|8|0|8,0:0|0:0|0:0|0:0,0:0:0:0:
108,268,243995,5,0,0:0:0:0:
119,289,244050,1,8,0:0:0:0:
127,311,244106,1,0,0:0:0:0:
133,334,244161,1,8,0:0:0:0:
135,358,244217,2,0,L|180:376,3,47.9999985351563,0|8|0|8,0:0|0:0|0:0|0:0,0:0:0:0:
248,300,244439,2,0,L|292:282,3,47.9999985351563,0|8|0|8,0:0|0:0|0:0|0:0,0:0:0:0:
352,364,244661,2,0,L|396:381,3,47.9999985351563,0|8|0|8,0:0|0:0|0:0|0:0,0:0:0:0:
464,305,244883,2,0,L|508:287,3,47.9999985351563,0|8|0|8,0:0|0:0|0:0|0:0,0:0:0:0:
404,208,245106,1,0,0:0:0:0:
392,186,245161,1,8,0:0:0:0:
384,164,245217,1,0,0:0:0:0:
378,141,245272,1,8,0:0:0:0:
376,117,245328,5,2,0:0:0:0:
345,136,245383,1,8,0:0:0:0:
310,144,245439,1,0,0:0:0:0:
275,138,245494,1,8,0:0:0:0:
244,120,245550,1,0,0:0:0:0:
213,101,245605,1,8,0:0:0:0:
177,95,245661,1,0,0:0:0:0:
142,103,245716,1,8,0:0:0:0:
112,122,245773,2,0,P|92:128|64:132,3,47.9999985351563,0|8|0|8,0:0|0:0|0:0|0:0,0:0:0:0:
180,200,245995,2,0,P|200:194|228:190,3,47.9999985351563,0|8|0|8,0:0|0:0|0:0|0:0,0:0:0:0:
104,284,246217,5,0,0:0:0:0:
112,318,246272,1,8,0:0:0:0:
139,341,246328,1,0,0:0:0:0:
174,345,246383,1,8,0:0:0:0:
206,329,246439,2,0,P|228:320|252:316,3,47.9999985351563,0|8|0|8,0:0|0:0|0:0|0:0,0:0:0:0:
352,344,246661,1,0,0:0:0:0:
386,353,246716,1,8,0:0:0:0:
421,348,246772,1,0,0:0:0:0:
451,329,246827,1,8,0:0:0:0:
471,300,246884,2,0,P|476:272|472:248,3,47.9999985351563,0|8|0|8,0:0|0:0|0:0|0:0,0:0:0:0:
357,151,247106,6,0,L|309:143,3,47.9999985351563,0|8|0|8,0:0|0:0|0:0|0:0,0:0:0:0:
288,248,247328,2,0,L|240:256,3,47.9999985351563,0|8|0|8,0:0|0:0|0:0|0:0,0:0:0:0:
190,111,247550,2,0,L|142:103,3,47.9999985351563,0|8|0|8,0:0|0:0|0:0|0:0,0:0:0:0:
121,208,247772,2,0,L|73:216,3,47.9999985351563,0|8|0|8,0:0|0:0|0:0|0:0,0:0:0:0:
48,76,247995,5,0,0:0:0:0:
62,57,248050,1,8,0:0:0:0:
81,41,248106,1,0,0:0:0:0:
102,30,248161,1,8,0:0:0:0:
125,24,248217,1,0,0:0:0:0:
149,22,248272,1,8,0:0:0:0:
173,26,248328,1,0,0:0:0:0:
195,34,248383,1,8,0:0:0:0:
215,47,248439,1,0,0:0:0:0:
235,59,248494,1,8,0:0:0:0:
257,68,248550,1,0,0:0:0:0:
281,71,248605,1,8,0:0:0:0:
305,70,248661,1,0,0:0:0:0:
328,64,248716,1,8,0:0:0:0:
349,52,248772,1,0,0:0:0:0:
367,37,248827,1,8,0:0:0:0:
382,18,248884,6,0,P|408:20|436:16,3,47.9999985351563,2|8|0|8,0:0|0:0|0:0|0:0,0:0:0:0:
428,128,249106,2,0,P|450:139|477:148,3,47.9999985351563,0|8|0|8,0:0|0:0|0:0|0:0,0:0:0:0:
372,228,249328,1,0,0:0:0:0:
340,244,249383,1,8,0:0:0:0:
304,247,249439,1,0,0:0:0:0:
270,235,249494,1,8,0:0:0:0:
244,212,249550,1,0,0:0:0:0:
217,188,249605,1,8,0:0:0:0:
183,176,249661,1,0,0:0:0:0:
147,179,249716,1,8,0:0:0:0:
116,196,249773,6,0,L|112:244,3,47.9999985351563,0|8|0|8,0:0|0:0|0:0|0:0,0:0:0:0:
44,128,249995,1,0,0:0:0:0:
43,116,250050,1,8,0:0:0:0:
42,104,250106,1,0,0:0:0:0:
41,92,250161,1,8,0:0:0:0:
40,80,250217,2,0,L|44:32,3,47.9999985351563,0|8|0|8,0:0|0:0|0:0|0:0,0:0:0:0:
160,88,250439,5,0,0:0:0:0:
192,103,250494,1,0,0:0:0:0:
227,107,250550,1,0,0:0:0:0:
262,99,250605,1,0,0:0:0:0:
292,79,250661,1,0,0:0:0:0:
321,59,250716,1,0,0:0:0:0:
356,50,250772,1,0,0:0:0:0:
392,54,250827,1,0,0:0:0:0:
424,70,250884,2,0,P|452:80|472:80,3,47.9999985351563,0|8|0|8,0:0|0:0|0:0|0:0,0:0:0:0:
424,192,251106,2,0,P|445:212|463:220,3,47.9999985351563,0|8|0|8,0:0|0:0|0:0|0:0,0:0:0:0:
284,192,251328,5,0,0:0:0:0:
248,197,251383,1,8,0:0:0:0:
215,212,251439,1,0,0:0:0:0:
188,235,251494,1,8,0:0:0:0:
169,265,251550,2,0,P|164:288|168:320,3,47.9999985351563,0|8|0|8,0:0|0:0|0:0|0:0,0:0:0:0:
252,376,251773,1,0,0:0:0:0:
287,377,251828,1,8,0:0:0:0:
315,355,251884,1,0,0:0:0:0:
322,320,251939,1,8,0:0:0:0:
305,289,251995,2,0,P|292:264|288:240,3,47.9999985351563,0|8|0|8,0:0|0:0|0:0|0:0,0:0:0:0:
356,168,252217,2,0,P|357:138|351:115,3,47.9999985351563,0|8|0|8,0:0|0:0|0:0|0:0,0:0:0:0:
252,32,252439,5,2,0:0:0:0:
225,17,252494,1,8,0:0:0:0:
196,15,252550,1,0,0:0:0:0:
168,25,252605,1,8,0:0:0:0:
147,46,252661,1,0,0:0:0:0:
136,74,252716,1,8,0:0:0:0:
138,104,252772,1,0,0:0:0:0:
152,130,252827,1,8,0:0:0:0:
175,148,252884,2,0,P|200:156|224:156,3,47.9999985351563,0|8|0|8,0:0|0:0|0:0|0:0,0:0:0:0:
320,96,253106,2,0,P|344:88|368:88,3,47.9999985351563,0|8|0|8,0:0|0:0|0:0|0:0,0:0:0:0:
464,160,253328,5,0,0:0:0:0:
474,181,253383,1,8,0:0:0:0:
480,204,253439,1,0,0:0:0:0:
479,228,253494,1,8,0:0:0:0:
456,260,253550,1,0,0:0:0:0:
445,281,253605,1,8,0:0:0:0:
439,304,253661,1,0,0:0:0:0:
440,328,253716,1,8,0:0:0:0:
456,364,253773,2,0,L|504:376,3,47.9999985351563,0|8|0|8,0:0|0:0|0:0|0:0,0:0:0:0:
352,301,253995,2,0,L|304:289,3,47.9999985351563,0|8|0|8,0:0|0:0|0:0|0:0,0:0:0:0:
200,344,254217,5,8,0:0:0:0:
188,345,254272,1,8,0:0:0:0:
176,347,254328,1,8,0:0:0:0:
164,349,254383,1,8,0:0:0:0:
152,351,254439,2,0,L|124:312,1,47.9999985351563,4|4,0:0|0:0,0:0:0:0:
160,212,254550,1,8,0:0:0:0:
161,200,254605,1,8,0:0:0:0:
163,188,254661,1,4,0:0:0:0:
165,176,254716,1,4,0:0:0:0:
167,164,254773,2,0,L|216:172,1,47.9999985351563,4|4,0:0|0:0,0:0:0:0:
312,212,254884,1,8,0:0:0:0:
335,217,254939,1,8,0:0:0:0:
359,216,254995,1,4,0:0:0:0:
381,207,255050,1,4,0:0:0:0:
399,192,255106,6,0,L|408:144,1,47.9999985351563,4|4,0:0|0:0,0:0:0:0:
376,52,255217,2,0,B|352:28|352:28|288:36,1,95.9999970703126,4|4,0:0|0:0,0:0:0:0:
156,52,255439,1,4,0:0:0:0:
156,52,255495,1,4,0:0:0:0:
156,52,255550,5,10,0:0:0:0:
352,301,255773,1,10,0:0:0:0:
352,301,256884,6,0,L|300:312,3,51.999997619629,8|4|4|4,0:0|0:0|0:0|0:0,0:0:0:0:
176,240,257106,2,0,L|228:229,3,51.999997619629,8|4|4|4,0:0|0:0|0:0|0:0,0:0:0:0:
332,113,257328,2,0,L|280:124,3,51.999997619629,8|4|4|4,0:0|0:0|0:0|0:0,0:0:0:0:
156,52,257550,2,0,L|208:41,3,51.999997619629,8|4|4|4,0:0|0:0|0:0|0:0,0:0:0:0:
352,180,257773,6,0,B|360:204|360:204|340:244|288:248,1,111.999996582031,10|0,0:0|0:0,0:0:0:0:
20,128,257995,2,0,B|12:104|12:104|32:64|84:60,1,111.999996582031
352,301,258217,2,0,B|360:325|360:325|340:365|288:369,1,111.999996582031,10|0,0:0|0:0,0:0:0:0:
20,249,258439,2,0,B|12:225|12:225|32:185|84:181,1,111.999996582031
332,113,258661,6,0,P|348:57|324:9,1,111.999996582031,10|0,0:0|0:0,0:0:0:0:
75,78,258884,2,0,P|59:134|83:182,1,111.999996582031
352,301,259106,2,0,P|368:245|344:197,1,111.999996582031,10|0,0:0|0:0,0:0:0:0:
95,266,259329,2,0,P|79:322|103:370,1,111.999996582031
412,164,259550,6,0,B|416:124|416:124|404:92|404:92|408:52,1,111.999996582031,10|0,0:0|0:0,0:0:0:0:
180,236,259773,2,0,B|184:276|184:276|172:308|172:308|176:348,1,111.999996582031
260,112,259995,2,0,B|264:72|264:72|252:40|252:40|256:0,1,111.999996582031,10|0,0:0|0:0,0:0:0:0:
28,184,260218,2,0,B|32:224|32:224|20:256|20:256|24:296,1,111.999996582031
352,301,260439,6,0,P|412:305|460:325,1,111.999996582031,10|0,0:0|0:0,0:0:0:0:
180,236,260661,2,0,P|120:232|72:212,1,111.999996582031
354,166,260884,2,0,P|414:170|462:190,1,111.999996582031,10|0,0:0|0:0,0:0:0:0:
182,101,261106,2,0,P|122:97|74:77,1,111.999996582031
412,108,261328,5,10,0:0:0:0:
428,130,261383,1,0,0:0:0:0:
435,157,261439,1,0,0:0:0:0:
433,185,261494,1,0,0:0:0:0:
422,210,261550,1,0,0:0:0:0:
403,230,261605,1,0,0:0:0:0:
378,243,261661,1,0,0:0:0:0:
350,246,261716,1,0,0:0:0:0:
323,239,261773,2,0,P|296:232|268:232,3,55.9999982910157,10|0|0|0,0:0|0:0|0:0|0:0,0:0:0:0:
216,312,261995,2,0,P|188:319|160:319,3,55.9999982910157
64,236,262217,5,10,0:0:0:0:
62,222,262272,1,0,0:0:0:0:
60,208,262328,1,0,0:0:0:0:
58,194,262383,1,0,0:0:0:0:
56,180,262439,1,0,0:0:0:0:
54,166,262494,1,0,0:0:0:0:
52,152,262550,1,0,0:0:0:0:
50,138,262605,1,0,0:0:0:0:
48,125,262661,2,0,L|104:112,3,55.9999982910157,10|8|4|4,0:0|0:0|0:0|0:0,0:0:0:0:
212,172,262884,2,0,L|156:185,3,55.9999982910157,8|8|4|4,0:0|0:0|0:0|0:0,0:0:0:0:
292,83,263106,5,10,0:0:0:0:
310,73,263161,1,4,0:0:0:0:
330,67,263217,1,14,0:0:0:0:
351,67,263272,1,4,0:0:0:0:
372,71,263328,1,14,0:0:0:0:
390,81,263383,1,4,0:0:0:0:
407,94,263439,1,14,0:0:0:0:
419,111,263494,1,4,0:0:0:0:
427,130,263550,5,14,0:0:0:0:
429,151,263605,1,4,0:0:0:0:
425,171,263661,1,14,0:0:0:0:
414,189,263716,1,4,0:0:0:0:
398,203,263772,1,14,0:0:0:0:
379,211,263827,1,4,0:0:0:0:
358,212,263883,1,14,0:0:0:0:
338,207,263938,1,4,0:0:0:0:
320,196,263995,5,14,0:0:0:0:
303,184,264050,1,4,0:0:0:0:
283,179,264106,1,14,0:0:0:0:
262,181,264161,1,4,0:0:0:0:
243,189,264217,1,14,0:0:0:0:
228,204,264272,1,4,0:0:0:0:
219,223,264328,1,14,0:0:0:0:
217,244,264383,1,4,0:0:0:0:
222,264,264439,5,14,0:0:0:0:
231,283,264494,1,4,0:0:0:0:
246,297,264550,1,14,0:0:0:0:
265,306,264605,1,4,0:0:0:0:
286,307,264661,1,14,0:0:0:0:
306,302,264716,1,4,0:0:0:0:
323,289,264772,1,14,0:0:0:0:
334,272,264827,1,4,0:0:0:0:
341,252,264884,5,14,0:0:0:0:
340,231,264939,1,4,0:0:0:0:
334,211,264995,1,14,0:0:0:0:
320,195,265050,1,4,0:0:0:0:
303,183,265106,1,14,0:0:0:0:
283,178,265161,1,4,0:0:0:0:
262,181,265217,1,14,0:0:0:0:
243,189,265272,1,4,0:0:0:0:
228,204,265328,5,14,0:0:0:0:
212,217,265383,1,4,0:0:0:0:
192,225,265439,1,14,0:0:0:0:
172,227,265494,1,4,0:0:0:0:
151,223,265550,1,14,0:0:0:0:
133,213,265605,1,4,0:0:0:0:
119,197,265661,1,14,0:0:0:0:
110,178,265716,1,4,0:0:0:0:
108,157,265773,5,14,0:0:0:0:
109,137,265828,1,4,0:0:0:0:
117,117,265884,1,14,0:0:0:0:
131,102,265939,1,4,0:0:0:0:
150,92,265995,1,14,0:0:0:0:
171,89,266050,1,4,0:0:0:0:
191,93,266106,1,14,0:0:0:0:
209,103,266161,1,4,0:0:0:0:
223,119,266217,5,14,0:0:0:0:
236,134,266272,1,4,0:0:0:0:
254,145,266328,1,14,0:0:0:0:
275,148,266383,1,4,0:0:0:0:
296,145,266439,1,14,0:0:0:0:
314,135,266494,1,4,0:0:0:0:
328,120,266550,1,14,0:0:0:0:
336,101,266605,1,4,0:0:0:0:
338,80,266661,6,0,B|332:52|332:52|320:28,3,55.9999982910157,10|4|14|4,0:0|0:0|0:0|0:0,0:0:0:0:
223,119,266884,2,0,B|229:147|229:147|241:171,3,55.9999982910157,14|4|14|4,0:0|0:0|0:0|0:0,0:0:0:0:
124,68,267106,2,0,B|118:40|118:40|106:16,3,55.9999982910157,14|4|14|4,0:0|0:0|0:0|0:0,0:0:0:0:
9,107,267329,2,0,B|15:135|15:135|27:159,3,55.9999982910157,14|4|14|4,0:0|0:0|0:0|0:0,0:0:0:0:
144,268,267550,5,14,0:0:0:0:
153,301,267605,1,4,0:0:0:0:
144,334,267661,1,14,0:0:0:0:
118,356,267716,1,4,0:0:0:0:
84,361,267772,1,14,0:0:0:0:
52,346,267827,1,4,0:0:0:0:
34,317,267883,1,14,0:0:0:0:
35,283,267938,1,4,0:0:0:0:
54,254,267995,2,0,P|63:227|63:199,3,55.9999982910157,14|4|14|4,0:0|0:0|0:0|0:0,0:0:0:0:
133,122,268217,2,0,P|123:95|123:67,3,55.9999982910157,14|4|14|4,0:0|0:0|0:0|0:0,0:0:0:0:
223,119,268439,5,8,0:0:0:0:
251,149,268494,1,8,0:0:0:0:
263,189,268550,1,8,0:0:0:0:
256,230,268605,1,8,0:0:0:0:
230,263,268661,2,0,P|220:288|216:320,3,55.9999982910157,4|4|4|4,0:0|0:0|0:0|0:0,0:0:0:0:
88,200,268884,5,8,0:0:0:0:
59,169,268939,1,8,0:0:0:0:
47,129,268995,1,4,0:0:0:0:
54,88,269050,1,4,0:0:0:0:
80,55,269106,2,0,P|90:30|94:-1,3,55.9999982910157,4|4|4|4,0:0|0:0|0:0|0:0,0:0:0:0:
223,119,269328,5,8,0:0:0:0:
264,125,269383,1,8,0:0:0:0:
304,115,269439,1,4,0:0:0:0:
336,89,269494,1,4,0:0:0:0:
355,52,269550,2,0,P|376:32|400:20,3,55.9999982910157,4|4|4|4,0:0|0:0|0:0|0:0,0:0:0:0:
392,172,269773,5,8,0:0:0:0:
385,214,269828,1,8,0:0:0:0:
395,254,269884,1,4,0:0:0:0:
421,286,269939,1,4,0:0:0:0:
458,305,269995,2,0,P|478:325|490:349,3,55.9999982910157,4|4|4|4,0:0|0:0|0:0|0:0,0:0:0:0:
320,360,270217,6,0,B|280:368|280:368|252:344|208:336,1,120,8|0,0:0|2:0,0:0:0:0:
