osu file format v14

[General]
AudioFilename: Song.mp3
AudioLeadIn: 0
PreviewTime: 46157
Countdown: 0
SampleSet: Soft
StackLeniency: 0.8
Mode: 0
LetterboxInBreaks: 0
StoryFireInFront: 0
EpilepsyWarning: 1
WidescreenStoryboard: 1
SamplesMatchPlaybackRate: 1

[Editor]
Bookmarks: 76398,82398,85221,88045,90869,114869,116280,126163,128986,131810,140280,145927,151574,161457,186869,187927
DistanceSpacing: 1
BeatDivisor: 4
GridSize: 4
TimelineZoom: 2.2

[Metadata]
Title:Karakurenai feat. Ranko
TitleUnicode:からくれない feat. ランコ
Artist:UNDEAD CORPORATION
ArtistUnicode:UNDEAD CORPORATION
Creator:Trent83
Version:Insane
Source:東方Project
Tags:Touhou toho complete box Comiket85 特 SPECIAL Yuugi Hoshiguma subterranean animism buta-otome 豚乙女 パインツリー Pinetree chireiden Crimson zun team shanghai alice パイン Dannine Dann9 MokouSmoke [HiiroSakaki] HiiroSakaki Daniel Nanners [-Matt-] -Matt- Matt Trent83 trent83 taiko Storyboard Firstmap 1stmap
BeatmapID:949861
BeatmapSetID:425723

[Difficulty]
HPDrainRate:7
CircleSize:4
OverallDifficulty:8
ApproachRate:9
SliderMultiplier:1.2
SliderTickRate:1

[Events]
//Background and Video events
0,0,"bg.png",0,0
//Break Periods
2,128945,130263
2,151533,160616
//Storyboard Layer 0 (Background)
//Storyboard Layer 1 (Fail)
//Storyboard Layer 2 (Pass)
//Storyboard Layer 3 (Foreground)
//Storyboard Sound Samples

[TimingPoints]
12981,352.941176470588,4,2,2,60,1,0
12981,-133.333333333333,4,2,2,60,0,0
36275,-133.333333333333,4,2,2,60,0,0
46863,-66.6666666666667,4,1,0,60,0,1
56745,-100,4,2,2,60,0,0
58157,-66.6666666666667,4,1,0,60,0,1
68745,-100,4,3,1,60,0,0
76157,-100,4,1,0,60,0,0
82157,-100,4,2,2,60,0,0
90628,-100,4,3,1,60,0,0
104745,-66.6666666666667,4,1,1,60,0,1
114628,-100,4,2,2,60,0,0
116039,-66.6666666666667,4,2,1,60,0,1
125569,-100,4,1,0,60,0,0
131569,-100,4,3,1,60,0,0
134039,-100,4,1,0,60,0,0
140039,-100,4,3,1,60,0,0
149922,-100,4,2,2,60,0,0
161922,-100,4,2,2,60,0,0
162628,-66.6666666666667,4,1,1,60,0,1
164039,-66.6666666666667,4,3,1,60,0,1
165451,-66.6666666666667,4,1,1,60,0,1
172510,-100,4,1,0,60,0,0
173216,-100,4,2,2,60,0,0
173922,-66.6666666666667,4,3,1,60,0,1
183804,-100,4,1,0,60,0,0
185216,-100,4,3,1,60,0,0

[Colours]
Combo1 : 145,0,0
Combo2 : 114,14,79
Combo3 : 66,55,72
Combo4 : 244,0,6

[HitObjects]
140,80,12981,6,0,B|96:96|96:96|60:140,1,90.0000034332277,2|0,0:0|0:0,0:0:0:0:
124,200,13686,2,0,B|168:184|168:184|204:140,1,90.0000034332277,2|0,0:0|0:0,0:0:0:0:
236,68,14392,1,8,0:0:0:0:
292,172,14569,1,0,0:0:0:0:
188,124,14745,1,8,0:0:0:0:
300,100,14922,1,0,0:0:0:0:
220,188,15098,2,8,B|204:228|204:228|224:284,1,90.0000034332277
156,336,15804,2,0,B|139:350|99:334|99:334|67:334,1,90.0000034332277,2|0,0:0|0:0,0:0:0:0:
96,248,16510,2,0,B|112:233|152:249|152:249|184:249,1,90.0000034332277,2|0,0:0|0:0,0:0:0:0:
268,216,17216,5,8,0:0:0:0:
385,223,17393,1,0,0:0:0:0:
290,286,17569,1,8,0:0:0:0:
329,178,17746,1,0,0:0:0:0:
360,292,17922,2,8,B|349:337|349:337|370:375,1,90.0000034332277
280,384,18628,2,0,B|240:384|240:384|224:360|188:360,1,90.0000034332277,2|0,0:0|0:0,0:0:0:0:
144,288,19333,2,0,B|184:288|184:288|200:264|236:264,1,90.0000034332277,2|0,0:0|0:0,0:0:0:0:
300,212,20039,5,8,0:0:0:0:
232,112,20216,1,0,0:0:0:0:
344,152,20392,1,8,0:0:0:0:
232,184,20569,1,0,0:0:0:0:
304,92,20745,2,8,B|296:52|296:52|304:16|280:0,1,90.0000034332277
196,20,21451,2,0,L|132:108,1,90.0000034332277,2|0,0:0|0:0,0:0:0:0:
96,168,22157,1,2,0:0:0:0:
124,256,22510,6,4,L|144:296,1,45.0000017166138
256,192,22863,12,0,23922,0:0:0:0:
300,88,24275,6,2,L|364:152,1,90.0000034332277,2|0,0:0|0:0,0:0:0:0:
364,240,24980,2,2,P|407:230|442:201,1,90.0000034332277,2|0,0:0|0:0,0:0:0:0:
363,151,25686,5,8,0:0:0:0:
265,217,25863,1,0,0:0:0:0:
380,220,26039,1,8,0:0:0:0:
289,149,26216,1,0,0:0:0:0:
320,267,26392,2,8,B|323:310|323:310|365:352,1,90.0000034332277
400,264,27098,2,2,B|434:233|434:233|434:189,1,90.0000034332277,2|0,0:0|0:0,0:0:0:0:
344,184,27804,2,2,B|309:153|309:153|309:109,1,90.0000034332277,2|0,0:0|0:0,0:0:0:0:
376,48,28510,5,8,0:0:0:0:
416,104,28687,1,0,0:0:0:0:
392,168,28863,1,8,0:0:0:0:
324,168,29040,1,0,0:0:0:0:
284,112,29216,2,8,P|260:140|264:204,1,90.0000034332277
336,236,29922,2,2,P|368:268|380:316,1,90.0000034332277,2|0,0:0|0:0,0:0:0:0:
288,312,30628,2,2,L|188:312,1,90.0000034332277,2|0,0:0|0:0,0:0:0:0:
116,280,31333,6,0,L|92:240,1,45.0000017166138,8|0,0:0|0:0,0:0:0:0:
112,200,31686,2,0,L|92:156,1,45.0000017166138,8|0,0:0|0:0,0:0:0:0:
48,152,32039,2,8,P|26:113|29:68,1,90.0000034332277
116,96,32745,2,0,L|156:60,1,45.0000017166138
192,52,33098,2,0,L|256:52,1,45.0000017166138
284,56,33451,2,0,L|316:96,1,45.0000017166138
316,136,33804,2,0,L|316:188,1,45.0000017166138
300,224,34157,2,0,B|276:248|288:284|288:284|256:268|216:248|172:260|172:260,1,180.000006866455
96,296,35216,5,4,0:0:0:0:
177,258,35569,2,0,L|233:230,1,45.0000017166138
268,216,35922,2,0,L|324:188,1,45.0000017166138
336,153,36275,1,2,0:0:0:0:
232,120,36628,2,0,L|241:164,1,45.0000017166138
284,220,36980,2,0,P|344:160|316:60,1,180.000006866455,8|0,0:0|0:0,0:0:0:0:
240,56,38039,2,0,L|176:44,1,45.0000017166138
204,152,38392,5,4,0:0:0:0:
280,200,38569,1,0,0:0:0:0:
368,188,38745,1,0,0:0:0:0:
444,144,38922,1,0,0:0:0:0:
472,60,39098,1,2,0:0:0:0:
232,92,39451,1,0,0:0:0:0:
320,100,39804,2,0,P|280:168|180:164,1,180.000006866455,8|0,0:0|0:0,0:0:0:0:
232,92,40863,1,4,0:0:0:0:
148,252,41216,5,8,0:0:0:0:
232,220,41392,1,0,0:0:0:0:
284,144,41569,1,0,0:0:0:0:
268,56,41745,1,0,0:0:0:0:
184,28,41922,1,0,0:0:0:0:
104,64,42098,1,0,0:0:0:0:
72,148,42275,1,0,0:0:0:0:
108,232,42451,1,0,0:0:0:0:
200,228,42628,1,0,0:0:0:0:
336,100,42980,1,0,0:0:0:0:
224,248,43333,1,0,0:0:0:0:
308,88,43686,1,0,0:0:0:0:
264,168,44039,2,0,P|228:208|216:252,1,90.0000034332277
292,296,44745,2,0,P|328:268|344:216,1,90.0000034332277
256,216,45451,6,0,P|217:194|194:156,1,90.0000034332277,4|0,0:0|0:0,0:0:0:0:
284,136,46157,2,0,L|320:88,1,45.0000017166138
352,120,46510,2,0,L|392:68,1,45.0000017166138
360,28,46863,5,2,0:0:0:0:
200,108,47216,1,0,0:0:0:0:
316,248,47393,1,0,0:0:0:0:
140,212,47569,1,0,0:0:0:0:
308,144,47746,1,2,0:0:0:0:
204,292,47922,2,2,L|120:352,1,90.0000034332277,2|0,0:0|0:0,0:0:0:0:
56,292,48275,2,0,P|44:248|60:192,1,90.0000034332277
132,248,48628,2,0,P|140:204|116:144,1,90.0000034332277
44,132,48980,2,0,P|32:88|48:32,1,90.0000034332277
220,16,49333,5,8,0:0:0:0:
276,88,49510,1,8,0:0:0:0:
152,32,49686,2,0,P|116:68|116:132,1,90.0000034332277
200,104,50039,2,0,P|188:152|152:188,1,90.0000034332277
164,272,50392,2,0,L|164:168,1,90.0000034332277
76,168,50745,2,0,P|100:120|160:96,1,90.0000034332277
264,220,51098,1,8,0:0:0:0:
408,108,51451,2,0,P|356:40|240:44,1,180.000006866455
280,212,52157,6,8,L|312:112,1,90.0000034332277
384,172,52510,2,0,B|424:192|424:192|492:192,1,90.0000034332277
440,88,52863,2,0,B|396:68|396:68|332:68,1,90.0000034332277
232,128,53216,2,0,B|188:148|188:148|136:148,1,90.0000034332277
44,296,53569,2,0,B|76:264|76:264|140:236,1,90.0000034332277
208,252,53922,2,0,B|192:292|192:292|152:324,1,90.0000034332277,8|0,0:0|0:0,0:0:0:0:
168,188,54275,2,0,B|140:152|140:152|88:128,1,90.0000034332277,8|0,0:0|0:0,0:0:0:0:
236,120,54628,2,0,B|268:152|268:152|309:169,1,90.0000034332277,8|8,0:0|0:0,0:0:0:0:
400,160,54980,5,8,0:0:0:0:
444,80,55157,1,8,0:0:0:0:
400,160,55333,2,2,P|404:252|328:304,1,180.000006866455,0|0,0:0|0:0,0:0:0:0:
328,212,55863,1,4,0:0:0:0:
328,212,56039,2,0,P|304:124|376:48,1,180.000006866455
400,144,56569,1,0,0:0:0:0:
400,144,56745,2,0,P|459:156|494:226,1,120
380,244,57451,5,8,0:0:0:0:
215,167,57628,1,8,0:0:0:0:
395,143,57804,1,8,0:0:0:0:
260,266,57981,1,0,0:0:0:0:
302,91,58157,1,8,0:0:0:0:
128,44,58510,6,0,P|120:88|152:156,1,90.0000034332277
208,84,58863,2,8,L|272:152,1,90.0000034332277
240,236,59216,2,0,P|284:244|336:220,1,90.0000034332277
204,308,59569,2,0,P|160:272|104:272,1,90.0000034332277
46,311,59922,2,0,P|76:343|119:355,1,90.0000034332277
128,267,60275,2,0,P|172:262|207:235,1,90.0000034332277
136,180,60628,2,0,P|180:148|232:148,1,90.0000034332277
300,120,60980,6,0,L|388:72,1,90.0000034332277,4|0,0:0|0:0,0:0:0:0:
364,168,61333,2,0,L|276:216,1,90.0000034332277
260,300,61686,2,0,P|216:272|200:216,1,90.0000034332277
196,148,62039,2,0,P|196:100|172:56,1,90.0000034332277
100,20,62392,2,2,P|192:-16|260:32,2,180.000006866455,8|2|2,0:0|0:0|0:0,0:0:0:0:
168,188,63451,6,0,P|200:220|248:232,1,90.0000034332277
248,140,63804,2,0,P|300:156|336:208,1,90.0000034332277
320,272,64157,2,0,P|376:256|412:204,1,90.0000034332277
464,172,64510,2,0,P|424:148|368:148,1,90.0000034332277
312,88,64863,2,0,P|292:132|304:188,1,90.0000034332277
360,236,65216,2,0,P|320:264|264:256,1,90.0000034332277
268,352,65569,2,2,P|196:288|224:192,1,180.000006866455
312,68,66275,5,8,0:0:0:0:
312,68,66363,1,8,0:0:0:0:
312,68,66451,1,8,0:0:0:0:
428,208,66628,2,0,P|432:256|404:304,1,90.0000034332277
348,232,66980,2,0,L|280:160,1,90.0000034332277,8|0,0:0|0:0,0:0:0:0:
228,96,67333,2,0,P|200:136|200:192,1,90.0000034332277
176,264,67686,2,0,L|84:196,1,90.0000034332277,8|0,0:0|0:0,0:0:0:0:
103,210,68039,1,8,0:0:0:0:
360,120,68569,5,2,0:0:0:0:
360,120,68745,2,2,P|380:64|432:32,1,120
456,88,69275,1,8,0:0:0:0:
432,176,69451,1,0,0:0:0:0:
428,184,69539,1,0,0:0:0:0:
424,192,69628,1,0,0:0:0:0:
420,200,69716,1,0,0:0:0:0:
416,208,69804,1,0,0:0:0:0:
412,216,69892,1,0,0:0:0:0:
408,224,69980,1,0,0:0:0:0:
404,232,70069,1,0,0:0:0:0:
384,276,70157,5,0,0:0:0:0:
344,304,70245,1,0,0:0:0:0:
300,288,70333,1,0,0:0:0:0:
296,240,70422,1,0,0:0:0:0:
276,196,70510,1,0,0:0:0:0:
236,172,70598,1,0,0:0:0:0:
192,192,70686,1,0,0:0:0:0:
144,184,70775,1,0,0:0:0:0:
100,168,70863,6,8,L|56:224,2,60
144,112,71392,1,8,0:0:0:0:
192,56,71569,2,8,L|268:76,1,60,4|8,0:0|0:0,0:0:0:0:
316,100,71922,2,8,L|348:164,1,60
360,224,72275,1,8,0:0:0:0:
332,292,72451,1,8,0:0:0:0:
332,292,72539,1,0,0:0:0:0:
332,292,72628,2,0,L|280:272,4,30,8|0|0|0|4,0:0|0:0|0:0|0:0|0:0,0:0:0:0:
268,260,73157,5,8,0:0:0:0:
204,232,73333,2,8,L|136:200,1,60
192,120,73686,1,8,0:0:0:0:
120,272,73863,1,8,0:0:0:0:
228,304,74039,2,8,L|300:320,1,60
368,280,74392,2,8,B|396:268|424:272|424:272|424:236|444:212,1,120,4|8,0:0|0:0,0:0:0:0:
468,332,74922,1,8,0:0:0:0:
436,192,75098,1,0,0:0:0:0:
392,148,75275,2,8,L|360:116,4,30
348,104,75804,2,0,L|280:120,1,60,4|0,0:0|0:0,0:0:0:0:
172,144,76157,1,2,0:0:0:0:
172,264,76510,6,2,B|164:252|164:204|116:216|64:200|80:144|76:80|128:64,1,240
200,8,77569,1,2,0:0:0:0:
296,84,77922,2,2,B|252:132|252:132|196:132,1,120
308,180,78628,2,2,B|352:132|352:132|408:132,1,120
480,192,79157,1,2,0:0:0:0:
480,192,79245,1,2,0:0:0:0:
480,192,79333,5,2,0:0:0:0:
392,232,79510,1,2,0:0:0:0:
376,112,79686,2,2,B|364:164|364:164|296:200|300:292|376:336|440:284,1,300
392,232,80745,2,2,B|428:208|428:208|440:164|444:136|444:136|456:88|424:56|424:56|384:36,1,240
391,39,81804,1,8,0:0:0:0:
303,123,81980,1,8,0:0:0:0:
248,172,82157,6,0,B|196:204|196:204|176:268,1,120,2|0,0:0|0:0,0:0:0:0:
388,380,82863,2,0,B|440:348|440:348|460:284,1,120,2|0,0:0|0:0,0:0:0:0:
312,168,83569,1,8,0:0:0:0:
194,156,83746,1,0,0:0:0:0:
292,96,83922,1,8,0:0:0:0:
249,203,84099,1,0,0:0:0:0:
221,86,84275,2,8,B|175:35|175:35|108:38,1,120
40,156,84980,6,0,B|72:208|72:208|136:228,1,120,2|0,0:0|0:0,0:0:0:0:
268,184,85686,2,0,B|236:132|236:132|172:112,1,120,2|0,0:0|0:0,0:0:0:0:
64,144,86392,1,8,0:0:0:0:
24,249,86569,1,0,0:0:0:0:
126,187,86745,1,8,0:0:0:0:
1,180,86922,1,0,0:0:0:0:
99,252,87098,2,8,P|130:299|190:310,1,120
248,140,87804,6,0,B|196:172|196:172|176:236,1,120,2|0,0:0|0:0,0:0:0:0:
328,328,88510,2,0,B|380:296|380:296|400:232,1,120,2|0,0:0|0:0,0:0:0:0:
76,232,89215,1,8,0:0:0:0:
132,128,89392,1,0,0:0:0:0:
28,176,89568,1,8,0:0:0:0:
140,200,89745,1,0,0:0:0:0:
60,112,89922,2,8,B|24:68|24:68|32:0,1,120
256,192,90628,12,0,92745,0:0:0:0:
224,84,93098,5,4,0:0:0:0:
255,344,93451,2,0,B|244:348|264:284|188:316|180:260|180:260|136:276|132:332|96:276|76:272,1,240,0|4,0:0|0:0,0:0:0:0:
112,156,94510,1,0,0:0:0:0:
200,76,94863,2,0,B|196:119|180:156|180:156|268:156|265:235,1,210,4|0,0:0|0:0,0:0:0:0:
24,244,95922,1,0,0:0:0:0:
72,212,96010,1,0,0:0:0:0:
136,196,96098,1,0,0:0:0:0:
200,212,96186,1,0,0:0:0:0:
232,260,96275,6,8,L|232:340,1,60
304,304,96628,2,8,L|304:224,1,60
328,176,96980,2,2,L|248:176,1,60
264,104,97333,2,2,L|204:104,1,60
180,172,97686,2,0,B|147:200|96:212|96:212|144:280|76:356,1,240,4|4,0:0|0:0,0:0:0:0:
16,272,98745,1,0,0:0:0:0:
36,152,99098,6,0,L|50:93,1,60,4|0,0:0|0:0,0:0:0:0:
120,112,99451,2,0,L|104:172,1,60,0|4,0:0|0:0,0:0:0:0:
172,196,99804,2,0,L|152:260,1,60,4|0,0:0|0:0,0:0:0:0:
224,268,100157,2,0,L|244:208,1,60,0|4,0:0|0:0,0:0:0:0:
288,324,100510,2,8,P|224:352|164:328,1,120,4|8,0:0|0:0,0:0:0:0:
184,148,101216,2,8,P|244:152|304:204,1,120,4|8,0:0|0:0,0:0:0:0:
204,264,101922,6,0,L|189:322,1,60,0|4,0:0|0:0,0:0:0:0:
260,336,102275,2,4,L|276:276,1,60,4|0,0:0|0:0,0:0:0:0:
268,208,102628,2,0,L|283:150,1,60,4|0,0:0|0:0,0:0:0:0:
212,128,102981,2,0,L|196:188,1,60,4|0,0:0|0:0,0:0:0:0:
212,256,103333,1,4,0:0:0:0:
108,96,104039,5,0,0:0:0:0:
254,198,104216,1,0,0:0:0:0:
200,25,104392,1,0,0:0:0:0:
142,191,104569,1,0,0:0:0:0:
244,104,104745,6,0,P|292:96|336:56,1,90.0000034332277
248,24,105098,2,0,P|196:36|160:80,1,90.0000034332277
244,104,105451,2,0,L|292:188,1,90.0000034332277
376,204,105804,2,0,P|356:244|316:272,1,90.0000034332277
232,288,106157,2,0,B|188:276|184:292|140:276,1,90.0000034332277
52,280,106510,2,0,P|68:228|120:196,1,90.0000034332277
144,132,106863,2,0,P|180:180|184:228,1,90.0000034332277
232,288,107216,6,2,L|322:288,1,90.0000034332277
408,316,107569,2,0,P|408:264|376:216,1,90.0000034332277
310,202,107922,2,0,P|304:247|322:288,1,90.0000034332277
390,231,108275,2,0,L|492:232,1,90.0000034332277,8|0,0:0|0:0,0:0:0:0:
464,144,108628,2,0,B|420:128|420:156|360:136,1,90.0000034332277
300,96,108980,2,0,P|288:144|320:208,1,90.0000034332277
240,248,109333,2,0,P|284:268|352:244,1,90.0000034332277
300,180,109686,2,0,P|268:136|220:124,1,90.0000034332277
148,100,110039,6,0,P|106:84|77:50,1,90.0000034332277
160,16,110392,2,0,P|208:36|236:80,1,90.0000034332277
148,100,110745,2,0,L|228:180,1,90.0000034332277,4|0,0:0|0:0,0:0:0:0:
280,104,111098,2,0,P|300:152|288:216,1,90.0000034332277
256,268,111451,1,2,0:0:0:0:
348,268,111628,1,2,0:0:0:0:
300,344,111804,1,2,0:0:0:0:
312,164,112157,2,0,B|314:75|314:75|355:64|391:28,1,180.000006866455
464,192,112863,6,0,L|384:124,1,90.0000034332277,8|0,0:0|0:0,0:0:0:0:
312,164,113216,2,0,P|304:112|332:64,1,90.0000034332277
395,133,113569,2,0,P|404:176|372:240,1,90.0000034332277
456,280,113922,2,0,P|408:304|352:300,1,90.0000034332277
390,219,114275,2,0,P|352:216|304:240,1,90.0000034332277
256,272,114628,2,0,P|180:248|152:192,1,120
296,212,115333,5,8,0:0:0:0:
248,348,115510,1,0,0:0:0:0:
376,264,115686,1,8,0:0:0:0:
220,264,115863,1,0,0:0:0:0:
248,348,116039,2,0,P|296:348|356:304,1,90.0000034332277
404,276,116392,1,0,0:0:0:0:
404,276,116569,1,0,0:0:0:0:
388,188,116745,5,0,0:0:0:0:
356,156,116833,1,0,0:0:0:0:
312,148,116922,1,0,0:0:0:0:
268,160,117010,1,0,0:0:0:0:
244,200,117098,1,0,0:0:0:0:
204,224,117186,1,0,0:0:0:0:
160,228,117275,1,0,0:0:0:0:
128,200,117363,1,0,0:0:0:0:
120,156,117451,6,0,B|84:128|84:128|64:76,1,90.0000034332277,8|0,0:0|0:0,0:0:0:0:
160,84,117804,2,0,B|192:52|192:52|240:36,1,90.0000034332277,8|0,0:0|0:0,0:0:0:0:
244,128,118157,2,0,B|272:168|272:168|320:200,1,90.0000034332277,8|0,0:0|0:0,0:0:0:0:
392,160,118510,2,0,B|396:204|396:204|376:248,1,90.0000034332277,8|0,0:0|0:0,0:0:0:0:
300,288,118863,2,0,B|332:320|332:320|376:336,1,90.0000034332277,4|0,0:0|0:0,0:0:0:0:
377,245,119216,2,0,B|417:217|417:217|469:201,1,90.0000034332277,4|0,0:0|0:0,0:0:0:0:
500,128,119569,5,0,0:0:0:0:
464,100,119657,1,0,0:0:0:0:
420,104,119745,1,0,0:0:0:0:
384,132,119833,1,0,0:0:0:0:
344,116,119922,1,0,0:0:0:0:
300,116,120010,1,0,0:0:0:0:
260,132,120098,1,0,0:0:0:0:
240,172,120186,1,0,0:0:0:0:
220,212,120275,2,0,B|164:232|164:232|124:184|36:220,2,180.000006866455
324,64,121333,6,0,P|348:96|352:156,1,90.0000034332277
268,132,121686,2,0,P|276:184|320:228,1,90.0000034332277
360,280,122039,2,0,P|384:316|384:372,1,90.0000034332277
300,340,122392,2,0,P|252:352|200:340,1,90.0000034332277
252,264,122745,2,0,L|252:168,1,90.0000034332277
292,92,123098,2,0,B|304:124|304:124|232:68|172:160,1,180.000006866455
60,284,123804,1,0,0:0:0:0:
236,248,124157,6,0,P|272:208|276:144,1,90.0000034332277
235,98,124510,2,0,P|203:130|188:172,1,90.0000034332277
100,196,124863,2,0,P|125:232|198:257,1,90.0000034332277
187,172,125216,2,0,B|252:192|252:252,1,90.0000034332277
232,288,125569,2,0,P|212:312|176:328,1,60
132,300,125922,1,0,0:0:0:0:
124,120,126451,6,0,L|84:68,1,60
188,140,126980,2,0,L|224:187,1,60
196,240,127333,1,0,0:0:0:0:
188,268,127422,1,0,0:0:0:0:
192,296,127510,1,0,0:0:0:0:
212,320,127598,1,0,0:0:0:0:
240,328,127686,1,0,0:0:0:0:
268,316,127775,1,0,0:0:0:0:
296,324,127863,1,0,0:0:0:0:
324,332,127951,1,0,0:0:0:0:
352,328,128039,1,0,0:0:0:0:
376,308,128128,1,0,0:0:0:0:
392,280,128216,1,0,0:0:0:0:
400,252,128304,1,0,0:0:0:0:
396,224,128392,1,0,0:0:0:0:
384,196,128480,1,0,0:0:0:0:
368,172,128569,1,0,0:0:0:0:
340,160,128657,1,0,0:0:0:0:
312,156,128745,1,0,0:0:0:0:
116,40,130863,6,0,B|56:132|148:132|76:228,1,180
116,264,131569,1,8,0:0:0:0:
172,340,131745,1,8,0:0:0:0:
212,252,131922,1,8,0:0:0:0:
116,264,132098,1,8,0:0:0:0:
128,168,132275,1,4,0:0:0:0:
212,212,132451,1,8,0:0:0:0:
196,116,132628,1,8,0:0:0:0:
120,176,132804,1,8,0:0:0:0:
212,212,132980,5,8,0:0:0:0:
128,264,133157,1,8,0:0:0:0:
216,304,133333,1,8,0:0:0:0:
212,212,133510,1,8,0:0:0:0:
224,116,133686,1,4,0:0:0:0:
304,172,133863,1,8,0:0:0:0:
356,280,134039,5,2,0:0:0:0:
271,366,134392,2,2,B|223:354|220:344|220:344|191:334|196:296|196:296|196:256|239:246|239:246|196:192,1,240
144,104,135451,1,2,0:0:0:0:
336,92,135804,2,0,P|376:128|368:208,1,120
184,196,136510,2,2,P|197:253|244:290,1,120
300,304,137039,1,2,0:0:0:0:
360,296,137216,2,2,B|384:249|365:220|365:220|398:215|356:164|284:196|284:196|229:156|274:120|274:120|229:53,1,360
116,56,138628,2,2,B|104:96|48:100|48:100|96:152|48:176|48:176|88:200|48:240|48:240|84:264|48:296|48:296|100:292|88:336|88:336|136:340,1,420
232,320,140039,6,0,B|292:320|292:320|344:280,1,120,4|0,0:0|0:0,0:0:0:0:
408,216,140569,1,8,0:0:0:0:
312,200,140745,2,0,B|252:200|252:200|200:240,1,120,4|0,0:0|0:0,0:0:0:0:
144,312,141275,1,8,0:0:0:0:
240,296,141451,2,0,B|300:296|300:296|352:256,1,120,4|0,0:0|0:0,0:0:0:0:
416,192,141980,1,8,0:0:0:0:
320,184,142157,2,0,B|260:184|260:184|208:224,1,120,4|0,0:0|0:0,0:0:0:0:
152,296,142686,1,8,0:0:0:0:
248,280,142863,2,0,B|308:280|308:280|360:240,1,120,4|0,0:0|0:0,0:0:0:0:
424,176,143392,1,8,0:0:0:0:
328,168,143569,2,0,B|268:168|268:168|216:208,1,120,4|0,0:0|0:0,0:0:0:0:
160,280,144098,1,8,0:0:0:0:
256,264,144275,2,0,B|316:264|316:264|368:224,1,120,4|0,0:0|0:0,0:0:0:0:
424,152,144804,1,8,0:0:0:0:
328,168,144980,6,4,B|256:168|256:168|208:208,1,120
200,224,145422,1,8,0:0:0:0:
168,232,145510,1,8,0:0:0:0:
144,216,145598,1,8,0:0:0:0:
128,192,145686,2,8,P|113:137|143:85,1,120,4|8,0:0|0:0,0:0:0:0:
248,24,146216,1,8,0:0:0:0:
312,128,146392,2,0,P|352:168|412:168,1,120,4|0,0:0|0:0,0:0:0:0:
496,80,146922,1,8,0:0:0:0:
380,100,147098,2,0,P|324:56|260:76,1,120,4|0,0:0|0:0,0:0:0:0:
188,140,147628,1,8,0:0:0:0:
260,236,147804,2,0,P|300:276|360:276,1,120,4|0,0:0|0:0,0:0:0:0:
448,192,148333,1,8,0:0:0:0:
328,212,148510,2,0,P|272:176|204:192,1,120,4|0,0:0|0:0,0:0:0:0:
136,268,149039,1,8,0:0:0:0:
256,252,149216,2,0,P|304:288|376:272,1,120,4|0,0:0|0:0,0:0:0:0:
324,216,149745,5,8,0:0:0:0:
380,192,149922,2,4,B|400:176|432:164|432:164|444:136|452:112|376:96|376:96|408:68|400:40|380:20,1,240
300,64,150804,1,8,0:0:0:0:
276,156,150980,1,8,0:0:0:0:
224,76,151157,1,8,0:0:0:0:
200,168,151333,1,8,0:0:0:0:
488,356,161216,5,0,0:0:0:0:
488,356,161922,1,8,0:0:0:0:
416,260,162098,1,8,0:0:0:0:
304,216,162275,1,8,0:0:0:0:
184,236,162451,1,8,0:0:0:0:
36,340,162628,2,0,P|32:292|60:240,1,90.0000034332277
120,308,162980,2,0,P|136:264|124:208,1,90.0000034332277
56,172,163333,2,0,P|96:140|160:136,1,90.0000034332277
130,222,163686,2,0,L|220:172,1,90.0000034332277
296,192,164039,6,0,P|288:144|256:104,1,90.0000034332277
216,36,164392,2,0,P|176:84|172:124,1,90.0000034332277
108,172,164745,2,0,P|152:196|204:192,1,90.0000034332277
260,136,165098,2,0,P|280:184|264:240,1,90.0000034332277
190,195,165451,6,0,L|172:284,1,90.0000034332277
200,372,165804,2,0,P|240:344|264:300,1,90.0000034332277
348,280,166157,2,0,P|320:240|272:220,1,90.0000034332277
260,309,166510,2,0,P|284:344|340:368,1,90.0000034332277
348,280,166863,2,0,L|448:280,1,90.0000034332277,8|0,0:0|0:0,0:0:0:0:
488,204,167216,2,0,P|448:188|401:191,1,90.0000034332277
268,316,167569,1,8,0:0:0:0:
100,252,167922,5,2,0:0:0:0:
100,252,168098,1,2,0:0:0:0:
124,340,168275,2,0,P|168:320|192:256,1,90.0000034332277
104,256,168628,2,0,P|136:212|184:196,1,90.0000034332277
236,140,168980,2,0,P|256:188|244:248,1,90.0000034332277
268,316,169333,2,0,L|348:248,1,90.0000034332277
424,260,169686,2,0,P|408:208|372:176,1,90.0000034332277
316,124,170039,1,0,0:0:0:0:
280,96,170128,1,0,0:0:0:0:
236,84,170216,1,0,0:0:0:0:
192,88,170304,1,0,0:0:0:0:
152,112,170392,1,4,0:0:0:0:
108,288,170745,2,0,P|136:320|192:332,1,90.0000034332277
192,244,171098,6,0,P|240:264|268:304,1,90.0000034332277
332,348,171451,2,0,P|352:288|340:252,1,90.0000034332277
263,292,171804,2,0,L|288:180,1,90.0000034332277
356,152,172157,2,0,P|312:120|268:116,1,90.0000034332277
216,120,172510,1,4,0:0:0:0:
184,120,172599,1,0,0:0:0:0:
156,120,172687,1,0,0:0:0:0:
128,120,172775,1,0,0:0:0:0:
100,120,172863,1,0,0:0:0:0:
164,220,173216,5,8,0:0:0:0:
176,352,173392,1,8,0:0:0:0:
316,264,173569,1,8,0:0:0:0:
152,272,173745,1,8,0:0:0:0:
256,144,173922,6,0,P|288:168|356:176,1,90.0000034332277
332,88,174275,2,0,P|384:104|412:136,1,90.0000034332277
488,168,174628,2,0,P|460:200|412:216,1,90.0000034332277
336,178,174980,2,0,P|328:232|352:280,1,90.0000034332277
408,324,175333,2,0,P|364:348|312:348,1,90.0000034332277
339,264,175686,2,0,L|244:240,1,90.0000034332277
164,240,176039,2,0,P|176:196|220:160,1,90.0000034332277
252,242,176392,6,0,P|256:284|196:342,1,90.0000034332277
164,264,176745,1,8,0:0:0:0:
52,144,176922,1,0,0:0:0:0:
212,120,177098,1,4,0:0:0:0:
92,228,177275,1,0,0:0:0:0:
252,208,177451,1,4,0:0:0:0:
184,356,177628,1,0,0:0:0:0:
24,332,177804,1,4,0:0:0:0:
128,208,177980,1,0,0:0:0:0:
152,120,178157,2,0,P|192:144|216:188,1,90.0000034332277
128,208,178510,2,0,P|152:248|204:268,1,90.0000034332277
213,180,178863,1,8,0:0:0:0:
380,248,179216,5,8,0:0:0:0:
220,220,179392,1,8,0:0:0:0:
324,96,179569,1,4,0:0:0:0:
428,220,179745,1,8,0:0:0:0:
276,164,179922,1,8,0:0:0:0:
380,40,180098,1,4,0:0:0:0:
360,200,180275,1,4,0:0:0:0:
240,92,180451,1,0,0:0:0:0:
156,120,180628,2,0,P|184:160|224:180,1,90.0000034332277
304,208,180980,1,12,0:0:0:0:
124,212,181333,1,4,0:0:0:0:
244,76,181686,1,4,0:0:0:0:
352,220,182039,5,8,0:0:0:0:
316,104,182216,1,8,0:0:0:0:
232,188,182392,1,4,0:0:0:0:
392,144,182569,1,8,0:0:0:0:
228,112,182745,1,8,0:0:0:0:
280,268,182922,1,0,0:0:0:0:
436,208,183098,1,4,0:0:0:0:
276,164,183275,1,4,0:0:0:0:
380,40,183451,1,8,0:0:0:0:
360,204,183628,1,4,0:0:0:0:
360,204,183804,2,0,P|304:196|240:228,1,120,4|0,0:0|0:0,0:0:0:0:
204,264,184333,5,0,0:0:0:0:
252,300,184510,2,0,P|308:332|372:308,1,120,4|0,0:0|0:0,0:0:0:0:
396,272,185039,1,0,0:0:0:0:
372,188,185216,1,8,0:0:0:0:
372,188,185304,1,8,0:0:0:0:
372,188,185392,1,8,0:0:0:0:
296,96,185569,1,8,0:0:0:0:
296,96,185657,1,8,0:0:0:0:
296,96,185745,1,8,0:0:0:0:
204,176,185922,1,8,0:0:0:0:
204,176,186010,1,8,0:0:0:0:
204,176,186098,1,8,0:0:0:0:
288,264,186275,2,4,L|324:304,2,30
168,248,186628,5,8,0:0:0:0:
168,248,186716,1,8,0:0:0:0:
168,248,186804,1,8,0:0:0:0:
120,140,186980,1,8,0:0:0:0:
120,140,187069,1,8,0:0:0:0:
120,140,187157,1,8,0:0:0:0:
196,48,187333,1,8,0:0:0:0:
196,48,187422,1,8,0:0:0:0:
196,48,187510,1,8,0:0:0:0:
304,56,187686,1,4,0:0:0:0:
