osu file format v14

[General]
AudioFilename: Song.mp3
AudioLeadIn: 0
PreviewTime: 46157
Countdown: 0
SampleSet: Normal
StackLeniency: 0.7
Mode: 0
LetterboxInBreaks: 0
StoryFireInFront: 0
EpilepsyWarning: 1
WidescreenStoryboard: 1

[Editor]
Bookmarks: 12981,15804,18628,21451,24275,27098,29922,32745,35569,41216,46157,46863,56745,58157,68039,68745,70863,76157,82157,84980,87804,89216,90628,93451,99098,104039,104745,114628,116039,128745,134039,140039,144980,151333,161216,172510,173922,183804,185216,187686
DistanceSpacing: 1
BeatDivisor: 1
GridSize: 4
TimelineZoom: 1

[Metadata]
Title:Karakurenai feat. Ranko
TitleUnicode:からくれない feat. ランコ
Artist:UNDEAD CORPORATION
ArtistUnicode:UNDEAD CORPORATION
Creator:Trent83
Version:Easy
Source:東方Project
Tags:Touhou toho complete box Comiket85 特 SPECIAL Yuugi Hoshiguma subterranean animism buta-otome 豚乙女 パインツリー Pinetree chireiden Crimson zun team shanghai alice パイン Dannine Dann9 MokouSmoke [HiiroSakaki] HiiroSakaki Daniel Nanners [-Matt-] -Matt- Matt Trent83 trent83 taiko Storyboard Firstmap 1stmap
BeatmapID:938873
BeatmapSetID:425723

[Difficulty]
HPDrainRate:3
CircleSize:3
OverallDifficulty:2
ApproachRate:3
SliderMultiplier:0.8
SliderTickRate:1

[Events]
//Background and Video events
0,0,"bg.png",0,0
//Break Periods
2,71063,80717
2,128945,138599
2,151533,159776
//Storyboard Layer 0 (Background)
//Storyboard Layer 1 (Fail)
//Storyboard Layer 2 (Pass)
//Storyboard Layer 3 (Foreground)
//Storyboard Sound Samples

[TimingPoints]
12981,352.941176470588,4,1,0,60,1,0
46863,-100,4,3,0,60,0,1
56745,-100,4,3,0,60,0,0
58157,-100,4,3,0,60,0,1
68039,-100,4,3,0,60,0,0
68392,-100,4,1,0,60,0,0
104745,-100,4,3,0,60,0,1
114628,-100,4,3,0,60,0,0
116039,-100,4,3,0,60,0,1
124510,-100,4,3,0,60,0,0
125922,-100,4,1,0,60,0,0
162628,-100,4,3,0,60,0,1
172510,-100,4,3,0,60,0,0
173922,-100,4,3,0,60,0,1
183804,-100,4,3,0,60,0,0
184157,-100,4,1,0,60,0,0

[Colours]
Combo1 : 64,0,0
Combo2 : 114,14,79
Combo3 : 66,55,72
Combo4 : 244,0,6
Combo5 : 145,0,0
Combo6 : 128,64,64
Combo7 : 128,64,0

[HitObjects]
232,242,12981,6,0,P|167:284|92:264,1,160
136,108,14392,2,8,P|136:156|172:192,1,80
216,128,15098,2,8,P|252:104|320:104,1,80
288,180,15804,6,0,P|364:204|372:300,1,160
224,300,17216,2,8,P|188:316|128:304,1,80
96,252,17922,2,8,P|133:236|173:237,1,80
172,156,18628,6,0,B|240:160|252:220|252:220|312:220,1,160
392,352,20039,2,8,P|432:328|452:296,1,80
376,268,20745,2,8,P|388:228|377:185,1,80
308,224,21451,6,0,P|240:268|160:232,1,160
232,184,22510,1,0,0:0:0:0:
300,140,22863,2,2,B|284:76|284:76|228:84|200:31|200:31|128:56,1,240
132,140,24275,6,8,P|90:157|58:211,1,80
140,220,24980,2,8,P|125:262|143:321,1,80
208,272,25686,2,8,P|229:306|292:325,1,80
288,248,26392,2,8,P|328:252|376:232,1,80
320,172,27098,6,0,P|379:107|358:36,1,160
300,92,28157,1,8,0:0:0:0:
244,32,28510,2,8,P|220:68|232:124,1,80
148,140,29216,2,8,P|172:176|164:232,1,80
244,252,29922,6,0,P|288:314|365:315,1,160
328,244,30980,1,8,0:0:0:0:
288,172,31333,2,0,P|364:172|408:268,1,160
480,272,32392,1,0,0:0:0:0:
500,196,32745,6,8,P|505:156|494:118,1,80
492,40,33451,2,8,P|444:56|416:104,1,80
348,52,34157,2,2,B|320:96|320:96|260:116|260:116|228:168|228:168,1,160
204,228,35216,1,0,0:0:0:0:
128,252,35569,6,0,P|144:284|196:312,2,80,0|4|12,0:0|0:0|0:0,0:0:0:0:
180,192,36628,1,0,0:0:0:0:
232,132,36980,2,0,B|252:104|304:104|304:104|312:132|288:180|288:180|316:208|296:264,1,240
256,324,38392,6,0,P|241:361|209:384,2,80,0|0|8,0:0|0:0|0:0,0:0:0:0:
220,252,39451,1,0,0:0:0:0:
184,180,39804,2,0,P|268:188|296:276,1,160
316,328,40863,1,0,0:0:0:0:
392,356,41216,6,8,P|419:327|427:287,2,80
312,352,42275,1,8,0:0:0:0:
284,276,42628,2,8,P|250:297|230:331,2,80
360,248,43686,1,0,0:0:0:0:
436,224,44039,2,8,P|475:218|508:196,2,80
356,220,45098,1,0,0:0:0:0:
276,236,45451,1,0,0:0:0:0:
128,172,46157,2,0,P|96:149|83:111,1,80
160,100,46863,6,4,P|200:120|256:124,1,80,4|0,0:0|0:0,0:0:0:0:
308,160,47569,2,4,P|291:208|311:253,1,80
240,292,48275,2,0,P|273:313|312:315,2,80,4|0|4,0:0|0:0|0:0,0:0:0:0:
196,224,49333,1,0,0:0:0:0:
232,152,49686,2,0,L|336:100,1,80,4|0,0:0|0:0,0:0:0:0:
356,180,50392,2,0,L|252:232,1,80,4|0,0:0|0:0,0:0:0:0:
220,264,51098,2,0,P|255:291|312:291,1,80,4|0,0:0|0:0,0:0:0:0:
368,300,51804,2,0,P|398:325|412:362,1,80,4|0,0:0|0:0,0:0:0:0:
332,372,52510,6,0,L|248:372,1,80,4|0,0:0|0:0,0:0:0:0:
172,384,53216,2,0,P|176:344|204:308,1,80,4|0,0:0|0:0,0:0:0:0:
276,284,53922,2,0,P|316:252|328:196,1,80,4|0,0:0|0:0,0:0:0:0:
344,148,54628,1,4,0:0:0:0:
272,112,54980,5,0,0:0:0:0:
192,116,55333,2,0,L|152:224,1,80,4|0,0:0|0:0,0:0:0:0:
84,188,56039,2,0,L|55:262,1,80,4|0,0:0|0:0,0:0:0:0:
80,340,56745,2,0,P|116:316|136:256,1,80,4|0,0:0|0:0,0:0:0:0:
184,224,57451,2,0,P|209:263|197:332,1,80
196,376,58157,6,0,P|248:368|296:308,1,80,4|0,0:0|0:0,0:0:0:0:
320,292,58863,2,0,L|380:220,1,80,4|0,0:0|0:0,0:0:0:0:
380,152,59569,2,0,P|425:173|452:228,2,80,4|0|4,0:0|0:0|0:0,0:0:0:0:
300,140,60628,5,0,0:0:0:0:
220,124,60980,2,4,B|144:100|144:100|56:124,1,160
4,172,62039,1,0,0:0:0:0:
76,208,62392,2,4,P|50:238|13:251,2,80,4|0|4,0:0|0:0|0:0,0:0:0:0:
124,144,63451,5,0,0:0:0:0:
172,80,63804,2,0,L|216:12,1,80,4|0,0:0|0:0,0:0:0:0:
288,48,64510,2,0,L|240:120,1,80,4|0,0:0|0:0,0:0:0:0:
240,196,65216,2,4,P|285:186|318:147,1,80,4|0,0:0|0:0,0:0:0:0:
360,104,65922,1,4,0:0:0:0:
428,60,66275,5,0,0:0:0:0:
436,140,66628,2,0,L|436:256,1,80,4|0,0:0|0:0,0:0:0:0:
360,244,67333,2,0,L|360:344,1,80,4|0,0:0|0:0,0:0:0:0:
300,376,68039,1,4,0:0:0:0:
164,292,68745,6,0,P|141:259|137:219,1,80
216,232,69451,2,4,B|276:204|332:248|332:248|360:176|428:180,1,240,0|0,0:0|0:0,0:0:0:0:
488,216,70863,1,0,0:0:0:0:
120,232,82157,6,8,P|148:264|220:268,1,80
260,296,82863,2,8,P|308:300|348:328,1,80
404,356,83569,2,0,P|448:360|504:312,3,80
432,280,84980,6,8,P|436:236|420:200,1,80
356,252,85686,2,8,P|341:218|352:168,1,80
380,104,86392,1,0,0:0:0:0:
340,36,86745,1,0,0:0:0:0:
264,60,87098,2,0,L|160:120,1,80
244,164,87804,6,8,P|212:176|148:164,1,80
88,192,88510,2,8,P|40:200|0:236,1,80
76,272,89216,2,0,P|92:312|132:340,1,80
156,264,89922,1,0,0:0:0:0:
216,208,90275,1,0,0:0:0:0:
280,160,90628,6,0,B|356:144|356:144|476:160,1,160
504,200,91686,1,0,0:0:0:0:
480,276,92039,2,2,B|416:300|376:256|376:256|292:268,1,160
252,268,93098,1,0,0:0:0:0:
224,344,93451,6,0,P|172:284|212:200,1,160
264,172,94510,1,0,0:0:0:0:
252,92,94863,2,0,B|316:84|368:136|364:224|296:248,1,200
212,268,96275,6,8,P|167:283|111:256,1,80
168,204,96980,2,8,P|122:199|78:221,1,80
48,280,97686,2,0,P|88:344|188:356,1,160
248,356,98745,1,0,0:0:0:0:
296,292,99098,6,8,L|236:224,3,80
168,260,100510,2,8,L|108:192,3,80
48,244,101922,2,0,L|-12:164,1,80
64,132,102628,2,0,L|4:52,1,80
72,12,103333,1,2,0:0:0:0:
228,52,104039,6,0,P|272:60|312:100,1,80
236,132,104745,2,0,L|176:216,1,80
116,232,105451,2,0,P|144:264|200:276,1,80
232,336,106157,2,4,P|197:355|158:355,2,80,4|0|4,0:0|0:0|0:0,0:0:0:0:
292,280,107216,5,4,0:0:0:0:
324,356,107569,2,0,P|372:296|336:212,1,160
280,180,108628,1,0,0:0:0:0:
208,148,108980,2,4,L|131:170,2,80,4|0|4,0:0|0:0|0:0,0:0:0:0:
268,96,110039,5,4,0:0:0:0:
348,112,110392,2,4,L|439:129,2,80,4|0|4,0:0|0:0|0:0,0:0:0:0:
268,124,111451,1,0,0:0:0:0:
212,184,111804,2,4,P|212:236|248:284,2,80,4|0|4,0:0|0:0|0:0,0:0:0:0:
204,104,112863,5,4,0:0:0:0:
124,112,113216,2,4,L|100:24,1,80,4|0,0:0|0:0,0:0:0:0:
184,24,113922,2,0,L|248:84,1,80
296,140,114628,1,4,0:0:0:0:
248,292,115333,6,4,P|272:336|340:360,1,80
328,280,116039,2,0,L|384:200,1,80
324,152,116745,2,0,L|264:236,1,80
198,233,117451,2,4,P|215:269|248:292,2,80,4|0|4,0:0|0:0|0:0,0:0:0:0:
160,164,118510,5,4,0:0:0:0:
120,92,118863,2,4,L|200:72,3,80,4|0|4|0,0:0|0:0|0:0|0:0,0:0:0:0:
276,88,120275,2,0,P|273:48|252:16,2,80
244,160,121333,5,4,0:0:0:0:
164,172,121686,2,0,P|180:208|224:240,1,80
220,312,122392,2,0,P|260:296|288:256,1,80
344,216,123098,2,4,P|312:192|273:190,2,80,4|0|4,0:0|0:0|0:0,0:0:0:0:
392,280,124157,5,4,0:0:0:0:
368,356,124510,2,0,P|416:356|464:316,1,80
496,280,125216,2,0,L|496:192,1,80
472,124,125922,2,0,B|469:123|426:115|453:15|453:15|348:70,1,240
268,68,127333,2,0,B|163:12|163:12|190:113|147:120|144:121,1,240
108,192,128745,1,4,0:0:0:0:
164,304,140039,6,8,P|212:292|244:252,1,80
280,204,140745,2,8,P|328:216|360:256,1,80
392,304,141451,2,8,P|431:302|465:281,1,80
480,200,142157,2,8,P|470:161|442:133,1,80
372,100,142863,6,8,P|343:127|335:166,1,80
320,244,143569,2,8,P|291:272|253:282,1,80
176,304,144275,2,8,P|174:264|193:229,1,80
248,176,144980,2,2,P|285:164|314:136,1,80
340,60,145686,6,8,P|308:40|264:38,1,80
188,44,146392,2,8,P|158:59|130:96,1,80
132,176,147098,2,8,P|136:216|116:264,1,80
56,208,147804,2,8,P|44:244|56:300,1,80
40,364,148510,6,8,P|77:359|122:323,1,80
172,284,149216,2,8,P|209:288|254:324,1,80
316,276,149922,2,2,B|360:332|452:284|444:224|444:224|436:156,1,240
392,100,151333,5,0,0:0:0:0:
260,200,161216,5,4,0:0:0:0:
112,260,161922,2,0,P|112:312|140:352,1,80
188,288,162628,6,4,P|228:296|280:284,1,80
312,356,163333,2,4,P|344:312|340:256,1,80,4|0,0:0|0:0,0:0:0:0:
348,206,164039,2,4,P|386:216|415:243,2,80,4|0|4,0:0|0:0|0:0,0:0:0:0:
268,224,165098,5,0,0:0:0:0:
188,236,165451,2,0,L|109:220,1,80,4|0,0:0|0:0,0:0:0:0:
103,300,166157,2,0,L|181:315,1,80,4|0,0:0|0:0,0:0:0:0:
256,288,166863,2,4,P|262:327|247:363,2,80,4|0|4,0:0|0:0|0:0,0:0:0:0:
232,212,167922,5,0,0:0:0:0:
192,144,168275,2,0,L|148:72,1,80,4|0,0:0|0:0,0:0:0:0:
220,36,168980,2,0,L|261:104,1,80,4|0,0:0|0:0,0:0:0:0:
312,168,169686,2,4,L|404:212,2,80,4|0|4,0:0|0:0|0:0,0:0:0:0:
244,124,170745,5,0,0:0:0:0:
312,80,171098,2,0,B|336:76|372:84|392:80,1,80,4|0,0:0|0:0,0:0:0:0:
468,108,171804,2,0,B|472:132|464:168|468:188,1,80,4|0,0:0|0:0,0:0:0:0:
464,268,172510,2,4,P|464:304|428:360,1,80,4|0,0:0|0:0,0:0:0:0:
384,288,173216,2,4,P|344:308|276:304,1,80
320,232,173922,6,4,P|280:220|212:224,1,80,4|0,0:0|0:0,0:0:0:0:
168,244,174628,2,0,P|128:244|68:220,1,80,4|0,0:0|0:0,0:0:0:0:
8,236,175333,2,4,P|21:274|48:304,2,80,4|0|4,0:0|0:0|0:0,0:0:0:0:
20,156,176392,1,0,0:0:0:0:
60,88,176745,2,4,P|72:50|101:23,1,80,4|0,0:0|0:0,0:0:0:0:
144,92,177451,2,0,L|224:168,1,80,4|0,0:0|0:0,0:0:0:0:
284,152,178157,2,0,P|264:204|192:232,1,80,4|0,0:0|0:0,0:0:0:0:
172,244,178863,1,4,0:0:0:0:
116,188,179216,5,0,0:0:0:0:
36,176,179569,2,4,P|41:221|88:260,2,80,4|0|4,0:0|0:0|0:0,0:0:0:0:
36,96,180628,1,0,0:0:0:0:
116,92,180980,2,4,P|106:53|80:25,2,80,4|0|4,0:0|0:0|0:0,0:0:0:0:
136,168,182039,5,0,0:0:0:0:
136,248,182392,2,4,P|88:232|60:184,2,80,4|0|4,0:0|0:0|0:0,0:0:0:0:
216,244,183451,1,0,0:0:0:0:
272,184,183804,2,0,P|288:284|168:312,1,240
216,248,185216,2,0,B|168:176|168:176|212:72|100:36,1,240
100,124,186628,2,0,P|49:128|6:172,2,80
84,204,187686,5,4,0:0:0:0:
