osu file format v14

[General]
AudioFilename: Song.mp3
AudioLeadIn: 0
PreviewTime: 46157
Countdown: 0
SampleSet: Normal
StackLeniency: 0.7
Mode: 0
LetterboxInBreaks: 0
StoryFireInFront: 0
EpilepsyWarning: 1
WidescreenStoryboard: 1

[Editor]
Bookmarks: 12981,15804,18628,21451,24275,27098,29922,32745,35569,41216,46157,46863,56745,58157,68039,68745,70863,76157,82157,84980,87804,89216,90628,93451,99098,104039,104745,114628,116039,128745,134039,140039,144980,151333,161216,172510,173922,183804,185216,187686
DistanceSpacing: 1
BeatDivisor: 4
GridSize: 4
TimelineZoom: 1

[Metadata]
Title:Karakurenai feat. Ranko
TitleUnicode:からくれない feat. ランコ
Artist:UNDEAD CORPORATION
ArtistUnicode:UNDEAD CORPORATION
Creator:Trent83
Version:Beginner
Source:東方Project
Tags:Touhou toho complete box Comiket85 特 SPECIAL Yuugi Hoshiguma subterranean animism buta-otome 豚乙女 パインツリー Pinetree chireiden Crimson zun team shanghai alice パイン Dannine Dann9 MokouSmoke [HiiroSakaki] HiiroSakaki Daniel Nanners [-Matt-] -Matt- Matt Trent83 trent83 taiko Storyboard Firstmap 1stmap
BeatmapID:938870
BeatmapSetID:425723

[Difficulty]
HPDrainRate:1
CircleSize:2
OverallDifficulty:1
ApproachRate:1
SliderMultiplier:0.6
SliderTickRate:1

[Events]
//Background and Video events
0,0,"bg.png",0,0
//Break Periods
2,71063,80477
2,128945,138359
2,151533,159536
//Storyboard Layer 0 (Background)
//Storyboard Layer 1 (Fail)
//Storyboard Layer 2 (Pass)
//Storyboard Layer 3 (Foreground)
//Storyboard Sound Samples

[TimingPoints]
12981,352.941176470588,4,1,0,60,1,0
46863,-100,4,3,0,60,0,1
56745,-100,4,3,0,60,0,0
58157,-100,4,3,0,60,0,1
68039,-100,4,3,0,60,0,0
68392,-100,4,1,0,60,0,0
104745,-100,4,3,0,60,0,1
114628,-100,4,3,0,60,0,0
116039,-100,4,3,0,60,0,1
124510,-100,4,3,0,60,0,0
125922,-100,4,1,0,60,0,0
162628,-100,4,3,0,60,0,1
172510,-100,4,3,0,60,0,0
173922,-100,4,3,0,60,0,1
183804,-100,4,3,0,60,0,0
184157,-100,4,1,0,60,0,0

[Colours]
Combo1 : 64,0,0
Combo2 : 114,14,79
Combo3 : 66,55,72
Combo4 : 244,0,6
Combo5 : 145,0,0
Combo6 : 128,64,64
Combo7 : 128,64,0

[HitObjects]
148,296,12981,6,8,P|232:368|352:328,2,240
260,252,16510,1,8,0:0:0:0:
364,192,17216,6,0,P|324:148|264:132,1,120
152,172,18628,2,8,P|108:212|88:272,1,120
140,376,20039,5,0,0:0:0:0:
204,276,20745,1,0,0:0:0:0:
92,232,21451,2,8,B|124:136|124:136|188:184|268:144,1,240,8|0,0:0|0:0,0:0:0:0:
368,108,23569,5,2,0:0:0:0:
468,172,24275,2,0,B|388:256|388:256|264:256,2,240,4|0|4,0:0|0:0|0:0,0:0:0:0:
488,52,27804,5,2,0:0:0:0:
376,96,28510,2,0,B|260:96|260:96|148:192,2,240,4|0|4,0:0|0:0|0:0,0:0:0:0:
472,24,32039,1,2,0:0:0:0:
472,144,32745,6,0,P|472:204|428:264,1,120
328,288,34157,2,0,L|200:288,1,120
92,264,35569,6,8,P|120:208|188:172,1,120
276,128,36980,2,0,P|242:79|188:56,1,120,8|0,0:0|0:0,0:0:0:0:
152,172,38392,5,8,0:0:0:0:
48,232,39098,1,8,0:0:0:0:
136,316,39804,2,0,P|180:356|260:368,1,120,8|0,0:0|0:0,0:0:0:0:
352,332,41216,6,4,L|324:204,1,120
288,100,42628,1,4,0:0:0:0:
216,196,43333,1,4,0:0:0:0:
216,316,44039,6,2,P|128:276|116:128,1,240
192,60,46157,1,0,0:0:0:0:
312,76,46863,5,4,0:0:0:0:
332,196,47569,1,0,0:0:0:0:
416,284,48275,2,0,P|368:316|308:316,1,120,4|0,0:0|0:0,0:0:0:0:
196,264,49686,6,0,P|148:232|88:232,1,120,4|0,0:0|0:0,0:0:0:0:
16,328,51098,2,0,L|148:376,1,120,4|0,0:0|0:0,0:0:0:0:
248,372,52510,6,0,L|360:330,1,120,4|0,0:0|0:0,0:0:0:0:
452,252,53922,2,0,P|452:192|424:140,1,120
312,96,55333,2,0,L|199:54,1,120,4|0,0:0|0:0,0:0:0:0:
84,20,56745,2,0,P|84:80|128:144,1,120
208,204,58157,6,0,P|272:204|328:244,1,120
232,316,59569,2,0,B|191:359|191:359|132:336,1,120,4|0,0:0|0:0,0:0:0:0:
112,220,60980,2,0,B|152:176|152:176|212:196,1,120,4|0,0:0|0:0,0:0:0:0:
308,264,62392,2,0,L|408:180,1,120,4|0,0:0|0:0,0:0:0:0:
496,116,63804,6,0,P|506:57|486:1,1,120,4|0,0:0|0:0,0:0:0:0:
388,72,65216,2,0,P|328:82|268:42,1,120,4|0,0:0|0:0,0:0:0:0:
164,12,66628,2,0,L|92:108,1,120,4|0,0:0|0:0,0:0:0:0:
12,196,68039,2,0,B|68:224|68:224|144:217,1,120,4|0,0:0|0:0,0:0:0:0:
256,192,69451,12,0,70863,0:0:0:0:
336,184,82157,6,8,P|300:136|216:124,1,120
124,120,83569,1,8,0:0:0:0:
36,200,84275,1,0,0:0:0:0:
86,307,84980,6,8,P|135:275|156:220,1,120
216,116,86392,1,8,0:0:0:0:
268,224,87098,1,0,0:0:0:0:
380,268,87804,6,8,P|390:208|368:152,1,120
264,92,89216,1,8,0:0:0:0:
144,88,89922,1,0,0:0:0:0:
48,164,90628,6,8,L|68:296,1,120
256,192,92039,12,0,93451,0:0:0:0:
36,56,94157,5,0,0:0:0:0:
32,176,94863,2,4,B|88:232|88:232|176:192|252:264,1,240
316,344,96980,1,4,0:0:0:0:
424,296,97686,6,4,B|416:216|472:172|472:172|400:92,1,240
308,24,99804,1,4,0:0:0:0:
220,104,100510,6,4,L|104:180,1,120,4|0,0:0|0:0,0:0:0:0:
16,228,101922,1,0,0:0:0:0:
76,332,102628,1,0,0:0:0:0:
196,332,103333,2,0,B|256:340|256:340|316:324,1,120
420,268,104745,2,0,P|428:208|400:136,1,120,4|0,0:0|0:0,0:0:0:0:
312,84,106157,2,0,P|276:132|200:160,1,120,4|0,0:0|0:0,0:0:0:0:
108,180,107569,2,0,L|108:300,1,120,4|0,0:0|0:0,0:0:0:0:
220,340,108980,2,0,P|276:336|324:288,1,120,4|0,0:0|0:0,0:0:0:0:
348,176,110392,6,0,P|320:124|264:92,1,120,4|0,0:0|0:0,0:0:0:0:
148,96,111804,2,0,P|96:124|64:188,1,120,4|0,0:0|0:0,0:0:0:0:
72,296,113216,2,0,P|100:348|164:380,1,120,4|0,0:0|0:0,0:0:0:0:
188,264,114628,1,4,0:0:0:0:
428,164,115333,1,0,0:0:0:0:
360,64,116039,2,0,P|296:60|240:96,1,120,4|0,0:0|0:0,0:0:0:0:
332,172,117451,2,0,P|284:204|208:204,1,120,4|0,0:0|0:0,0:0:0:0:
160,104,118863,2,0,P|116:144|96:200,1,120,4|0,0:0|0:0,0:0:0:0:
88,320,120275,2,0,B|148:320|148:320|208:268,1,120,4|0,0:0|0:0,0:0:0:0:
244,172,121686,6,0,B|244:112|244:112|192:52,1,120,4|0,0:0|0:0,0:0:0:0:
92,108,123098,2,0,B|92:168|92:168|144:228,1,120,4|0,0:0|0:0,0:0:0:0:
240,264,124510,2,0,B|298:249|298:249|332:200,1,120,4|0,0:0|0:0,0:0:0:0:
368,84,125922,1,4,0:0:0:0:
248,92,126628,2,0,B|216:104|216:104|176:128,1,60
256,192,127333,12,0,128745,0:0:0:0:
456,48,140039,6,0,P|400:68|352:116,1,120
300,216,141451,2,0,P|248:248|176:252,1,120
72,276,142863,2,0,P|28:316|8:380,1,120
128,372,144275,2,8,L|248:372,1,120
364,340,145686,2,0,P|376:280|352:208,1,120
240,220,147098,1,8,0:0:0:0:
144,292,147804,1,8,0:0:0:0:
252,344,148510,2,8,P|304:320|328:252,1,120
300,148,149922,2,2,P|248:172|216:240,1,120
172,336,151333,5,4,0:0:0:0:
256,192,161216,5,4,0:0:0:0:
316,88,161922,1,0,0:0:0:0:
396,180,162628,6,4,B|420:236|420:236|416:300,1,120,4|4,0:0|0:0,0:0:0:0:
308,348,164039,2,4,B|297:289|297:289|308:228,1,120,4|4,0:0|0:0,0:0:0:0:
356,120,165451,6,4,B|352:56|352:56|320:0,1,120
204,24,166863,2,4,B|196:80|196:80|220:152,1,120
304,220,168275,2,4,P|256:252|164:248,1,120
76,244,169686,2,4,P|44:196|48:104,1,120
140,72,171098,6,4,P|197:76|267:136,1,120
344,184,172510,2,4,P|376:232|372:324,1,120
260,276,173922,6,4,L|136:340,1,120
64,244,175333,2,4,L|0:120,1,120,4|4,0:0|0:0,0:0:0:0:
116,84,176745,6,4,L|248:36,1,120,4|4,0:0|0:0,0:0:0:0:
348,28,178157,2,4,L|412:152,1,120,4|4,0:0|0:0,0:0:0:0:
444,248,179569,2,4,P|412:312|368:336,1,120,4|4,0:0|0:0,0:0:0:0:
332,220,180980,2,4,L|224:120,1,120,4|4,0:0|0:0,0:0:0:0:
124,124,182392,6,4,P|156:60|200:36,1,120
316,52,183804,1,4,0:0:0:0:
220,124,184510,2,0,B|236:152|236:152|264:176,1,60
256,192,185216,12,4,187686,0:0:0:0:
