osu file format v14

[General]
AudioFilename: Song.mp3
AudioLeadIn: 0
PreviewTime: 46157
Countdown: 0
SampleSet: Normal
StackLeniency: 0.8
Mode: 1
LetterboxInBreaks: 0
WidescreenStoryboard: 1

[Editor]
Bookmarks: 12981,24275,35569,46863,58157,70863,76510,82157,93451,104745,116039,128745,140039,151333,162628,173922
DistanceSpacing: 2.4
BeatDivisor: 4
GridSize: 32
TimelineZoom: 2.1

[Metadata]
Title:Karakurenai feat. Ranko
TitleUnicode:からくれない feat. ランコ
Artist:UNDEAD CORPORATION
ArtistUnicode:UNDEAD CORPORATION
Creator:Trent83
Version:[-Matt-] & Nanners Collab
Source:東方Project
Tags:Touhou toho complete box Comiket85 特 SPECIAL Yuugi Hoshiguma subterranean animism buta-otome 豚乙女 パインツリー Pinetree chireiden Crimson zun team shanghai alice パイン Dannine Dann9 MokouSmoke [HiiroSakaki] HiiroSakaki Daniel Nanners [-Matt-] -Matt- Matt Trent83 trent83 taiko Storyboard Firstmap 1stmap
BeatmapID:927917
BeatmapSetID:425723

[Difficulty]
HPDrainRate:5
CircleSize:4
OverallDifficulty:6
ApproachRate:5
SliderMultiplier:1.4
SliderTickRate:1

[Events]
//Background and Video events
0,0,"Taiko_BG.png",0,0
//Break Periods
//Storyboard Layer 0 (Background)
//Storyboard Layer 1 (Fail)
//Storyboard Layer 2 (Pass)
//Storyboard Layer 3 (Foreground)
//Storyboard Sound Samples

[TimingPoints]
12981,352.941176470588,4,1,0,50,1,0
46863,-80,4,1,0,50,0,1
68039,-100,4,1,0,50,0,0
104745,-80,4,1,0,50,0,1
125569,-100,4,1,0,50,0,0
162628,-80,4,1,0,50,0,1
183804,-100,4,1,0,50,0,0

[Colours]
Combo1 : 145,0,0
Combo2 : 114,14,79
Combo3 : 66,55,72
Combo4 : 244,0,6

[HitObjects]
256,192,12981,5,4,0:0:0:0:
256,192,13333,1,8,0:0:0:0:
256,192,13686,1,0,0:0:0:0:
256,192,14039,1,8,0:0:0:0:
256,192,14392,1,0,0:0:0:0:
256,192,14569,1,0,0:0:0:0:
256,192,14745,1,8,0:0:0:0:
256,192,14922,1,0,0:0:0:0:
256,192,15098,1,8,0:0:0:0:
256,192,15451,1,8,0:0:0:0:
256,192,15804,1,0,0:0:0:0:
256,192,16157,1,8,0:0:0:0:
256,192,16510,1,0,0:0:0:0:
256,192,16863,1,8,0:0:0:0:
256,192,17216,1,0,0:0:0:0:
256,192,17392,1,8,0:0:0:0:
256,192,17569,1,0,0:0:0:0:
256,192,17745,1,8,0:0:0:0:
256,192,17922,1,8,0:0:0:0:
256,192,18275,1,8,0:0:0:0:
256,192,18451,1,8,0:0:0:0:
256,192,18628,1,0,0:0:0:0:
256,192,18981,1,8,0:0:0:0:
256,192,19333,1,0,0:0:0:0:
256,192,19686,1,8,0:0:0:0:
256,192,20039,1,8,0:0:0:0:
256,192,20216,1,0,0:0:0:0:
256,192,20392,1,8,0:0:0:0:
256,192,20569,1,8,0:0:0:0:
256,192,20745,1,0,0:0:0:0:
256,192,21098,1,0,0:0:0:0:
256,192,21451,1,8,0:0:0:0:
256,192,21804,1,0,0:0:0:0:
256,192,22157,1,8,0:0:0:0:
256,192,22510,1,0,0:0:0:0:
256,192,22863,1,8,0:0:0:0:
256,192,23039,1,0,0:0:0:0:
256,192,23216,1,8,0:0:0:0:
256,192,23392,1,8,0:0:0:0:
256,192,23569,1,8,0:0:0:0:
256,192,23745,1,8,0:0:0:0:
256,192,23922,1,0,0:0:0:0:
256,192,24098,1,8,0:0:0:0:
256,192,24275,1,2,0:0:0:0:
256,192,24628,1,0,0:0:0:0:
256,192,24980,1,2,0:0:0:0:
256,192,25333,1,0,0:0:0:0:
256,192,25686,1,2,0:0:0:0:
256,192,25863,1,0,0:0:0:0:
256,192,26039,1,2,0:0:0:0:
256,192,26216,1,0,0:0:0:0:
256,192,26392,1,2,0:0:0:0:
256,192,26745,1,2,0:0:0:0:
256,192,27098,1,0,0:0:0:0:
256,192,27451,1,0,0:0:0:0:
256,192,27804,1,2,0:0:0:0:
256,192,28157,1,0,0:0:0:0:
256,192,28510,1,2,0:0:0:0:
256,192,28686,1,0,0:0:0:0:
256,192,28863,1,2,0:0:0:0:
256,192,29039,1,2,0:0:0:0:
256,192,29216,1,0,0:0:0:0:
256,192,29569,1,0,0:0:0:0:
256,192,29922,1,2,0:0:0:0:
256,192,30275,1,2,0:0:0:0:
256,192,30451,1,0,0:0:0:0:
256,192,30628,1,2,0:0:0:0:
256,192,30980,1,2,0:0:0:0:
256,192,31157,1,0,0:0:0:0:
256,192,31333,1,2,0:0:0:0:
256,192,31510,1,0,0:0:0:0:
256,192,31686,1,2,0:0:0:0:
256,192,31863,1,0,0:0:0:0:
256,192,32039,1,2,0:0:0:0:
256,192,32392,1,2,0:0:0:0:
256,192,32745,1,2,0:0:0:0:
256,192,32922,1,0,0:0:0:0:
256,192,33010,1,0,0:0:0:0:
256,192,33098,1,0,0:0:0:0:
256,192,33275,1,0,0:0:0:0:
256,192,33363,1,0,0:0:0:0:
256,192,33451,1,2,0:0:0:0:
256,192,33628,1,0,0:0:0:0:
256,192,33716,1,0,0:0:0:0:
256,192,33804,1,2,0:0:0:0:
256,192,33892,1,2,0:0:0:0:
256,192,33980,1,2,0:0:0:0:
256,192,34069,1,2,0:0:0:0:
256,192,34157,1,0,0:0:0:0:
256,192,34333,1,0,0:0:0:0:
256,192,34422,1,0,0:0:0:0:
256,192,34510,1,0,0:0:0:0:
256,192,34686,1,0,0:0:0:0:
256,192,34775,1,0,0:0:0:0:
256,192,34863,1,0,0:0:0:0:
256,192,35039,1,0,0:0:0:0:
256,192,35216,1,2,0:0:0:0:
256,192,35569,5,0,0:0:0:0:
256,192,35745,1,8,0:0:0:0:
256,192,35922,1,8,0:0:0:0:
256,192,36098,1,8,0:0:0:0:
256,192,36186,1,8,0:0:0:0:
256,192,36275,1,0,0:0:0:0:
256,192,36628,1,0,0:0:0:0:
256,192,36804,1,8,0:0:0:0:
256,192,36980,1,0,0:0:0:0:
256,192,37157,1,0,0:0:0:0:
256,192,37245,1,8,0:0:0:0:
256,192,37333,1,8,0:0:0:0:
256,192,37510,1,8,0:0:0:0:
256,192,37686,1,0,0:0:0:0:
256,192,37863,1,8,0:0:0:0:
256,192,38039,1,8,0:0:0:0:
256,192,38216,1,8,0:0:0:0:
256,192,38392,1,0,0:0:0:0:
256,192,38745,1,0,0:0:0:0:
256,192,38922,1,0,0:0:0:0:
256,192,39098,1,8,0:0:0:0:
256,192,39451,1,0,0:0:0:0:
256,192,39627,1,8,0:0:0:0:
256,192,39804,1,8,0:0:0:0:
256,192,39980,1,0,0:0:0:0:
256,192,40069,1,0,0:0:0:0:
256,192,40157,1,8,0:0:0:0:
256,192,40333,1,8,0:0:0:0:
256,192,40510,1,0,0:0:0:0:
256,192,40686,1,8,0:0:0:0:
256,192,40863,1,8,0:0:0:0:
256,192,41039,1,8,0:0:0:0:
256,192,41216,1,0,0:0:0:0:
256,192,41569,1,8,0:0:0:0:
256,192,41922,1,0,0:0:0:0:
256,192,42098,1,8,0:0:0:0:
256,192,42275,1,0,0:0:0:0:
256,192,42451,1,0,0:0:0:0:
256,192,42628,1,8,0:0:0:0:
256,192,42716,1,8,0:0:0:0:
256,192,42804,1,0,0:0:0:0:
256,192,42980,1,0,0:0:0:0:
256,192,43157,1,0,0:0:0:0:
256,192,43333,1,8,0:0:0:0:
256,192,43686,1,0,0:0:0:0:
256,192,44039,1,8,0:0:0:0:
256,192,44216,1,0,0:0:0:0:
256,192,44392,1,8,0:0:0:0:
256,192,44569,1,8,0:0:0:0:
256,192,44745,1,8,0:0:0:0:
256,192,44922,1,0,0:0:0:0:
256,192,45010,1,0,0:0:0:0:
256,192,45098,1,8,0:0:0:0:
256,192,45275,1,8,0:0:0:0:
256,192,45451,1,0,0:0:0:0:
256,192,45628,1,8,0:0:0:0:
256,192,45804,1,8,0:0:0:0:
256,192,45980,1,8,0:0:0:0:
256,192,46157,1,8,0:0:0:0:
256,192,46333,1,0,0:0:0:0:
256,192,46510,1,8,0:0:0:0:
256,192,46686,1,0,0:0:0:0:
256,192,46863,1,0,0:0:0:0:
256,192,47039,1,0,0:0:0:0:
256,192,47216,1,0,0:0:0:0:
256,192,47392,1,0,0:0:0:0:
256,192,47480,1,0,0:0:0:0:
256,192,47569,1,2,0:0:0:0:
256,192,47745,1,2,0:0:0:0:
256,192,47833,1,2,0:0:0:0:
256,192,47922,1,0,0:0:0:0:
256,192,48098,1,0,0:0:0:0:
256,192,48275,1,2,0:0:0:0:
256,192,48451,1,2,0:0:0:0:
256,192,48539,1,0,0:0:0:0:
256,192,48628,1,0,0:0:0:0:
256,192,48804,1,0,0:0:0:0:
256,192,48892,1,0,0:0:0:0:
256,192,48980,1,0,0:0:0:0:
256,192,49157,1,0,0:0:0:0:
256,192,49333,1,2,0:0:0:0:
256,192,49510,1,2,0:0:0:0:
256,192,49686,1,0,0:0:0:0:
256,192,50039,1,2,0:0:0:0:
256,192,50216,1,0,0:0:0:0:
256,192,50304,1,2,0:0:0:0:
256,192,50392,1,0,0:0:0:0:
256,192,50569,1,2,0:0:0:0:
256,192,50657,1,0,0:0:0:0:
256,192,50745,1,0,0:0:0:0:
256,192,50922,1,0,0:0:0:0:
256,192,51098,1,2,0:0:0:0:
256,192,51186,1,0,0:0:0:0:
256,192,51275,1,0,0:0:0:0:
256,192,51451,1,2,0:0:0:0:
256,192,51628,1,0,0:0:0:0:
256,192,51716,1,2,0:0:0:0:
256,192,51804,1,2,0:0:0:0:
256,192,51980,1,0,0:0:0:0:
256,192,52069,1,0,0:0:0:0:
256,192,52157,1,2,0:0:0:0:
256,192,52333,1,2,0:0:0:0:
256,192,52510,1,0,0:0:0:0:
256,192,52598,1,0,0:0:0:0:
256,192,52686,1,0,0:0:0:0:
256,192,52863,1,2,0:0:0:0:
256,192,53039,1,2,0:0:0:0:
256,192,53128,1,2,0:0:0:0:
256,192,53216,1,0,0:0:0:0:
256,192,53392,1,0,0:0:0:0:
256,192,53569,1,2,0:0:0:0:
256,192,53745,1,2,0:0:0:0:
256,192,53922,1,2,0:0:0:0:
256,192,54010,1,0,0:0:0:0:
256,192,54098,1,2,0:0:0:0:
256,192,54275,1,2,0:0:0:0:
256,192,54363,1,2,0:0:0:0:
256,192,54451,1,2,0:0:0:0:
256,192,54628,1,2,0:0:0:0:
256,192,54804,1,0,0:0:0:0:
256,192,54892,1,0,0:0:0:0:
256,192,54980,1,2,0:0:0:0:
256,192,55157,1,2,0:0:0:0:
256,192,55333,1,2,0:0:0:0:
256,192,55510,1,0,0:0:0:0:
256,192,55598,1,0,0:0:0:0:
256,192,55686,1,2,0:0:0:0:
256,192,55863,1,2,0:0:0:0:
256,192,55951,1,2,0:0:0:0:
256,192,56039,1,0,0:0:0:0:
256,192,56216,1,2,0:0:0:0:
256,192,56304,1,0,0:0:0:0:
256,192,56392,1,0,0:0:0:0:
256,192,56569,1,0,0:0:0:0:
256,192,56745,1,2,0:0:0:0:
256,192,56833,1,0,0:0:0:0:
256,192,56922,1,0,0:0:0:0:
256,192,57098,1,2,0:0:0:0:
256,192,57275,1,0,0:0:0:0:
256,192,57451,1,2,0:0:0:0:
256,192,57539,1,0,0:0:0:0:
256,192,57628,1,0,0:0:0:0:
256,192,57716,1,0,0:0:0:0:
256,192,57804,1,0,0:0:0:0:
256,192,57980,1,0,0:0:0:0:
256,192,58157,5,0,0:0:0:0:
256,192,58333,1,8,0:0:0:0:
256,192,58510,1,8,0:0:0:0:
256,192,58686,1,0,0:0:0:0:
256,192,58775,1,8,0:0:0:0:
256,192,58863,1,8,0:0:0:0:
256,192,59039,1,8,0:0:0:0:
256,192,59216,1,0,0:0:0:0:
256,192,59392,1,8,0:0:0:0:
256,192,59569,1,0,0:0:0:0:
256,192,59922,1,8,0:0:0:0:
256,192,60275,1,0,0:0:0:0:
256,192,60628,1,8,0:0:0:0:
256,192,60804,1,0,0:0:0:0:
256,192,60980,1,0,0:0:0:0:
256,192,61333,1,8,0:0:0:0:
256,192,61510,1,0,0:0:0:0:
256,192,61598,1,0,0:0:0:0:
256,192,61686,1,8,0:0:0:0:
256,192,61863,1,8,0:0:0:0:
256,192,62039,1,0,0:0:0:0:
256,192,62216,1,8,0:0:0:0:
256,192,62392,1,8,0:0:0:0:
256,192,62745,1,0,0:0:0:0:
256,192,63098,1,8,0:0:0:0:
256,192,63451,1,0,0:0:0:0:
256,192,63628,1,0,0:0:0:0:
256,192,63804,1,8,0:0:0:0:
256,192,64157,1,8,0:0:0:0:
256,192,64333,1,0,0:0:0:0:
256,192,64510,1,8,0:0:0:0:
256,192,64686,1,8,0:0:0:0:
256,192,64775,1,0,0:0:0:0:
256,192,64863,1,8,0:0:0:0:
256,192,65039,1,8,0:0:0:0:
256,192,65216,1,0,0:0:0:0:
256,192,65569,1,0,0:0:0:0:
256,192,65922,1,8,0:0:0:0:
256,192,66275,1,0,0:0:0:0:
256,192,66451,1,8,0:0:0:0:
256,192,66628,1,8,0:0:0:0:
256,192,66980,1,8,0:0:0:0:
256,192,67157,1,0,0:0:0:0:
256,192,67333,1,8,0:0:0:0:
256,192,67510,1,8,0:0:0:0:
256,192,67598,1,8,0:0:0:0:
256,192,67686,1,0,0:0:0:0:
256,192,67863,1,0,0:0:0:0:
256,192,68039,1,8,0:0:0:0:
256,192,68392,1,8,0:0:0:0:
256,192,68569,1,0,0:0:0:0:
256,192,68745,1,0,0:0:0:0:
256,192,68922,1,8,0:0:0:0:
256,192,69098,1,0,0:0:0:0:
256,192,69275,1,8,0:0:0:0:
256,192,69451,1,8,0:0:0:0:
256,192,69539,1,0,0:0:0:0:
256,192,69628,1,0,0:0:0:0:
256,192,69716,1,0,0:0:0:0:
256,192,69804,1,0,0:0:0:0:
256,192,69980,1,0,0:0:0:0:
256,192,70069,1,0,0:0:0:0:
256,192,70157,1,0,0:0:0:0:
256,192,70333,1,0,0:0:0:0:
256,192,70510,1,8,0:0:0:0:
256,192,70686,1,0,0:0:0:0:
256,192,70863,1,0,0:0:0:0:
256,192,71039,1,2,0:0:0:0:
256,192,71216,1,2,0:0:0:0:
256,192,71392,1,2,0:0:0:0:
256,192,71569,1,0,0:0:0:0:
256,192,71745,1,0,0:0:0:0:
256,192,71922,1,2,0:0:0:0:
256,192,72098,1,0,0:0:0:0:
256,192,72275,1,2,0:0:0:0:
256,192,72451,1,2,0:0:0:0:
256,192,72539,1,2,0:0:0:0:
256,192,72628,1,0,0:0:0:0:
256,192,72804,1,0,0:0:0:0:
256,192,72980,1,2,0:0:0:0:
256,192,73157,1,0,0:0:0:0:
256,192,73333,1,2,0:0:0:0:
256,192,73510,1,2,0:0:0:0:
256,192,73686,1,0,0:0:0:0:
256,192,73863,1,0,0:0:0:0:
256,192,74039,1,2,0:0:0:0:
256,192,74216,1,0,0:0:0:0:
256,192,74392,1,0,0:0:0:0:
256,192,74569,1,2,0:0:0:0:
256,192,74745,1,0,0:0:0:0:
256,192,74922,1,0,0:0:0:0:
256,192,75275,1,2,0:0:0:0:
256,192,75363,1,2,0:0:0:0:
256,192,75451,1,0,0:0:0:0:
256,192,75628,1,0,0:0:0:0:
256,192,75804,1,2,0:0:0:0:
256,192,75980,1,2,0:0:0:0:
256,192,76069,1,2,0:0:0:0:
256,192,76157,1,0,0:0:0:0:
256,192,76333,1,0,0:0:0:0:
256,192,76510,5,0,0:0:0:0:
256,192,76686,1,0,0:0:0:0:
256,192,76863,1,8,0:0:0:0:
256,192,77039,1,0,0:0:0:0:
256,192,77128,1,0,0:0:0:0:
256,192,77216,1,8,0:0:0:0:
256,192,77392,1,8,0:0:0:0:
256,192,77569,1,0,0:0:0:0:
256,192,77745,1,0,0:0:0:0:
256,192,77922,1,8,0:0:0:0:
256,192,78098,1,0,0:0:0:0:
256,192,78186,1,0,0:0:0:0:
256,192,78275,1,0,0:0:0:0:
256,192,78451,1,0,0:0:0:0:
256,192,78628,1,8,0:0:0:0:
256,192,78804,1,0,0:0:0:0:
256,192,78980,1,0,0:0:0:0:
256,192,79157,1,0,0:0:0:0:
256,192,79333,1,0,0:0:0:0:
256,192,79510,1,0,0:0:0:0:
256,192,79598,1,0,0:0:0:0:
256,192,79686,1,8,0:0:0:0:
256,192,79863,1,0,0:0:0:0:
256,192,80039,1,8,0:0:0:0:
256,192,80392,1,8,0:0:0:0:
256,192,80569,1,0,0:0:0:0:
256,192,80745,1,0,0:0:0:0:
256,192,80922,1,0,0:0:0:0:
256,192,81010,1,0,0:0:0:0:
256,192,81098,1,8,0:0:0:0:
256,192,81275,1,8,0:0:0:0:
256,192,81451,1,0,0:0:0:0:
256,192,81628,1,8,0:0:0:0:
256,192,81804,1,8,0:0:0:0:
256,192,81980,1,8,0:0:0:0:
256,192,82157,1,2,0:0:0:0:
256,192,82510,1,0,0:0:0:0:
256,192,82863,1,2,0:0:0:0:
256,192,83216,1,0,0:0:0:0:
256,192,83569,1,2,0:0:0:0:
256,192,83745,1,0,0:0:0:0:
256,192,83922,1,2,0:0:0:0:
256,192,84098,1,0,0:0:0:0:
256,192,84275,1,2,0:0:0:0:
256,192,84628,1,2,0:0:0:0:
256,192,84980,1,0,0:0:0:0:
256,192,85333,1,0,0:0:0:0:
256,192,85686,1,2,0:0:0:0:
256,192,86039,1,0,0:0:0:0:
256,192,86392,1,2,0:0:0:0:
256,192,86569,1,2,0:0:0:0:
256,192,86745,1,0,0:0:0:0:
256,192,86922,1,0,0:0:0:0:
256,192,87098,1,2,0:0:0:0:
256,192,87451,1,2,0:0:0:0:
256,192,87804,1,2,0:0:0:0:
256,192,88157,1,0,0:0:0:0:
256,192,88333,1,0,0:0:0:0:
256,192,88510,1,2,0:0:0:0:
256,192,88863,1,0,0:0:0:0:
256,192,89216,1,2,0:0:0:0:
256,192,89392,1,0,0:0:0:0:
256,192,89569,1,2,0:0:0:0:
256,192,89745,1,0,0:0:0:0:
256,192,89922,1,0,0:0:0:0:
256,192,90275,1,2,0:0:0:0:
256,192,90628,1,0,0:0:0:0:
256,192,90980,1,2,0:0:0:0:
256,192,91333,1,2,0:0:0:0:
256,192,91686,1,0,0:0:0:0:
256,192,91863,1,2,0:0:0:0:
256,192,92039,1,2,0:0:0:0:
256,192,92304,1,2,0:0:0:0:
256,192,92392,1,0,0:0:0:0:
256,192,92657,1,2,0:0:0:0:
256,192,92745,1,0,0:0:0:0:
256,192,92921,1,0,0:0:0:0:
256,192,93009,1,0,0:0:0:0:
256,192,93098,1,2,0:0:0:0:
256,192,93451,5,0,0:0:0:0:
256,192,93628,1,8,0:0:0:0:
256,192,93804,1,0,0:0:0:0:
256,192,93980,1,8,0:0:0:0:
256,192,94069,1,8,0:0:0:0:
256,192,94157,1,0,0:0:0:0:
256,192,94334,1,0,0:0:0:0:
256,192,94510,1,8,0:0:0:0:
256,192,94687,1,8,0:0:0:0:
256,192,94863,1,0,0:0:0:0:
256,192,95039,1,0,0:0:0:0:
256,192,95128,1,0,0:0:0:0:
256,192,95216,1,8,0:0:0:0:
256,192,95392,1,8,0:0:0:0:
256,192,95569,1,0,0:0:0:0:
256,192,95922,1,8,0:0:0:0:
256,192,96010,1,0,0:0:0:0:
256,192,96098,1,0,0:0:0:0:
256,192,96275,1,0,0:0:0:0:
256,192,96451,1,0,0:0:0:0:
256,192,96628,1,8,0:0:0:0:
256,192,96804,1,0,0:0:0:0:
256,192,96892,1,8,0:0:0:0:
256,192,96980,1,8,0:0:0:0:
256,192,97157,1,0,0:0:0:0:
256,192,97333,1,8,0:0:0:0:
256,192,97510,1,8,0:0:0:0:
256,192,97686,1,0,0:0:0:0:
256,192,97775,1,0,0:0:0:0:
256,192,97863,1,0,0:0:0:0:
256,192,98039,1,0,0:0:0:0:
256,192,98216,1,8,0:0:0:0:
256,192,98392,1,0,0:0:0:0:
256,192,98569,1,0,0:0:0:0:
256,192,98745,1,8,0:0:0:0:
256,192,98922,1,0,0:0:0:0:
256,192,99098,1,8,0:0:0:0:
256,192,99451,1,8,0:0:0:0:
256,192,99804,1,8,0:0:0:0:
256,192,100157,1,0,0:0:0:0:
256,192,100333,1,8,0:0:0:0:
256,192,100510,1,0,0:0:0:0:
256,192,100686,1,0,0:0:0:0:
256,192,100775,1,0,0:0:0:0:
256,192,100863,1,0,0:0:0:0:
256,192,101039,1,8,0:0:0:0:
256,192,101216,1,0,0:0:0:0:
256,192,101392,1,0,0:0:0:0:
256,192,101569,1,8,0:0:0:0:
256,192,101657,1,8,0:0:0:0:
256,192,101745,1,8,0:0:0:0:
256,192,101922,1,0,0:0:0:0:
256,192,102098,1,0,0:0:0:0:
256,192,102275,1,8,0:0:0:0:
256,192,102451,1,0,0:0:0:0:
256,192,102628,1,8,0:0:0:0:
256,192,102804,1,8,0:0:0:0:
256,192,102980,1,8,0:0:0:0:
256,192,103157,1,0,0:0:0:0:
256,192,103333,1,8,0:0:0:0:
256,192,103510,1,8,0:0:0:0:
256,192,103598,1,0,0:0:0:0:
256,192,103686,1,0,0:0:0:0:
256,192,103863,1,0,0:0:0:0:
256,192,104039,1,8,0:0:0:0:
256,192,104745,1,0,0:0:0:0:
256,192,104921,1,0,0:0:0:0:
256,192,105098,1,0,0:0:0:0:
256,192,105274,1,0,0:0:0:0:
256,192,105362,1,0,0:0:0:0:
256,192,105451,1,2,0:0:0:0:
256,192,105627,1,2,0:0:0:0:
256,192,105715,1,2,0:0:0:0:
256,192,105804,1,0,0:0:0:0:
256,192,105980,1,0,0:0:0:0:
256,192,106157,1,2,0:0:0:0:
256,192,106333,1,2,0:0:0:0:
256,192,106421,1,0,0:0:0:0:
256,192,106510,1,0,0:0:0:0:
256,192,106686,1,0,0:0:0:0:
256,192,106774,1,0,0:0:0:0:
256,192,106862,1,0,0:0:0:0:
256,192,107039,1,0,0:0:0:0:
256,192,107215,1,2,0:0:0:0:
256,192,107392,1,2,0:0:0:0:
256,192,107568,1,0,0:0:0:0:
256,192,107921,1,2,0:0:0:0:
256,192,108098,1,0,0:0:0:0:
256,192,108186,1,2,0:0:0:0:
256,192,108274,1,0,0:0:0:0:
256,192,108451,1,2,0:0:0:0:
256,192,108539,1,0,0:0:0:0:
256,192,108627,1,0,0:0:0:0:
256,192,108804,1,0,0:0:0:0:
256,192,108980,1,2,0:0:0:0:
256,192,109068,1,0,0:0:0:0:
256,192,109157,1,0,0:0:0:0:
256,192,109333,1,2,0:0:0:0:
256,192,109510,1,0,0:0:0:0:
256,192,109598,1,2,0:0:0:0:
256,192,109686,1,2,0:0:0:0:
256,192,109862,1,0,0:0:0:0:
256,192,109951,1,0,0:0:0:0:
256,192,110039,1,2,0:0:0:0:
256,192,110215,1,2,0:0:0:0:
256,192,110392,1,0,0:0:0:0:
256,192,110480,1,0,0:0:0:0:
256,192,110568,1,0,0:0:0:0:
256,192,110745,1,2,0:0:0:0:
256,192,110921,1,2,0:0:0:0:
256,192,111010,1,2,0:0:0:0:
256,192,111098,1,0,0:0:0:0:
256,192,111274,1,0,0:0:0:0:
256,192,111451,1,2,0:0:0:0:
256,192,111627,1,2,0:0:0:0:
256,192,111804,1,2,0:0:0:0:
256,192,111892,1,0,0:0:0:0:
256,192,111980,1,2,0:0:0:0:
256,192,112157,1,2,0:0:0:0:
256,192,112245,1,2,0:0:0:0:
256,192,112333,1,2,0:0:0:0:
256,192,112510,1,2,0:0:0:0:
256,192,112686,1,0,0:0:0:0:
256,192,112774,1,0,0:0:0:0:
256,192,112862,1,2,0:0:0:0:
256,192,113039,1,2,0:0:0:0:
256,192,113215,1,2,0:0:0:0:
256,192,113392,1,0,0:0:0:0:
256,192,113480,1,0,0:0:0:0:
256,192,113568,1,2,0:0:0:0:
256,192,113745,1,2,0:0:0:0:
256,192,113833,1,2,0:0:0:0:
256,192,113921,1,0,0:0:0:0:
256,192,114098,1,2,0:0:0:0:
256,192,114186,1,0,0:0:0:0:
256,192,114274,1,0,0:0:0:0:
256,192,114451,1,0,0:0:0:0:
256,192,114627,1,2,0:0:0:0:
256,192,114715,1,0,0:0:0:0:
256,192,114804,1,0,0:0:0:0:
256,192,114980,5,2,0:0:0:0:
256,192,115157,1,0,0:0:0:0:
256,192,115333,1,2,0:0:0:0:
256,192,115421,1,0,0:0:0:0:
256,192,115510,1,0,0:0:0:0:
256,192,115598,1,0,0:0:0:0:
256,192,115686,1,0,0:0:0:0:
256,192,115862,1,0,0:0:0:0:
256,192,116039,5,0,0:0:0:0:
256,192,116216,1,0,0:0:0:0:
256,192,116304,1,0,0:0:0:0:
256,192,116392,1,8,0:0:0:0:
256,192,116569,1,8,0:0:0:0:
256,192,116745,1,0,0:0:0:0:
256,192,116922,1,8,0:0:0:0:
256,192,117010,1,8,0:0:0:0:
256,192,117098,1,0,0:0:0:0:
256,192,117275,1,0,0:0:0:0:
256,192,117451,1,8,0:0:0:0:
256,192,117804,1,0,0:0:0:0:
256,192,118157,1,0,0:0:0:0:
256,192,118510,1,0,0:0:0:0:
256,192,118686,1,8,0:0:0:0:
256,192,118863,1,8,0:0:0:0:
256,192,119216,1,0,0:0:0:0:
256,192,119392,1,8,0:0:0:0:
256,192,119480,1,8,0:0:0:0:
256,192,119569,1,0,0:0:0:0:
256,192,119745,1,0,0:0:0:0:
256,192,119922,1,8,0:0:0:0:
256,192,120098,1,0,0:0:0:0:
256,192,120275,1,8,0:0:0:0:
256,192,120628,1,8,0:0:0:0:
256,192,120980,1,0,0:0:0:0:
256,192,121333,1,0,0:0:0:0:
256,192,121510,1,0,0:0:0:0:
256,192,121686,1,8,0:0:0:0:
256,192,122039,1,8,0:0:0:0:
256,192,122216,1,0,0:0:0:0:
256,192,122392,1,8,0:0:0:0:
256,192,122569,1,8,0:0:0:0:
256,192,122657,1,0,0:0:0:0:
256,192,122745,1,8,0:0:0:0:
256,192,122922,1,8,0:0:0:0:
256,192,123098,1,8,0:0:0:0:
256,192,123451,1,0,0:0:0:0:
256,192,123804,1,0,0:0:0:0:
256,192,124157,1,8,0:0:0:0:
256,192,124333,1,0,0:0:0:0:
256,192,124510,1,0,0:0:0:0:
256,192,124863,1,8,0:0:0:0:
256,192,125039,1,0,0:0:0:0:
256,192,125216,1,0,0:0:0:0:
256,192,125392,1,0,0:0:0:0:
256,192,125480,1,8,0:0:0:0:
256,192,125569,1,8,0:0:0:0:
256,192,125745,1,8,0:0:0:0:
256,192,125922,1,0,0:0:0:0:
256,192,126275,1,0,0:0:0:0:
256,192,126451,1,0,0:0:0:0:
256,192,126628,1,8,0:0:0:0:
256,192,126804,1,8,0:0:0:0:
256,192,126892,1,0,0:0:0:0:
256,192,126980,1,0,0:0:0:0:
256,192,127157,1,0,0:0:0:0:
256,192,127333,1,8,0:0:0:0:
256,192,127422,1,0,0:0:0:0:
256,192,127510,1,0,0:0:0:0:
256,192,127598,1,0,0:0:0:0:
256,192,127686,1,0,0:0:0:0:
256,192,127863,1,0,0:0:0:0:
256,192,127951,1,0,0:0:0:0:
256,192,128039,1,0,0:0:0:0:
256,192,128216,1,0,0:0:0:0:
256,192,128392,1,8,0:0:0:0:
256,192,128569,1,8,0:0:0:0:
256,192,128745,1,2,0:0:0:0:
256,192,130510,1,0,0:0:0:0:
256,192,130598,1,2,0:0:0:0:
256,192,130686,1,2,0:0:0:0:
256,192,130863,1,2,0:0:0:0:
256,192,130951,1,2,0:0:0:0:
256,192,131039,1,0,0:0:0:0:
256,192,131128,1,0,0:0:0:0:
256,192,131216,1,2,0:0:0:0:
256,192,131304,1,0,0:0:0:0:
256,192,131392,1,0,0:0:0:0:
256,192,131480,1,2,0:0:0:0:
256,192,131569,1,0,0:0:0:0:
256,192,132275,1,2,0:0:0:0:
256,192,132980,1,2,0:0:0:0:
256,192,133333,1,2,0:0:0:0:
256,192,133510,1,0,0:0:0:0:
256,192,133686,1,0,0:0:0:0:
256,192,133863,1,0,0:0:0:0:
256,192,134039,1,0,0:0:0:0:
256,192,134216,1,0,0:0:0:0:
256,192,134392,1,2,0:0:0:0:
256,192,135098,1,2,0:0:0:0:
256,192,135628,1,0,0:0:0:0:
256,192,135716,1,0,0:0:0:0:
256,192,135804,1,2,0:0:0:0:
256,192,136333,1,0,0:0:0:0:
256,192,136510,1,2,0:0:0:0:
256,192,137039,1,0,0:0:0:0:
256,192,137128,1,0,0:0:0:0:
256,192,137216,1,2,0:0:0:0:
256,192,137569,1,0,0:0:0:0:
256,192,137922,1,2,0:0:0:0:
256,192,138628,1,2,0:0:0:0:
256,192,138980,1,0,0:0:0:0:
256,192,139098,1,0,0:0:0:0:
256,192,139216,1,0,0:0:0:0:
256,192,139333,1,2,0:0:0:0:
256,192,139451,1,0,0:0:0:0:
256,192,139569,1,0,0:0:0:0:
256,192,139686,1,2,0:0:0:0:
256,192,140039,5,0,0:0:0:0:
256,192,140216,1,0,0:0:0:0:
256,192,140392,1,8,0:0:0:0:
256,192,140569,1,8,0:0:0:0:
256,192,140657,1,8,0:0:0:0:
256,192,140745,1,0,0:0:0:0:
256,192,140922,1,0,0:0:0:0:
256,192,141098,1,8,0:0:0:0:
256,192,141275,1,0,0:0:0:0:
256,192,141451,1,8,0:0:0:0:
256,192,141539,1,8,0:0:0:0:
256,192,141628,1,0,0:0:0:0:
256,192,141804,1,0,0:0:0:0:
256,192,141980,1,0,0:0:0:0:
256,192,142157,1,8,0:0:0:0:
256,192,142333,1,0,0:0:0:0:
256,192,142422,1,0,0:0:0:0:
256,192,142510,1,8,0:0:0:0:
256,192,142686,1,8,0:0:0:0:
256,192,142863,1,0,0:0:0:0:
256,192,143039,1,0,0:0:0:0:
256,192,143216,1,8,0:0:0:0:
256,192,143392,1,0,0:0:0:0:
256,192,143569,1,8,0:0:0:0:
256,192,143657,1,8,0:0:0:0:
256,192,143745,1,0,0:0:0:0:
256,192,143922,1,0,0:0:0:0:
256,192,144098,1,8,0:0:0:0:
256,192,144275,1,0,0:0:0:0:
256,192,144451,1,0,0:0:0:0:
256,192,144539,1,0,0:0:0:0:
256,192,144628,1,8,0:0:0:0:
256,192,144804,1,8,0:0:0:0:
256,192,144980,1,0,0:0:0:0:
256,192,145333,1,8,0:0:0:0:
256,192,145686,1,0,0:0:0:0:
256,192,145863,1,0,0:0:0:0:
256,192,146039,1,8,0:0:0:0:
256,192,146216,1,8,0:0:0:0:
256,192,146304,1,8,0:0:0:0:
256,192,146392,1,0,0:0:0:0:
256,192,146569,1,0,0:0:0:0:
256,192,146745,1,8,0:0:0:0:
256,192,146922,1,8,0:0:0:0:
256,192,147010,1,0,0:0:0:0:
256,192,147098,1,0,0:0:0:0:
256,192,147275,1,0,0:0:0:0:
256,192,147451,1,8,0:0:0:0:
256,192,147628,1,0,0:0:0:0:
256,192,147716,1,8,0:0:0:0:
256,192,147804,1,8,0:0:0:0:
256,192,147980,1,8,0:0:0:0:
256,192,148157,1,0,0:0:0:0:
256,192,148333,1,0,0:0:0:0:
256,192,148422,1,0,0:0:0:0:
256,192,148510,1,8,0:0:0:0:
256,192,148686,1,8,0:0:0:0:
256,192,148863,1,0,0:0:0:0:
256,192,149039,1,8,0:0:0:0:
256,192,149128,1,8,0:0:0:0:
256,192,149216,1,0,0:0:0:0:
256,192,149392,1,0,0:0:0:0:
256,192,149569,1,8,0:0:0:0:
256,192,149745,1,8,0:0:0:0:
256,192,149833,1,8,0:0:0:0:
256,192,149922,1,0,0:0:0:0:
256,192,150098,1,0,0:0:0:0:
256,192,150275,1,8,0:0:0:0:
256,192,150451,1,8,0:0:0:0:
256,192,150628,1,0,0:0:0:0:
256,192,150980,1,0,0:0:0:0:
256,192,151157,1,0,0:0:0:0:
256,192,151333,1,2,0:0:0:0:
256,192,151510,1,0,0:0:0:0:
256,192,151686,1,2,0:0:0:0:
256,192,151863,1,2,0:0:0:0:
256,192,152039,1,0,0:0:0:0:
256,192,152392,1,2,0:0:0:0:
256,192,152569,1,0,0:0:0:0:
256,192,152745,1,2,0:0:0:0:
256,192,154157,1,0,0:0:0:0:
256,192,154333,1,0,0:0:0:0:
256,192,154510,1,2,0:0:0:0:
256,192,154686,1,0,0:0:0:0:
256,192,154863,1,2,0:0:0:0:
256,192,155216,1,2,0:0:0:0:
256,192,155392,1,0,0:0:0:0:
256,192,155569,1,0,0:0:0:0:
256,192,156628,1,0,0:0:0:0:
256,192,156980,1,0,0:0:0:0:
256,192,157157,1,0,0:0:0:0:
256,192,157333,1,2,0:0:0:0:
256,192,157510,1,2,0:0:0:0:
256,192,157686,1,2,0:0:0:0:
256,192,157863,1,0,0:0:0:0:
256,192,158039,1,0,0:0:0:0:
256,192,158216,1,2,0:0:0:0:
256,192,158392,1,2,0:0:0:0:
256,192,158745,1,2,0:0:0:0:
256,192,159098,1,0,0:0:0:0:
256,192,159451,1,0,0:0:0:0:
256,192,159628,1,0,0:0:0:0:
256,192,159804,1,2,0:0:0:0:
256,192,159980,1,2,0:0:0:0:
256,192,160157,1,2,0:0:0:0:
256,192,160333,1,2,0:0:0:0:
256,192,160510,1,0,0:0:0:0:
256,192,160686,1,0,0:0:0:0:
256,192,160863,1,0,0:0:0:0:
256,192,161039,1,2,0:0:0:0:
256,192,161216,1,6,0:0:0:0:
256,192,161922,1,0,0:0:0:0:
256,192,162098,1,0,0:0:0:0:
256,192,162275,1,2,0:0:0:0:
256,192,162451,1,2,0:0:0:0:
256,192,162628,5,0,0:0:0:0:
256,192,162804,1,8,0:0:0:0:
256,192,162980,1,8,0:0:0:0:
256,192,163157,1,8,0:0:0:0:
256,192,163245,1,0,0:0:0:0:
256,192,163333,1,0,0:0:0:0:
256,192,163510,1,0,0:0:0:0:
256,192,163686,1,8,0:0:0:0:
256,192,163863,1,0,0:0:0:0:
256,192,164039,1,0,0:0:0:0:
256,192,164392,1,8,0:0:0:0:
256,192,164745,1,0,0:0:0:0:
256,192,165098,1,8,0:0:0:0:
256,192,165275,1,8,0:0:0:0:
256,192,165451,1,0,0:0:0:0:
256,192,165804,1,0,0:0:0:0:
256,192,165980,1,0,0:0:0:0:
256,192,166157,1,8,0:0:0:0:
256,192,166333,1,8,0:0:0:0:
256,192,166422,1,0,0:0:0:0:
256,192,166510,1,8,0:0:0:0:
256,192,166686,1,8,0:0:0:0:
256,192,166863,1,0,0:0:0:0:
256,192,167216,1,0,0:0:0:0:
256,192,167569,1,8,0:0:0:0:
256,192,167922,1,8,0:0:0:0:
256,192,168098,1,0,0:0:0:0:
256,192,168275,1,0,0:0:0:0:
256,192,168628,1,8,0:0:0:0:
256,192,168804,1,0,0:0:0:0:
256,192,168980,1,0,0:0:0:0:
256,192,169157,1,8,0:0:0:0:
256,192,169245,1,0,0:0:0:0:
256,192,169333,1,8,0:0:0:0:
256,192,169510,1,8,0:0:0:0:
256,192,169686,1,0,0:0:0:0:
256,192,170039,1,0,0:0:0:0:
256,192,170216,1,0,0:0:0:0:
256,192,170392,1,8,0:0:0:0:
256,192,170745,1,0,0:0:0:0:
256,192,170922,1,8,0:0:0:0:
256,192,171098,1,8,0:0:0:0:
256,192,171451,1,8,0:0:0:0:
256,192,171628,1,0,0:0:0:0:
256,192,171804,1,8,0:0:0:0:
256,192,171980,1,8,0:0:0:0:
256,192,172069,1,8,0:0:0:0:
256,192,172157,1,8,0:0:0:0:
256,192,172333,1,0,0:0:0:0:
256,192,172510,1,8,0:0:0:0:
256,192,172863,1,8,0:0:0:0:
256,192,173039,1,0,0:0:0:0:
256,192,173216,1,0,0:0:0:0:
256,192,173392,1,8,0:0:0:0:
256,192,173569,1,0,0:0:0:0:
256,192,173745,1,8,0:0:0:0:
256,192,173922,1,0,0:0:0:0:
256,192,174098,1,0,0:0:0:0:
256,192,174275,1,0,0:0:0:0:
256,192,174451,1,0,0:0:0:0:
256,192,174539,1,0,0:0:0:0:
256,192,174628,1,2,0:0:0:0:
256,192,174804,1,2,0:0:0:0:
256,192,174892,1,2,0:0:0:0:
256,192,174981,1,0,0:0:0:0:
256,192,175157,1,0,0:0:0:0:
256,192,175334,1,2,0:0:0:0:
256,192,175510,1,2,0:0:0:0:
256,192,175598,1,2,0:0:0:0:
256,192,175687,1,0,0:0:0:0:
256,192,175863,1,2,0:0:0:0:
256,192,175951,1,0,0:0:0:0:
256,192,176039,1,0,0:0:0:0:
256,192,176216,1,0,0:0:0:0:
256,192,176392,1,2,0:0:0:0:
256,192,176569,1,2,0:0:0:0:
256,192,176745,1,0,0:0:0:0:
256,192,177098,1,2,0:0:0:0:
256,192,177275,1,0,0:0:0:0:
256,192,177363,1,2,0:0:0:0:
256,192,177451,1,0,0:0:0:0:
256,192,177628,1,2,0:0:0:0:
256,192,177716,1,0,0:0:0:0:
256,192,177804,1,0,0:0:0:0:
256,192,177981,1,2,0:0:0:0:
256,192,178157,1,0,0:0:0:0:
256,192,178245,1,2,0:0:0:0:
256,192,178334,1,2,0:0:0:0:
256,192,178510,1,2,0:0:0:0:
256,192,178687,1,0,0:0:0:0:
256,192,178775,1,2,0:0:0:0:
256,192,178863,1,2,0:0:0:0:
256,192,179039,1,2,0:0:0:0:
256,192,179128,1,0,0:0:0:0:
256,192,179216,1,2,0:0:0:0:
256,192,179392,1,2,0:0:0:0:
256,192,179569,1,2,0:0:0:0:
256,192,179657,1,0,0:0:0:0:
256,192,179745,1,0,0:0:0:0:
256,192,179922,1,2,0:0:0:0:
256,192,180098,1,0,0:0:0:0:
256,192,180187,1,0,0:0:0:0:
256,192,180275,1,2,0:0:0:0:
256,192,180451,1,0,0:0:0:0:
256,192,180628,1,2,0:0:0:0:
256,192,180804,1,2,0:0:0:0:
256,192,180981,1,2,0:0:0:0:
256,192,181069,1,0,0:0:0:0:
256,192,181157,1,2,0:0:0:0:
256,192,181334,1,2,0:0:0:0:
256,192,181422,1,2,0:0:0:0:
256,192,181510,1,2,0:0:0:0:
256,192,181687,1,2,0:0:0:0:
256,192,181863,1,0,0:0:0:0:
256,192,181951,1,0,0:0:0:0:
256,192,182039,1,2,0:0:0:0:
256,192,182216,1,2,0:0:0:0:
256,192,182392,1,2,0:0:0:0:
256,192,182569,1,0,0:0:0:0:
256,192,182657,1,0,0:0:0:0:
256,192,182745,1,2,0:0:0:0:
256,192,182922,1,2,0:0:0:0:
256,192,183010,1,2,0:0:0:0:
256,192,183098,1,0,0:0:0:0:
256,192,183275,1,2,0:0:0:0:
256,192,183363,1,0,0:0:0:0:
256,192,183451,1,0,0:0:0:0:
256,192,183628,1,0,0:0:0:0:
256,192,183804,1,2,0:0:0:0:
256,192,183892,1,0,0:0:0:0:
256,192,183981,1,0,0:0:0:0:
256,192,184157,1,2,0:0:0:0:
256,192,184333,1,0,0:0:0:0:
256,192,184510,1,2,0:0:0:0:
256,192,184686,1,0,0:0:0:0:
256,192,184863,1,2,0:0:0:0:
256,192,185039,1,2,0:0:0:0:
256,192,185216,1,2,0:0:0:0:
256,192,185392,1,0,0:0:0:0:
256,192,185569,1,2,0:0:0:0:
256,192,185745,1,0,0:0:0:0:
256,192,185833,1,0,0:0:0:0:
256,192,185922,1,2,0:0:0:0:
256,192,186098,1,0,0:0:0:0:
256,192,186275,1,2,0:0:0:0:
256,192,186451,1,0,0:0:0:0:
256,192,186539,1,0,0:0:0:0:
256,192,186628,1,2,0:0:0:0:
256,192,186804,1,0,0:0:0:0:
256,192,186892,1,0,0:0:0:0:
256,192,186980,1,2,0:0:0:0:
256,192,187157,1,2,0:0:0:0:
256,192,187245,1,2,0:0:0:0:
256,192,187333,1,0,0:0:0:0:
256,192,187510,1,0,0:0:0:0:
256,192,187686,5,0,0:0:0:0:
