osu file format v14

[General]
AudioFilename: Lekiai.mp3
AudioLeadIn: 0
PreviewTime: 164267
Countdown: 1
SampleSet: None
StackLeniency: 0.7
Mode: 1
LetterboxInBreaks: 1
WidescreenStoryboard: 1

[Editor]
DistanceSpacing: 1
BeatDivisor: 4
GridSize: 16
TimelineZoom: 2.1

[Metadata]
Title:Karakurenai
TitleUnicode:Karakurenai
Artist:UNDEAD CORPORATION
ArtistUnicode:UNDEAD CORPORATION
Creator:TimmyAkmed
Version:Futsuu
Source:
Tags:Undead Corporation Katsura Rin Karakurenai
BeatmapID:792764
BeatmapSetID:360718

[Difficulty]
HPDrainRate:5
CircleSize:5
OverallDifficulty:4
ApproachRate:5
SliderMultiplier:1.4
SliderTickRate:1

[Events]
//Background and Video events
0,0,"BGKarakuoni.jpg",0,0
//Break Periods
//Storyboard Layer 0 (Background)
//Storyboard Layer 1 (Fail)
//Storyboard Layer 2 (Pass)
//Storyboard Layer 3 (Foreground)
//Storyboard Sound Samples

[TimingPoints]
13385,352.941176470588,4,1,0,100,1,0
47267,-100,4,1,0,100,0,1
69149,-100,4,1,0,100,0,0
105149,-100,4,1,0,100,0,1
127032,-100,4,1,0,100,0,0
163032,-100,4,1,0,100,0,1
184914,-100,4,1,0,100,0,0

[HitObjects]
320,288,13385,5,0,0:0:0:0:
320,288,13737,1,2,0:0:0:0:
352,336,14090,1,0,0:0:0:0:
320,320,14443,1,2,0:0:0:0:
320,320,14796,1,0,0:0:0:0:
320,336,14973,1,0,0:0:0:0:
320,336,15149,1,2,0:0:0:0:
192,224,15502,1,0,0:0:0:0:
288,240,16208,1,0,0:0:0:0:
288,256,16561,1,2,0:0:0:0:
288,256,16914,1,0,0:0:0:0:
272,320,17267,1,2,0:0:0:0:
256,272,17620,1,0,0:0:0:0:
272,320,17796,1,0,0:0:0:0:
256,192,17973,1,2,0:0:0:0:
256,192,18326,1,2,0:0:0:0:
352,336,19032,1,2,0:0:0:0:
336,288,19385,1,0,0:0:0:0:
336,288,19561,1,0,0:0:0:0:
336,288,19737,1,2,0:0:0:0:
352,320,20090,1,0,0:0:0:0:
336,320,20443,1,2,0:0:0:0:
336,320,20620,1,2,0:0:0:0:
336,320,20796,1,0,0:0:0:0:
336,320,21149,1,2,0:0:0:0:
320,288,21855,1,0,0:0:0:0:
320,304,22208,1,2,0:0:0:0:
320,304,22561,1,0,0:0:0:0:
320,304,22914,1,0,0:0:0:0:
256,160,23090,1,0,0:0:0:0:
256,160,23267,1,2,0:0:0:0:
336,320,23620,1,2,0:0:0:0:
336,320,23973,1,2,0:0:0:0:
320,320,24326,1,2,0:0:0:0:
320,320,24679,1,0,0:0:0:0:
240,272,24855,1,0,0:0:0:0:
240,272,25032,1,2,0:0:0:0:
352,336,25208,1,0,0:0:0:0:
352,336,25384,1,2,0:0:0:0:
352,336,25737,1,0,0:0:0:0:
336,304,25914,1,0,0:0:0:0:
336,304,26090,1,2,0:0:0:0:
208,160,26443,1,0,0:0:0:0:
336,320,26620,1,2,0:0:0:0:
336,320,26796,1,0,0:0:0:0:
368,336,26973,1,2,0:0:0:0:
336,320,27149,1,0,0:0:0:0:
160,208,27326,1,0,0:0:0:0:
224,160,27502,1,2,0:0:0:0:
224,192,27855,1,2,0:0:0:0:
240,224,28032,1,0,0:0:0:0:
240,208,28208,1,2,0:0:0:0:
320,304,28561,1,2,0:0:0:0:
320,304,28737,1,0,0:0:0:0:
320,304,28914,1,0,0:0:0:0:
320,304,29090,1,2,0:0:0:0:
320,304,29267,1,0,0:0:0:0:
320,304,29620,1,0,0:0:0:0:
144,160,29796,1,0,0:0:0:0:
128,160,29973,1,2,0:0:0:0:
192,208,30150,1,0,0:0:0:0:
224,160,30326,1,2,0:0:0:0:
224,192,30679,1,2,0:0:0:0:
240,224,30856,1,0,0:0:0:0:
240,208,31032,1,2,0:0:0:0:
320,304,31385,1,2,0:0:0:0:
320,304,31737,1,0,0:0:0:0:
320,304,31914,1,2,0:0:0:0:
224,192,32090,1,0,0:0:0:0:
320,304,32267,1,0,0:0:0:0:
320,304,32443,1,2,0:0:0:0:
128,160,32797,1,0,0:0:0:0:
192,208,32974,1,0,0:0:0:0:
304,192,33150,1,2,0:0:0:0:
288,288,33502,1,0,0:0:0:0:
288,288,33855,1,2,0:0:0:0:
192,192,34208,1,0,0:0:0:0:
192,192,34384,1,0,0:0:0:0:
208,176,34561,1,2,0:0:0:0:
192,176,34737,1,2,0:0:0:0:
192,176,34914,1,2,0:0:0:0:
208,176,35267,1,2,0:0:0:0:
208,176,35443,1,2,0:0:0:0:
208,176,35620,1,0,0:0:0:0:
208,176,35973,1,0,0:0:0:0:
208,192,36149,1,0,0:0:0:0:
208,192,36326,1,2,0:0:0:0:
320,144,36502,1,2,0:0:0:0:
288,208,36679,1,0,0:0:0:0:
256,160,37032,1,0,0:0:0:0:
256,160,37208,1,0,0:0:0:0:
256,160,37384,1,2,0:0:0:0:
288,192,37737,1,2,0:0:0:0:
304,304,37914,1,2,0:0:0:0:
320,288,38090,1,0,0:0:0:0:
304,208,38443,1,0,0:0:0:0:
304,208,38620,1,0,0:0:0:0:
320,320,38796,1,2,0:0:0:0:
320,288,39149,1,0,0:0:0:0:
320,288,39326,1,2,0:0:0:0:
320,288,39502,1,0,0:0:0:0:
272,224,39855,1,2,0:0:0:0:
272,240,40032,1,2,0:0:0:0:
272,240,40208,1,0,0:0:0:0:
272,208,40384,1,0,0:0:0:0:
288,240,40561,1,2,0:0:0:0:
288,224,40914,1,0,0:0:0:0:
336,304,41267,1,0,0:0:0:0:
320,304,41620,1,0,0:0:0:0:
208,160,41796,1,2,0:0:0:0:
224,160,41973,1,0,0:0:0:0:
272,224,42149,1,0,0:0:0:0:
224,128,42326,1,2,0:0:0:0:
192,160,42679,1,2,0:0:0:0:
272,240,43032,1,0,0:0:0:0:
272,240,43208,1,0,0:0:0:0:
272,224,43384,1,2,0:0:0:0:
272,240,43561,1,0,0:0:0:0:
272,240,43737,1,6,0:0:0:0:
272,240,44090,1,0,0:0:0:0:
208,176,44443,1,0,0:0:0:0:
208,176,44620,1,0,0:0:0:0:
208,176,44796,1,0,0:0:0:0:
208,192,44973,1,2,0:0:0:0:
208,176,45149,1,0,0:0:0:0:
320,304,45326,1,0,0:0:0:0:
320,304,45502,1,0,0:0:0:0:
320,288,45679,1,6,0:0:0:0:
320,272,45855,1,0,0:0:0:0:
288,256,46561,1,2,0:0:0:0:
336,352,46737,1,0,0:0:0:0:
288,272,46914,1,2,0:0:0:0:
336,336,47090,1,0,0:0:0:0:
288,272,47267,1,0,0:0:0:0:
288,240,47443,1,2,0:0:0:0:
288,256,47620,1,0,0:0:0:0:
208,176,47973,1,0,0:0:0:0:
224,160,48149,1,0,0:0:0:0:
240,160,48326,1,2,0:0:0:0:
288,256,48502,1,0,0:0:0:0:
288,256,48679,1,2,0:0:0:0:
288,256,49032,1,0,0:0:0:0:
288,256,49208,1,0,0:0:0:0:
288,256,49384,1,2,0:0:0:0:
192,192,49737,1,0,0:0:0:0:
192,192,49914,1,0,0:0:0:0:
192,192,50090,1,2,0:0:0:0:
256,192,50443,1,0,0:0:0:0:
256,192,50620,1,2,0:0:0:0:
288,256,50796,1,0,0:0:0:0:
288,256,50973,1,0,0:0:0:0:
288,240,51149,1,2,0:0:0:0:
288,240,51326,1,0,0:0:0:0:
288,240,51502,1,2,0:0:0:0:
224,176,51855,1,2,0:0:0:0:
272,192,52208,1,2,0:0:0:0:
192,128,52561,1,0,0:0:0:0:
224,192,52737,1,2,0:0:0:0:
192,160,52914,1,0,0:0:0:0:
304,256,53267,1,2,0:0:0:0:
304,256,53443,1,0,0:0:0:0:
320,256,53620,1,2,0:0:0:0:
320,256,53796,1,0,0:0:0:0:
320,256,53973,1,2,0:0:0:0:
320,256,54326,1,0,0:0:0:0:
304,256,54502,1,0,0:0:0:0:
304,256,54679,1,2,0:0:0:0:
304,240,54855,1,0,0:0:0:0:
304,240,55032,1,2,0:0:0:0:
304,240,55384,1,2,0:0:0:0:
240,160,55561,1,0,0:0:0:0:
320,288,55737,1,0,0:0:0:0:
320,304,56090,1,0,0:0:0:0:
304,160,56267,1,2,0:0:0:0:
304,176,56443,1,2,0:0:0:0:
304,176,56620,1,0,0:0:0:0:
304,176,56796,1,2,0:0:0:0:
304,176,56973,1,2,0:0:0:0:
304,176,57149,1,0,0:0:0:0:
192,240,57326,1,0,0:0:0:0:
192,240,57502,1,0,0:0:0:0:
240,192,57855,1,2,0:0:0:0:
272,256,58032,1,0,0:0:0:0:
272,256,58208,1,2,0:0:0:0:
272,256,58384,1,0,0:0:0:0:
272,256,58561,1,2,0:0:0:0:
304,272,58914,1,2,0:0:0:0:
256,256,59090,1,0,0:0:0:0:
256,240,59267,1,2,0:0:0:0:
352,384,59443,1,0,0:0:0:0:
208,192,59620,1,0,0:0:0:0:
208,176,59973,1,2,0:0:0:0:
240,208,60149,1,0,0:0:0:0:
240,208,60326,1,0,0:0:0:0:
320,272,60502,1,2,0:0:0:0:
320,272,60679,1,0,0:0:0:0:
192,224,61032,1,0,0:0:0:0:
192,224,61208,1,2,0:0:0:0:
288,256,61384,1,0,0:0:0:0:
288,256,61737,1,0,0:0:0:0:
288,272,61914,1,2,0:0:0:0:
288,272,62090,1,0,0:0:0:0:
288,272,62267,1,0,0:0:0:0:
320,288,62443,1,0,0:0:0:0:
320,288,62620,1,0,0:0:0:0:
320,288,62796,1,2,0:0:0:0:
304,288,63149,1,0,0:0:0:0:
256,192,63326,1,2,0:0:0:0:
256,192,63502,1,0,0:0:0:0:
208,224,63855,1,0,0:0:0:0:
192,240,64032,1,2,0:0:0:0:
192,224,64208,1,0,0:0:0:0:
304,240,64561,1,2,0:0:0:0:
304,240,64737,1,0,0:0:0:0:
304,240,64914,1,2,0:0:0:0:
320,304,65267,1,2,0:0:0:0:
320,304,65443,1,2,0:0:0:0:
288,272,65620,1,0,0:0:0:0:
288,208,65973,1,2,0:0:0:0:
320,304,66149,1,0,0:0:0:0:
320,304,66325,1,2,0:0:0:0:
176,208,66679,1,0,0:0:0:0:
176,192,66855,1,2,0:0:0:0:
176,192,67032,1,0,0:0:0:0:
176,192,67208,1,0,0:0:0:0:
288,272,67384,1,2,0:0:0:0:
288,256,67737,1,2,0:0:0:0:
256,192,67914,1,0,0:0:0:0:
240,208,68090,1,2,0:0:0:0:
320,288,68443,1,2,0:0:0:0:
336,304,68620,1,0,0:0:0:0:
336,288,68796,1,2,0:0:0:0:
336,288,68973,1,0,0:0:0:0:
336,304,69149,1,6,0:0:0:0:
272,208,69502,1,0,0:0:0:0:
272,208,69679,1,0,0:0:0:0:
208,176,69855,1,6,0:0:0:0:
336,272,70561,1,2,0:0:0:0:
336,272,70737,1,2,0:0:0:0:
336,272,70914,1,2,0:0:0:0:
336,272,71090,1,2,0:0:0:0:
336,288,71267,1,4,0:0:0:0:
208,192,71620,1,2,0:0:0:0:
320,144,71796,1,2,0:0:0:0:
288,208,71973,1,0,0:0:0:0:
256,160,72326,1,0,0:0:0:0:
256,160,72502,1,0,0:0:0:0:
256,160,72678,1,2,0:0:0:0:
368,304,73031,1,2,0:0:0:0:
304,304,73208,1,2,0:0:0:0:
320,288,73384,1,0,0:0:0:0:
304,208,73737,1,0,0:0:0:0:
304,208,73914,1,0,0:0:0:0:
320,320,74090,1,2,0:0:0:0:
320,288,74443,1,0,0:0:0:0:
320,288,74796,1,0,0:0:0:0:
272,224,75149,1,2,0:0:0:0:
272,240,75326,1,2,0:0:0:0:
272,240,75502,1,0,0:0:0:0:
272,240,75678,1,0,0:0:0:0:
288,240,75855,1,2,0:0:0:0:
288,224,76208,1,0,0:0:0:0:
336,304,76561,1,0,0:0:0:0:
320,304,76914,1,0,0:0:0:0:
208,160,77090,1,2,0:0:0:0:
224,160,77267,1,0,0:0:0:0:
272,224,77443,1,0,0:0:0:0:
272,224,77620,1,2,0:0:0:0:
288,240,77796,1,0,0:0:0:0:
288,240,77973,1,2,0:0:0:0:
272,240,78326,1,0,0:0:0:0:
272,240,78502,1,0,0:0:0:0:
272,224,78678,1,2,0:0:0:0:
272,240,78855,1,0,0:0:0:0:
272,240,79031,1,2,0:0:0:0:
272,240,79384,1,0,0:0:0:0:
208,176,79737,1,0,0:0:0:0:
208,176,79914,1,0,0:0:0:0:
208,176,80090,1,0,0:0:0:0:
208,192,80267,1,2,0:0:0:0:
208,176,80443,1,0,0:0:0:0:
320,304,80796,1,0,0:0:0:0:
320,288,80973,1,2,0:0:0:0:
320,272,81149,1,4,0:0:0:0:
288,208,81855,1,4,0:0:0:0:
320,288,82208,1,2,0:0:0:0:
320,288,82384,1,2,0:0:0:0:
320,288,82561,1,4,0:0:0:0:
320,288,82913,1,2,0:0:0:0:
352,336,83266,1,0,0:0:0:0:
320,320,83619,1,2,0:0:0:0:
320,320,83972,1,0,0:0:0:0:
320,336,84149,1,0,0:0:0:0:
320,336,84325,1,2,0:0:0:0:
192,224,84678,1,0,0:0:0:0:
192,272,85031,1,2,0:0:0:0:
288,240,85384,1,0,0:0:0:0:
288,256,86090,1,0,0:0:0:0:
272,320,86443,1,2,0:0:0:0:
256,272,86796,1,0,0:0:0:0:
272,320,86972,1,0,0:0:0:0:
256,192,87149,1,2,0:0:0:0:
256,192,87502,1,2,0:0:0:0:
336,320,87855,1,0,0:0:0:0:
160,160,88208,1,0,0:0:0:0:
336,288,88561,1,0,0:0:0:0:
336,288,88737,1,0,0:0:0:0:
336,288,88913,1,2,0:0:0:0:
352,320,89266,1,0,0:0:0:0:
336,320,89619,1,2,0:0:0:0:
336,320,89796,1,2,0:0:0:0:
336,320,89972,1,0,0:0:0:0:
336,320,90149,1,0,0:0:0:0:
336,320,90325,1,2,0:0:0:0:
320,288,90678,1,2,0:0:0:0:
320,288,91031,1,0,0:0:0:0:
320,304,91384,1,2,0:0:0:0:
320,304,91737,1,0,0:0:0:0:
320,304,92090,1,0,0:0:0:0:
128,144,92267,1,0,0:0:0:0:
176,144,92443,1,2,0:0:0:0:
176,144,92620,1,2,0:0:0:0:
176,144,92796,1,2,0:0:0:0:
176,144,93149,1,2,0:0:0:0:
176,144,93326,1,2,0:0:0:0:
176,144,93502,1,0,0:0:0:0:
320,320,93855,1,0,0:0:0:0:
240,272,94031,1,0,0:0:0:0:
240,272,94208,1,2,0:0:0:0:
352,336,94384,1,0,0:0:0:0:
352,336,94560,1,2,0:0:0:0:
352,336,94913,1,0,0:0:0:0:
336,304,95090,1,0,0:0:0:0:
336,304,95266,1,2,0:0:0:0:
336,320,95619,1,0,0:0:0:0:
336,320,95796,1,2,0:0:0:0:
336,320,95972,1,0,0:0:0:0:
368,336,96149,1,2,0:0:0:0:
192,176,96326,1,0,0:0:0:0:
160,208,96678,1,0,0:0:0:0:
224,192,97031,1,2,0:0:0:0:
240,224,97208,1,0,0:0:0:0:
240,208,97384,1,2,0:0:0:0:
320,304,97737,1,2,0:0:0:0:
320,304,97913,1,0,0:0:0:0:
320,304,98090,1,0,0:0:0:0:
320,304,98266,1,2,0:0:0:0:
320,304,98443,1,0,0:0:0:0:
320,304,98796,1,0,0:0:0:0:
144,160,98972,1,2,0:0:0:0:
128,160,99149,1,0,0:0:0:0:
304,192,99502,1,2,0:0:0:0:
224,224,99679,1,0,0:0:0:0:
240,192,99855,1,2,0:0:0:0:
320,272,100032,1,0,0:0:0:0:
320,272,100120,1,0,0:0:0:0:
320,256,100208,1,2,0:0:0:0:
320,272,100384,1,2,0:0:0:0:
320,256,100561,1,0,0:0:0:0:
320,256,100737,1,0,0:0:0:0:
320,240,100914,1,6,0:0:0:0:
320,256,101267,1,6,0:0:0:0:
320,272,101620,1,4,0:0:0:0:
256,192,101973,1,0,0:0:0:0:
320,192,102326,1,0,0:0:0:0:
320,192,102502,1,0,0:0:0:0:
320,176,102679,1,0,0:0:0:0:
320,176,102855,1,2,0:0:0:0:
336,176,103032,1,0,0:0:0:0:
336,176,103208,1,0,0:0:0:0:
336,176,103384,1,2,0:0:0:0:
336,176,103561,1,2,0:0:0:0:
336,176,103737,1,4,0:0:0:0:
320,256,104267,1,0,0:0:0:0:
304,240,104443,1,2,0:0:0:0:
160,224,104620,1,0,0:0:0:0:
160,224,104796,1,2,0:0:0:0:
160,224,104973,1,0,0:0:0:0:
288,256,105149,1,0,0:0:0:0:
288,240,105502,1,0,0:0:0:0:
192,160,105679,1,0,0:0:0:0:
288,256,105855,1,2,0:0:0:0:
288,240,106208,1,2,0:0:0:0:
288,240,106384,1,0,0:0:0:0:
288,240,106561,1,2,0:0:0:0:
288,240,106737,1,2,0:0:0:0:
288,240,106914,1,0,0:0:0:0:
288,240,107090,1,0,0:0:0:0:
288,240,107266,1,2,0:0:0:0:
192,176,107619,1,0,0:0:0:0:
192,176,107796,1,0,0:0:0:0:
256,160,107973,1,2,0:0:0:0:
256,176,108325,1,0,0:0:0:0:
256,176,108502,1,2,0:0:0:0:
288,240,108678,1,0,0:0:0:0:
288,240,108855,1,2,0:0:0:0:
288,224,109031,1,2,0:0:0:0:
288,224,109384,1,0,0:0:0:0:
272,176,109561,1,0,0:0:0:0:
272,176,109737,1,2,0:0:0:0:
272,176,109914,1,0,0:0:0:0:
272,176,110090,1,2,0:0:0:0:
192,112,110443,1,0,0:0:0:0:
192,112,110619,1,2,0:0:0:0:
192,144,110796,1,0,0:0:0:0:
176,128,110972,1,0,0:0:0:0:
192,144,111149,1,2,0:0:0:0:
304,240,111325,1,0,0:0:0:0:
320,240,111502,1,2,0:0:0:0:
320,240,111855,1,0,0:0:0:0:
320,240,112031,1,2,0:0:0:0:
320,240,112208,1,0,0:0:0:0:
304,240,112561,1,2,0:0:0:0:
304,224,112737,1,0,0:0:0:0:
304,224,112914,1,2,0:0:0:0:
304,224,113266,1,0,0:0:0:0:
224,176,113443,1,0,0:0:0:0:
320,272,113620,1,2,0:0:0:0:
320,288,113796,1,2,0:0:0:0:
320,160,113972,1,0,0:0:0:0:
304,160,114325,1,2,0:0:0:0:
304,160,114678,1,2,0:0:0:0:
304,160,114855,1,2,0:0:0:0:
304,160,115031,1,0,0:0:0:0:
192,224,115208,1,0,0:0:0:0:
192,224,115384,1,0,0:0:0:0:
240,176,115737,1,2,0:0:0:0:
272,240,115914,1,0,0:0:0:0:
272,240,116090,1,2,0:0:0:0:
272,240,116267,1,0,0:0:0:0:
272,240,116443,1,2,0:0:0:0:
304,256,116796,1,2,0:0:0:0:
256,240,116972,1,0,0:0:0:0:
256,224,117149,1,2,0:0:0:0:
352,368,117325,1,0,0:0:0:0:
192,208,117502,1,0,0:0:0:0:
208,160,117855,1,2,0:0:0:0:
240,192,118031,1,0,0:0:0:0:
240,192,118208,1,0,0:0:0:0:
320,256,118561,1,0,0:0:0:0:
192,208,118914,1,0,0:0:0:0:
192,208,119090,1,2,0:0:0:0:
288,240,119267,1,0,0:0:0:0:
288,240,119443,1,2,0:0:0:0:
288,240,119619,1,0,0:0:0:0:
288,256,119972,1,0,0:0:0:0:
288,256,120149,1,2,0:0:0:0:
144,224,120326,1,0,0:0:0:0:
320,272,120678,1,2,0:0:0:0:
304,272,120855,1,2,0:0:0:0:
304,272,121032,1,0,0:0:0:0:
256,176,121208,1,2,0:0:0:0:
256,176,121384,1,4,0:0:0:0:
192,208,121737,1,0,0:0:0:0:
192,224,121914,1,2,0:0:0:0:
192,208,122090,1,0,0:0:0:0:
160,176,122266,1,2,0:0:0:0:
304,224,122443,1,2,0:0:0:0:
304,224,122796,1,2,0:0:0:0:
320,288,122972,1,2,0:0:0:0:
320,288,123149,1,0,0:0:0:0:
288,256,123502,1,4,0:0:0:0:
288,192,123855,1,2,0:0:0:0:
320,288,124031,1,0,0:0:0:0:
320,288,124207,1,2,0:0:0:0:
176,192,124561,1,0,0:0:0:0:
176,176,124737,1,2,0:0:0:0:
176,176,124914,1,0,0:0:0:0:
288,256,125266,1,0,0:0:0:0:
288,240,125443,1,0,0:0:0:0:
288,240,125619,1,2,0:0:0:0:
256,176,125796,1,0,0:0:0:0:
240,192,125972,1,2,0:0:0:0:
320,272,126325,1,0,0:0:0:0:
336,288,126502,1,0,0:0:0:0:
336,272,126678,1,2,0:0:0:0:
336,272,126855,1,0,0:0:0:0:
336,288,127031,1,6,0:0:0:0:
272,192,127384,1,0,0:0:0:0:
272,192,127561,1,0,0:0:0:0:
208,160,127737,1,6,0:0:0:0:
336,256,128443,1,2,0:0:0:0:
336,256,128619,1,2,0:0:0:0:
336,256,128796,1,2,0:0:0:0:
336,256,128972,1,2,0:0:0:0:
336,272,129149,1,4,0:0:0:0:
208,192,129502,1,2,0:0:0:0:
320,144,129678,1,2,0:0:0:0:
288,208,129855,1,0,0:0:0:0:
256,160,130208,1,0,0:0:0:0:
256,160,130384,1,0,0:0:0:0:
256,160,130560,1,2,0:0:0:0:
352,288,130737,1,0,0:0:0:0:
368,304,130913,1,2,0:0:0:0:
320,288,131266,1,2,0:0:0:0:
176,224,131443,1,0,0:0:0:0:
176,224,131620,1,0,0:0:0:0:
240,176,131796,1,0,0:0:0:0:
240,192,131973,1,2,0:0:0:0:
304,208,132326,1,0,0:0:0:0:
304,208,132503,1,0,0:0:0:0:
320,320,132679,1,2,0:0:0:0:
320,288,133032,1,0,0:0:0:0:
320,288,133209,1,2,0:0:0:0:
320,288,133385,1,0,0:0:0:0:
272,224,133738,1,2,0:0:0:0:
272,240,133915,1,0,0:0:0:0:
272,240,134091,1,0,0:0:0:0:
288,240,134444,1,2,0:0:0:0:
288,224,134620,1,2,0:0:0:0:
288,224,134797,1,0,0:0:0:0:
336,304,135150,1,2,0:0:0:0:
320,304,135503,1,2,0:0:0:0:
208,160,135679,1,0,0:0:0:0:
224,160,135856,1,2,0:0:0:0:
272,224,136032,1,0,0:0:0:0:
272,224,136208,1,2,0:0:0:0:
288,240,136562,1,2,0:0:0:0:
288,240,136738,1,0,0:0:0:0:
272,240,136915,1,0,0:0:0:0:
272,240,137091,1,2,0:0:0:0:
272,240,137444,1,0,0:0:0:0:
272,240,137620,1,2,0:0:0:0:
272,240,137973,1,0,0:0:0:0:
208,176,138326,1,0,0:0:0:0:
208,176,138503,1,0,0:0:0:0:
208,176,138679,1,0,0:0:0:0:
208,192,138856,1,2,0:0:0:0:
208,176,139032,1,0,0:0:0:0:
320,304,139385,1,0,0:0:0:0:
320,288,139562,1,2,0:0:0:0:
320,272,139738,1,0,0:0:0:0:
256,208,140090,1,2,0:0:0:0:
288,208,140444,1,0,0:0:0:0:
320,288,140797,1,2,0:0:0:0:
320,288,140973,1,2,0:0:0:0:
320,288,141150,1,0,0:0:0:0:
320,288,141502,1,2,0:0:0:0:
352,336,141855,1,0,0:0:0:0:
320,320,142208,1,2,0:0:0:0:
320,320,142561,1,0,0:0:0:0:
320,336,142737,1,0,0:0:0:0:
320,336,142914,1,2,0:0:0:0:
192,224,143267,1,0,0:0:0:0:
192,272,143620,1,2,0:0:0:0:
288,240,143973,1,0,0:0:0:0:
288,256,144326,1,2,0:0:0:0:
288,256,144679,1,4,0:0:0:0:
272,320,145032,1,2,0:0:0:0:
256,272,145385,1,0,0:0:0:0:
272,320,145561,1,0,0:0:0:0:
256,192,145738,1,2,0:0:0:0:
256,192,146091,1,2,0:0:0:0:
336,320,146444,1,0,0:0:0:0:
352,336,146797,1,2,0:0:0:0:
336,288,147150,1,0,0:0:0:0:
336,288,147326,1,0,0:0:0:0:
336,288,147502,1,2,0:0:0:0:
352,320,147855,1,0,0:0:0:0:
336,320,148208,1,2,0:0:0:0:
336,320,148385,1,2,0:0:0:0:
336,320,148561,1,0,0:0:0:0:
336,320,148738,1,0,0:0:0:0:
336,320,148914,1,2,0:0:0:0:
320,288,149267,1,2,0:0:0:0:
320,288,149620,1,0,0:0:0:0:
320,304,149973,1,2,0:0:0:0:
320,304,150326,1,0,0:0:0:0:
320,304,150679,1,0,0:0:0:0:
256,160,150855,1,0,0:0:0:0:
256,160,151032,1,2,0:0:0:0:
192,192,151209,1,2,0:0:0:0:
336,320,151384,1,6,0:0:0:0:
336,320,151738,1,2,0:0:0:0:
224,240,151915,1,2,0:0:0:0:
320,320,152091,1,0,0:0:0:0:
224,208,152267,1,0,0:0:0:0:
224,192,152443,1,2,0:0:0:0:
240,272,152797,1,2,0:0:0:0:
352,336,152973,1,2,0:0:0:0:
352,336,153149,1,0,0:0:0:0:
352,336,153502,1,0,0:0:0:0:
336,304,153679,1,0,0:0:0:0:
336,304,153855,1,2,0:0:0:0:
336,320,154208,1,2,0:0:0:0:
336,320,154561,1,0,0:0:0:0:
368,336,154738,1,0,0:0:0:0:
336,320,154914,1,2,0:0:0:0:
160,208,155267,1,2,0:0:0:0:
224,192,155620,1,2,0:0:0:0:
240,224,155797,1,2,0:0:0:0:
240,208,155973,1,0,0:0:0:0:
320,304,156326,1,2,0:0:0:0:
320,304,156502,1,0,0:0:0:0:
320,304,156679,1,0,0:0:0:0:
320,304,157032,1,0,0:0:0:0:
320,304,157385,1,0,0:0:0:0:
144,160,157561,1,0,0:0:0:0:
128,160,157738,1,2,0:0:0:0:
304,192,158091,1,0,0:0:0:0:
224,224,158268,1,2,0:0:0:0:
240,192,158444,1,2,0:0:0:0:
320,272,158621,1,0,0:0:0:0:
320,256,158797,1,2,0:0:0:0:
320,256,159150,1,6,0:0:0:0:
320,240,159503,1,6,0:0:0:0:
320,256,159856,1,2,0:0:0:0:
224,144,160032,1,0,0:0:0:0:
320,272,160209,1,0,0:0:0:0:
256,192,160562,1,2,0:0:0:0:
224,160,160737,1,0,0:0:0:0:
240,144,161090,1,0,0:0:0:0:
240,128,161267,1,2,0:0:0:0:
240,128,161443,1,0,0:0:0:0:
240,128,161620,1,2,0:0:0:0:
288,272,162326,1,2,0:0:0:0:
288,272,162502,1,0,0:0:0:0:
288,272,162679,1,2,0:0:0:0:
320,256,162856,1,0,0:0:0:0:
304,240,163032,1,0,0:0:0:0:
288,256,163385,1,0,0:0:0:0:
240,192,163561,1,2,0:0:0:0:
288,272,163738,1,0,0:0:0:0:
160,160,163914,1,0,0:0:0:0:
272,208,164090,1,2,0:0:0:0:
288,256,164267,1,0,0:0:0:0:
288,256,164444,1,2,0:0:0:0:
288,256,164797,1,0,0:0:0:0:
288,256,164973,1,0,0:0:0:0:
288,256,165149,1,2,0:0:0:0:
192,192,165502,1,0,0:0:0:0:
192,192,165679,1,0,0:0:0:0:
176,160,165855,1,2,0:0:0:0:
256,192,166208,1,0,0:0:0:0:
256,192,166385,1,2,0:0:0:0:
288,256,166561,1,0,0:0:0:0:
288,256,166738,1,2,0:0:0:0:
288,240,166914,1,2,0:0:0:0:
288,240,167091,1,0,0:0:0:0:
288,240,167267,1,2,0:0:0:0:
272,192,167620,1,2,0:0:0:0:
272,192,167973,1,2,0:0:0:0:
192,128,168326,1,0,0:0:0:0:
192,128,168502,1,0,0:0:0:0:
192,160,168679,1,2,0:0:0:0:
192,160,169032,1,2,0:0:0:0:
176,208,169208,1,0,0:0:0:0:
192,144,169384,1,0,0:0:0:0:
320,256,169738,1,0,0:0:0:0:
320,256,169914,1,2,0:0:0:0:
320,304,170090,1,0,0:0:0:0:
304,256,170444,1,2,0:0:0:0:
304,240,170620,1,0,0:0:0:0:
304,240,170797,1,2,0:0:0:0:
304,240,171149,1,2,0:0:0:0:
304,240,171326,1,2,0:0:0:0:
320,288,171502,1,0,0:0:0:0:
320,176,171855,1,0,0:0:0:0:
304,160,172032,1,2,0:0:0:0:
304,176,172208,1,2,0:0:0:0:
304,176,172385,1,0,0:0:0:0:
304,176,172561,1,2,0:0:0:0:
304,176,172738,1,2,0:0:0:0:
304,176,172914,1,0,0:0:0:0:
176,144,173267,1,0,0:0:0:0:
240,192,173444,1,0,0:0:0:0:
240,192,173620,1,2,0:0:0:0:
272,256,173973,1,2,0:0:0:0:
272,256,174149,1,0,0:0:0:0:
272,256,174326,1,2,0:0:0:0:
304,272,174679,1,2,0:0:0:0:
256,256,174855,1,0,0:0:0:0:
224,160,175032,1,2,0:0:0:0:
352,384,175208,1,0,0:0:0:0:
208,192,175385,1,0,0:0:0:0:
208,176,175738,1,2,0:0:0:0:
240,208,175914,1,0,0:0:0:0:
240,208,176091,1,0,0:0:0:0:
320,272,176267,1,2,0:0:0:0:
320,272,176444,1,0,0:0:0:0:
192,224,176797,1,0,0:0:0:0:
224,160,176973,1,0,0:0:0:0:
224,176,177149,1,2,0:0:0:0:
288,256,177502,1,0,0:0:0:0:
288,272,177679,1,2,0:0:0:0:
288,272,177855,1,0,0:0:0:0:
256,224,178032,1,2,0:0:0:0:
320,288,178208,1,0,0:0:0:0:
320,288,178561,1,2,0:0:0:0:
304,288,178738,1,2,0:0:0:0:
304,288,178914,1,0,0:0:0:0:
256,192,179091,1,2,0:0:0:0:
256,192,179267,1,0,0:0:0:0:
192,224,179620,1,0,0:0:0:0:
192,240,179797,1,2,0:0:0:0:
192,224,179973,1,0,0:0:0:0:
304,240,180326,1,2,0:0:0:0:
304,240,180502,1,0,0:0:0:0:
304,240,180679,1,0,0:0:0:0:
320,304,180855,1,2,0:0:0:0:
320,304,181032,1,2,0:0:0:0:
288,272,181385,1,0,0:0:0:0:
288,208,181738,1,2,0:0:0:0:
320,304,181914,1,0,0:0:0:0:
320,304,182090,1,2,0:0:0:0:
176,208,182444,1,0,0:0:0:0:
176,192,182620,1,2,0:0:0:0:
176,192,182797,1,0,0:0:0:0:
288,272,183149,1,0,0:0:0:0:
288,256,183326,1,2,0:0:0:0:
288,256,183502,1,2,0:0:0:0:
240,208,183855,1,2,0:0:0:0:
304,288,184032,1,2,0:0:0:0:
320,288,184208,1,0,0:0:0:0:
336,288,184561,1,2,0:0:0:0:
336,288,184738,1,2,0:0:0:0:
336,304,184914,1,4,0:0:0:0:
272,208,185267,1,0,0:0:0:0:
272,208,185444,1,0,0:0:0:0:
208,176,185620,1,2,0:0:0:0:
288,288,185796,1,0,0:0:0:0:
288,288,186149,1,0,0:0:0:0:
336,272,186326,1,2,0:0:0:0:
336,272,186679,1,2,0:0:0:0:
336,272,186855,1,2,0:0:0:0:
336,288,187032,1,0,0:0:0:0:
272,208,187384,1,0,0:0:0:0:
272,208,187561,1,0,0:0:0:0:
272,208,187737,1,2,0:0:0:0:
272,208,187914,1,2,0:0:0:0:
240,224,188090,1,4,0:0:0:0:
