osu file format v14

[General]
AudioFilename: 08.Heian Extermination -instrumental-.mp3
AudioLeadIn: 0
PreviewTime: -1
Countdown: 1
SampleSet: Normal
StackLeniency: 0.7
Mode: 0
LetterboxInBreaks: 1
WidescreenStoryboard: 0

[Editor]
Bookmarks: 36700,49942,63183
DistanceSpacing: 1
BeatDivisor: 4
GridSize: 4
TimelineZoom: 1.6

[Metadata]
Title:Heian Extermination -instrumental-
TitleUnicode:Heian Extermination -instrumental-
Artist:UNDEAD CORPORATION
ArtistUnicode:UNDEAD CORPORATION
Creator:Ekoro
Version:Unidentified
Source:東方Project
Tags:houjuu nue touhou 12 th12 UFO undefined fantastic object
BeatmapID:910571
BeatmapSetID:420921

[Difficulty]
HPDrainRate:6
CircleSize:4.5
OverallDifficulty:10
ApproachRate:10
SliderMultiplier:1.8
SliderTickRate:1

[Events]
//Background and Video events
0,0,"bg.jpg",0,0
//Break Periods
2,93176,95836
//Storyboard Layer 0 (Background)
//Storyboard Layer 1 (Fail)
//Storyboard Layer 2 (Pass)
//Storyboard Layer 3 (Foreground)
//Storyboard Sound Samples

[TimingPoints]
218,250,4,1,1,70,1,0
218,-200,4,1,1,70,0,0
10218,206.896551724138,4,1,1,70,1,0
23045,-66.6666666666667,4,1,1,70,0,0
23459,-100,4,1,1,70,0,0
36286,-66.6666666666667,4,1,1,70,0,0
36700,-100,4,1,1,70,0,0
49114,-66.6666666666667,4,1,1,70,0,0
49942,-100,4,1,1,70,0,0
62769,-66.6666666666667,4,1,1,70,0,0
63183,-133.333333333333,4,1,1,70,0,0
73114,-100,4,1,1,70,0,0
96286,-200,4,1,1,70,0,0
102907,-125,4,1,1,70,0,0
116149,-100,4,1,1,70,0,0

[Colours]
Combo1 : 0,128,255
Combo2 : 74,74,74
Combo3 : 192,192,192
Combo4 : 128,0,0
Combo5 : 210,45,45
Combo6 : 170,255,255

[HitObjects]
40,64,218,69,4,0:0:0:0:
272,28,718,1,4,2:0:0:0:
308,40,1718,1,4,2:0:0:0:
344,52,3218,5,8,0:0:0:0:
348,80,3301,1,0,0:0:0:0:
352,108,3384,1,0,0:0:0:0:
356,136,3468,1,0,0:0:0:0:
360,164,3551,1,0,0:0:0:0:
364,192,3634,1,0,0:0:0:0:
368,220,3718,1,12,0:0:0:0:
256,360,4218,69,4,0:0:0:0:
80,328,4718,1,4,0:0:0:0:
116,152,5218,1,4,0:0:0:0:
292,184,5718,1,4,0:0:0:0:
220,312,6218,5,4,0:0:0:0:
128,292,6468,1,4,0:0:0:0:
152,200,6718,1,4,0:0:0:0:
244,220,6968,1,4,0:0:0:0:
156,384,7218,69,4,0:0:0:0:
60,224,7468,1,8,0:0:0:0:
56,196,7551,1,0,0:0:0:0:
52,168,7634,1,0,0:0:0:0:
48,140,7718,1,8,0:0:0:0:
256,192,7801,12,8,9718,0:0:0:0:
144,28,10218,21,4,0:0:0:0:
144,28,10321,2,0,L|152:128,1,90,8|0,0:0|0:0,0:0:0:0:
184,200,10528,2,0,P|228:192|268:168,1,90,8|0,0:0|0:0,0:0:0:0:
104,188,10735,2,0,P|60:196|20:220,1,90,8|0,0:0|0:0,0:0:0:0:
4,308,10942,1,8,0:0:0:0:
80,356,11045,5,0,0:0:0:0:
164,324,11149,1,8,0:0:0:0:
240,368,11252,1,0,0:0:0:0:
324,332,11355,2,0,P|312:292|316:244,1,90,8|0,0:0|0:0,0:0:0:0:
372,176,11562,5,8,0:0:0:0:
504,212,11666,1,0,0:0:0:0:
408,308,11769,1,8,0:0:0:0:
372,176,11873,6,0,L|364:84,1,90,0|8,0:0|0:0,0:0:0:0:
412,12,12080,1,0,0:0:0:0:
284,112,12183,2,0,P|240:120|196:116,1,90,8|0,0:0|0:0,0:0:0:0:
364,86,12390,2,0,P|408:78|452:82,1,90,8|0,0:0|0:0,0:0:0:0:
292,200,12597,37,8,0:0:0:0:
240,48,12700,1,0,0:0:0:0:
400,80,12804,1,8,0:0:0:0:
292,200,12907,2,0,L|200:212,1,90,0|8,0:0|0:0,0:0:0:0:
24,176,13114,5,0,0:0:0:0:
100,52,13218,1,8,0:0:0:0:
108,196,13321,1,0,0:0:0:0:
16,88,13424,1,8,0:0:0:0:
155,123,13528,6,0,P|200:123|244:111,1,90,4|8,0:0|0:0,0:0:0:0:
312,52,13735,1,0,0:0:0:0:
332,140,13838,5,8,0:0:0:0:
224,24,13942,1,0,0:0:0:0:
400,80,14045,1,8,0:0:0:0:
264,200,14149,2,0,P|219:200|175:212,1,90,0|8,0:0|0:0,0:0:0:0:
96,256,14355,37,0,0:0:0:0:
96,256,14459,2,0,L|84:164,1,90,8|0,0:0|0:0,0:0:0:0:
220,372,14666,2,0,L|232:280,1,90,8|0,0:0|0:0,0:0:0:0:
84,166,14873,5,8,0:0:0:0:
24,320,14976,1,0,0:0:0:0:
188,300,15080,1,8,0:0:0:0:
84,166,15183,6,0,L|76:108,1,45,12|0,0:0|0:0,0:0:0:0:
132,68,15286,1,12,0:0:0:0:
172,92,15338,1,0,0:0:0:0:
216,96,15390,1,0,0:0:0:0:
260,80,15442,1,0,0:0:0:0:
296,52,15493,1,12,0:0:0:0:
328,20,15544,1,0,0:0:0:0:
372,4,15596,1,0,0:0:0:0:
416,8,15648,1,0,0:0:0:0:
456,32,15700,2,0,L|464:80,3,45,12|0|0|0,0:0|0:0|0:0|0:0,0:0:0:0:
484,180,15907,5,12,0:0:0:0:
452,212,15958,1,0,0:0:0:0:
408,228,16010,1,0,0:0:0:0:
364,224,16062,1,0,0:0:0:0:
324,200,16114,2,0,L|316:152,3,45,12|0|0|0,0:0|0:0|0:0|0:0,0:0:0:0:
296,52,16321,37,12,0:0:0:0:
296,52,16373,1,0,0:0:0:0:
296,52,16424,2,0,L|264:16,1,45,8|0,0:0|0:0,0:0:0:0:
175,78,16528,2,0,L|128:66,1,45,8|0,0:0|0:0,0:0:0:0:
72,168,16631,2,0,L|27:185,1,45,8|0,0:0|0:0,0:0:0:0:
55,290,16735,2,0,L|28:330,1,45,8|0,0:0|0:0,0:0:0:0:
128,380,16838,5,4,0:0:0:0:
200,324,16942,2,0,P|240:312|288:316,1,90,8|0,0:0|0:0,0:0:0:0:
364,368,17149,2,0,L|456:372,1,90,8|0,0:0|0:0,0:0:0:0:
287,315,17355,1,8,0:0:0:0:
460,272,17459,2,0,L|368:276,1,90,0|8,0:0|0:0,0:0:0:0:
296,224,17666,5,0,0:0:0:0:
276,136,17769,1,8,0:0:0:0:
316,56,17873,1,0,0:0:0:0:
396,16,17976,2,0,P|440:28|484:32,1,90,8|0,0:0|0:0,0:0:0:0:
364,132,18183,5,8,0:0:0:0:
228,64,18286,2,0,P|184:52|140:48,1,90,0|8,0:0|0:0,0:0:0:0:
51,61,18493,38,0,L|63:153,1,90,0|8,0:0|0:0,0:0:0:0:
27,233,18700,1,0,0:0:0:0:
151,137,18804,2,0,L|139:45,1,90,8|0,0:0|0:0,0:0:0:0:
115,221,19011,2,0,L|127:313,1,90,8|0,0:0|0:0,0:0:0:0:
324,296,19218,5,8,0:0:0:0:
423,194,19321,1,0,0:0:0:0:
282,217,19424,1,8,0:0:0:0:
409,285,19528,1,0,0:0:0:0:
345,155,19631,1,8,0:0:0:0:
247,285,19735,6,0,L|240:376,1,90,0|8,0:0|0:0,0:0:0:0:
492,248,19942,2,0,L|499:157,1,90,0|8,0:0|0:0,0:0:0:0:
360,24,20149,5,4,0:0:0:0:
360,24,20252,2,0,L|268:36,1,90,8|0,0:0|0:0,0:0:0:0:
112,184,20459,1,8,0:0:0:0:
23,167,20562,1,0,0:0:0:0:
39,79,20666,1,8,0:0:0:0:
127,95,20769,2,0,L|219:107,1,90
368,264,20976,37,4,0:0:0:0:
457,247,21079,1,8,0:0:0:0:
441,159,21183,1,0,0:0:0:0:
352,176,21286,1,8,0:0:0:0:
424,316,21390,5,8,0:0:0:0:
424,316,21493,1,8,0:0:0:0:
508,192,21597,1,8,0:0:0:0:
508,192,21700,1,8,0:0:0:0:
384,108,21804,6,0,L|292:96,2,90,12|0|0,0:0|0:0|0:0,0:0:0:0:
296,232,22114,2,0,L|204:244,2,90,12|0|0,0:0|0:0|0:0,0:0:0:0:
204,104,22424,2,0,L|112:92,2,90,12|0|0,0:0|0:0|0:0,0:0:0:0:
116,228,22734,2,0,L|24:240,2,90,12|0|0,0:0|0:0|0:0,0:0:0:0:
224,352,23045,6,0,B|268:364|268:364|308:348|308:348|352:360,1,135.000005149842,12|0,0:0|0:0,0:0:0:0:
508,192,23252,2,0,B|464:204|464:204|424:188|424:188|380:200,1,135.000005149842,12|0,0:0|0:0,0:0:0:0:
260,284,23459,37,4,0:0:0:0:
432,356,23562,2,0,L|424:264,1,90,8|0,0:0|0:0,0:0:0:0:
292,116,23769,2,0,L|299:205,1,90,8|0,0:0|0:0,0:0:0:0:
384,108,23976,1,8,0:0:0:0:
332,36,24080,2,0,B|288:28|288:28|244:40,1,90,0|8,0:0|0:0,0:0:0:0:
260,284,24286,6,0,B|304:288|304:288|348:276,1,90,0|8,0:0|0:0,0:0:0:0:
208,216,24493,1,0,0:0:0:0:
172,300,24597,2,0,B|128:304|128:304|84:292,1,90,8|0,0:0|0:0,0:0:0:0:
100,100,24804,5,8,0:0:0:0:
120,188,24908,1,0,0:0:0:0:
32,160,25011,1,8,0:0:0:0:
188,128,25114,6,0,L|284:136,1,90,0|8,0:0|0:0,0:0:0:0:
348,188,25321,1,0,0:0:0:0:
360,100,25424,2,0,P|352:56|356:12,1,90,8|0,0:0|0:0,0:0:0:0:
268,228,25631,2,0,P|276:272|272:316,1,90,8|0,0:0|0:0,0:0:0:0:
192,360,25838,37,8,0:0:0:0:
355,277,25942,1,0,0:0:0:0:
192,272,26045,1,8,0:0:0:0:
356,364,26149,2,0,L|456:352,1,90,0|8,0:0|0:0,0:0:0:0:
452,88,26355,5,0,0:0:0:0:
308,108,26459,1,8,0:0:0:0:
436,176,26562,1,0,0:0:0:0:
372,44,26666,1,8,0:0:0:0:
348,188,26769,5,4,0:0:0:0:
348,188,26873,2,0,L|356:280,1,90,8|0,0:0|0:0,0:0:0:0:
192,272,27080,1,8,0:0:0:0:
116,224,27183,1,0,0:0:0:0:
192,180,27286,1,8,0:0:0:0:
268,228,27390,2,0,L|276:320,1,90,0|8,0:0|0:0,0:0:0:0:
116,132,27597,5,0,0:0:0:0:
192,84,27700,1,8,0:0:0:0:
116,40,27803,1,0,0:0:0:0:
40,88,27907,2,0,L|32:180,1,90,8|0,0:0|0:0,0:0:0:0:
112,312,28114,37,8,0:0:0:0:
192,272,28218,1,0,0:0:0:0:
116,224,28321,1,8,0:0:0:0:
192,360,28424,6,0,L|236:352,1,45,12|0,0:0|0:0,0:0:0:0:
308,308,28528,1,12,0:0:0:0:
352,300,28580,1,0,0:0:0:0:
392,316,28631,1,0,0:0:0:0:
420,352,28683,1,0,0:0:0:0:
464,364,28735,1,12,0:0:0:0:
504,344,28786,1,0,0:0:0:0:
512,300,28838,1,0,0:0:0:0:
488,260,28890,1,0,0:0:0:0:
444,248,28942,2,0,L|440:204,3,45,12|0|0|0,0:0|0:0|0:0|0:0,0:0:0:0:
380,164,29149,5,12,0:0:0:0:
368,120,29200,1,0,0:0:0:0:
388,80,29252,1,0,0:0:0:0:
428,60,29304,1,0,0:0:0:0:
472,64,29355,2,0,L|476:112,3,45
288,72,29562,5,12,0:0:0:0:
288,72,29614,1,0,0:0:0:0:
288,72,29666,2,0,L|292:24,1,45,8|0,0:0|0:0,0:0:0:0:
196,104,29769,2,0,L|192:56,1,45,8|0,0:0|0:0,0:0:0:0:
104,68,29873,2,0,L|108:20,1,45,8|0,0:0|0:0,0:0:0:0:
12,100,29976,2,0,L|8:52,1,45,8|0,0:0|0:0,0:0:0:0:
80,172,30080,38,0,B|120:192|120:192|168:188,1,90,4|8,0:0|0:0,0:0:0:0:
252,168,30286,1,0,0:0:0:0:
196,104,30390,5,8,0:0:0:0:
220,252,30493,1,0,0:0:0:0:
232,96,30597,1,8,0:0:0:0:
184,260,30700,2,0,L|92:268,1,90,0|8,0:0|0:0,0:0:0:0:
288,176,30907,5,0,0:0:0:0:
264,324,31010,1,8,0:0:0:0:
252,168,31114,1,0,0:0:0:0:
300,332,31217,2,0,L|392:340,1,90,8|0,0:0|0:0,0:0:0:0:
408,172,31424,5,8,0:0:0:0:
488,128,31528,1,0,0:0:0:0:
492,216,31631,1,8,0:0:0:0:
412,260,31735,38,0,L|320:252,1,90,0|8,0:0|0:0,0:0:0:0:
244,212,31942,1,0,0:0:0:0:
320,160,32045,2,0,B|328:116|328:116|316:68,1,90,8|0,0:0|0:0,0:0:0:0:
244,212,32252,2,0,B|236:256|236:256|248:304,1,90,8|0,0:0|0:0,0:0:0:0:
356,320,32459,5,8,0:0:0:0:
484,260,32562,1,0,0:0:0:0:
344,232,32666,1,8,0:0:0:0:
440,336,32769,1,0,0:0:0:0:
424,192,32873,1,8,0:0:0:0:
272,288,32976,6,0,L|280:384,1,90
508,176,33183,2,0,L|500:80,1,90,0|8,0:0|0:0,0:0:0:0:
312,70,33390,6,0,L|320:166,1,90,4|8,0:0|0:0,0:0:0:0:
244,212,33597,1,0,0:0:0:0:
324,248,33700,2,0,P|368:256|412:248,1,90,8|0,0:0|0:0,0:0:0:0:
236,120,33907,2,0,P|192:112|148:120,1,90,8|0,0:0|0:0,0:0:0:0:
4,228,34114,1,8,0:0:0:0:
172,296,34218,38,0,P|216:304|260:296,1,90,0|8,0:0|0:0,0:0:0:0:
140,208,34424,1,0,0:0:0:0:
80,280,34528,2,0,P|80:324|88:369,1,90,8|0,0:0|0:0,0:0:0:0:
228,224,34735,2,0,P|228:180|220:135,1,90,8|0,0:0|0:0,0:0:0:0:
68,80,34942,1,8,0:0:0:0:
4,228,35045,5,12,0:0:0:0:
80,280,35149,1,0,0:0:0:0:
88,192,35252,1,0,0:0:0:0:
248,276,35355,5,12,0:0:0:0:
172,328,35459,1,0,0:0:0:0:
164,240,35562,1,0,0:0:0:0:
12,140,35666,5,12,0:0:0:0:
80,280,35769,1,0,0:0:0:0:
172,156,35873,1,0,0:0:0:0:
324,224,35976,37,12,0:0:0:0:
256,364,36079,1,0,0:0:0:0:
164,240,36183,1,0,0:0:0:0:
296,152,36286,6,0,B|340:148|340:148|380:168|380:168|428:164,1,135.000005149842,12|0,0:0|0:0,0:0:0:0:
352,296,36493,2,0,B|308:300|308:300|268:280|268:280|220:284,1,135.000005149842,12|0,0:0|0:0,0:0:0:0:
88,192,36700,5,0,0:0:0:0:
88,192,36804,1,8,0:0:0:0:
32,52,36907,1,0,0:0:0:0:
32,52,37011,1,8,0:0:0:0:
164,240,37114,5,0,0:0:0:0:
164,240,37218,1,8,0:0:0:0:
220,100,37321,1,0,0:0:0:0:
220,100,37425,1,8,0:0:0:0:
88,276,37528,37,0,0:0:0:0:
4,304,37631,1,8,0:0:0:0:
68,368,37735,1,0,0:0:0:0:
152,340,37838,1,8,0:0:0:0:
300,236,37942,5,0,0:0:0:0:
384,264,38045,1,8,0:0:0:0:
320,328,38149,1,0,0:0:0:0:
236,300,38252,1,8,0:0:0:0:
168,152,38355,5,0,0:0:0:0:
88,192,38459,1,8,0:0:0:0:
164,240,38562,1,0,0:0:0:0:
92,104,38666,6,0,B|48:116|48:116|12:148,1,90,10|0,0:0|0:0,0:0:0:0:
240,200,38873,2,0,B|284:188|284:188|320:156,1,90,10|0,0:0|0:0,0:0:0:0:
172,64,39080,1,10,0:0:0:0:
164,240,39183,37,0,0:0:0:0:
172,328,39286,1,8,0:0:0:0:
248,280,39390,1,0,0:0:0:0:
88,288,39493,6,0,B|84:332|84:332|96:380,1,90,10|0,0:0|0:0,0:0:0:0:
332,320,39700,2,0,B|336:276|336:276|324:228,1,90,10|0,0:0|0:0,0:0:0:0:
256,368,39907,1,10,0:0:0:0:
420,328,40011,5,0,0:0:0:0:
420,328,40114,1,8,0:0:0:0:
452,184,40218,1,0,0:0:0:0:
452,184,40321,1,8,0:0:0:0:
292,87,40424,5,0,0:0:0:0:
292,87,40527,1,8,0:0:0:0:
324,231,40631,1,0,0:0:0:0:
324,231,40735,1,8,0:0:0:0:
452,184,40839,37,0,0:0:0:0:
472,96,40943,1,8,0:0:0:0:
384,76,41045,1,0,0:0:0:0:
364,164,41149,1,8,0:0:0:0:
204,108,41252,5,0,0:0:0:0:
184,20,41356,1,8,0:0:0:0:
272,0,41458,1,0,0:0:0:0:
292,88,41562,1,8,0:0:0:0:
140,172,41666,5,0,0:0:0:0:
52,152,41769,1,8,0:0:0:0:
112,84,41873,1,0,0:0:0:0:
228,192,41976,6,0,B|240:240|240:240|236:280,1,90,10|0,0:0|0:0,0:0:0:0:
84,324,42183,2,0,B|72:276|72:276|76:236,1,90,10|0,0:0|0:0,0:0:0:0:
204,108,42390,1,10,0:0:0:0:
324,231,42493,37,4,0:0:0:0:
332,320,42597,1,8,0:0:0:0:
420,312,42700,1,0,0:0:0:0:
412,224,42804,1,8,0:0:0:0:
268,280,42907,5,8,0:0:0:0:
384,372,43011,1,8,0:0:0:0:
476,264,43114,1,8,0:0:0:0:
360,172,43218,1,8,0:0:0:0:
268,280,43321,5,4,0:0:0:0:
208,348,43424,1,0,0:0:0:0:
120,364,43528,1,0,0:0:0:0:
40,324,43631,1,0,0:0:0:0:
8,240,43735,5,8,0:0:0:0:
8,240,43838,1,0,0:0:0:0:
144,164,43942,1,0,0:0:0:0:
144,164,44045,1,0,0:0:0:0:
244,280,44149,37,0,0:0:0:0:
304,348,44252,1,0,0:0:0:0:
392,364,44356,1,0,0:0:0:0:
472,324,44459,1,0,0:0:0:0:
504,240,44563,5,8,0:0:0:0:
504,240,44666,1,0,0:0:0:0:
368,164,44770,1,0,0:0:0:0:
368,164,44873,1,0,0:0:0:0:
268,280,44976,6,0,L|260:376,2,90
232,196,45286,2,0,B|184:200|184:200|144:224,1,90,2|8,0:0|0:0,0:0:0:0:
356,300,45493,2,0,B|404:296|404:296|444:272,1,90,2|0,0:0|0:0,0:0:0:0:
500,128,45700,1,2,0:0:0:0:
364,40,45804,6,0,L|272:32,2,90
244,112,46114,2,0,B|208:88|208:88|188:44,1,90,2|8,0:0|0:0,0:0:0:0:
108,88,46321,2,0,B|92:47|92:47|101:0,1,90,2|0,0:0|0:0,0:0:0:0:
156,164,46528,1,2,0:0:0:0:
68,168,46631,37,0,0:0:0:0:
44,256,46735,1,0,0:0:0:0:
120,304,46838,1,0,0:0:0:0:
188,244,46942,1,0,0:0:0:0:
156,164,47045,5,8,0:0:0:0:
156,164,47149,1,0,0:0:0:0:
40,340,47252,1,0,0:0:0:0:
40,340,47355,1,0,0:0:0:0:
212,332,47459,5,0,0:0:0:0:
188,244,47563,1,0,0:0:0:0:
264,196,47666,1,0,0:0:0:0:
332,256,47770,1,0,0:0:0:0:
300,336,47873,5,8,0:0:0:0:
300,336,47977,1,0,0:0:0:0:
184,160,48080,1,0,0:0:0:0:
184,160,48183,1,0,0:0:0:0:
356,168,48286,37,0,0:0:0:0:
332,256,48390,1,0,0:0:0:0:
408,304,48493,1,0,0:0:0:0:
476,244,48597,2,0,L|484:152,1,90,2|8,0:0|0:0,0:0:0:0:
400,12,48804,2,0,L|408:104,1,90,2|0,0:0|0:0,0:0:0:0:
332,256,49011,1,2,0:0:0:0:
141,28,49114,5,0,0:0:0:0:
141,28,49218,2,0,B|233:40|233:40|309:0|309:0|401:12,1,270.000010299683,14|0,0:0|2:0,0:0:0:0:
280,152,49528,1,0,0:0:0:0:
280,152,49632,2,0,B|188:164|188:164|112:124|112:124|20:136,1,270.000010299683,14|0,0:0|2:0,0:0:0:0:
64,288,49942,5,4,0:0:0:0:
152,276,50045,2,0,B|196:272|196:272|248:292,1,90,8|0,0:0|0:0,0:0:0:0:
96,204,50252,1,8,0:0:0:0:
120,360,50355,2,0,B|77:376|77:376|33:372,1,90,0|8,0:0|0:0,0:0:0:0:
184,192,50562,2,0,L|280:184,1,90,0|8,0:0|0:0,0:0:0:0:
356,223,50769,5,0,0:0:0:0:
364,313,50873,1,8,0:0:0:0:
273,184,50976,1,0,0:0:0:0:
429,171,51080,2,0,B|472:180|472:180|508:208,1,90,8|0,0:0|0:0,0:0:0:0:
281,273,51286,37,8,0:0:0:0:
348,133,51389,1,0,0:0:0:0:
437,261,51493,1,8,0:0:0:0:
209,367,51597,6,0,L|113:359,1,90,0|8,0:0|0:0,0:0:0:0:
40,320,51804,1,0,0:0:0:0:
124,176,51907,5,8,0:0:0:0:
112,264,52011,1,0,0:0:0:0:
68,104,52114,2,0,L|56:12,1,90,8|0,0:0|0:0,0:0:0:0:
244,48,52321,5,8,0:0:0:0:
272,197,52424,1,0,0:0:0:0:
160,93,52528,1,8,0:0:0:0:
313,113,52631,1,0,0:0:0:0:
177,184,52735,1,8,0:0:0:0:
337,20,52838,38,0,L|429:32,1,90,0|8,0:0|0:0,0:0:0:0:
177,184,53045,2,0,L|85:196,1,90,0|8,0:0|0:0,0:0:0:0:
212,364,53252,6,0,B|256:360|256:360|296:336,1,90,4|8,0:0|0:0,0:0:0:0:
356,272,53459,1,0,0:0:0:0:
268,252,53562,5,8,0:0:0:0:
384,356,53666,1,0,0:0:0:0:
476,228,53769,2,0,L|488:136,1,90,8|0,0:0|0:0,0:0:0:0:
312,100,53976,2,0,L|324:192,1,90,8|0,0:0|0:0,0:0:0:0:
384,356,54183,5,8,0:0:0:0:
444,292,54286,1,0,0:0:0:0:
356,272,54390,2,0,B|316:296|316:296|296:336,1,90,8|0,0:0|0:0,0:0:0:0:
472,376,54597,37,8,0:0:0:0:
416,208,54700,1,0,0:0:0:0:
240,168,54804,1,8,0:0:0:0:
120,300,54907,6,0,L|116:356,1,45,12|0,0:0|0:0,0:0:0:0:
36,368,55011,1,12,0:0:0:0:
16,328,55062,1,0,0:0:0:0:
12,284,55114,1,0,0:0:0:0:
24,240,55166,1,0,0:0:0:0:
52,204,55218,1,12,0:0:0:0:
80,168,55269,1,0,0:0:0:0:
92,124,55321,1,0,0:0:0:0:
88,80,55373,1,0,0:0:0:0:
68,40,55424,2,0,L|24:32,3,45,12|0|0|0,0:0|0:0|0:0|0:0,0:0:0:0:
220,28,55631,5,12,0:0:0:0:
192,64,55682,1,0,0:0:0:0:
180,108,55734,1,0,0:0:0:0:
184,152,55786,1,0,0:0:0:0:
204,192,55837,2,0,L|248:200,3,45,12|0|0|0,0:0|0:0|0:0|0:0,0:0:0:0:
332,144,56045,5,12,0:0:0:0:
332,144,56097,1,0,0:0:0:0:
332,144,56149,2,0,L|328:100,1,45,8|0,0:0|0:0,0:0:0:0:
476,72,56252,2,0,L|472:116,1,45,8|0,0:0|0:0,0:0:0:0:
336,272,56355,2,0,L|332:228,1,45,8|0,0:0|0:0,0:0:0:0:
480,200,56458,2,0,L|476:244,1,45,8|0,0:0|0:0,0:0:0:0:
388,344,56562,37,4,0:0:0:0:
296,352,56666,2,0,B|252:344|252:344|216:316,1,90,8|0,0:0|0:0,0:0:0:0:
140,168,56873,5,8,0:0:0:0:
48,160,56976,1,0,0:0:0:0:
40,248,57080,1,8,0:0:0:0:
132,256,57184,2,0,B|176:248|176:248|212:220,1,90,0|8,0:0|0:0,0:0:0:0:
288,80,57390,5,0,0:0:0:0:
380,72,57493,1,8,0:0:0:0:
388,160,57597,1,0,0:0:0:0:
296,168,57701,2,0,B|252:160|252:160|216:132,1,90,8|0,0:0|0:0,0:0:0:0:
328,0,57907,5,8,0:0:0:0:
460,108,58011,1,0,0:0:0:0:
352,240,58114,1,8,0:0:0:0:
216,132,58218,38,0,L|207:39,1,90,0|8,0:0|0:0,0:0:0:0:
124,16,58424,1,0,0:0:0:0:
80,200,58528,5,8,0:0:0:0:
168,208,58631,1,0,0:0:0:0:
130,124,58735,2,0,B|86:108|86:108|42:116,1,90,8|0,0:0|0:0,0:0:0:0:
113,280,58942,5,8,0:0:0:0:
252,329,59046,1,0,0:0:0:0:
168,208,59149,1,8,0:0:0:0:
164,354,59252,1,0,0:0:0:0:
252,238,59355,1,8,0:0:0:0:
24,288,59459,6,0,B|40:332|40:332|72:360,1,90,0|8,0:0|0:0,0:0:0:0:
344,232,59666,2,0,B|328:188|328:188|296:160,1,90,0|8,0:0|0:0,0:0:0:0:
132,124,59873,38,0,L|40:136,1,90,4|8,0:0|0:0,0:0:0:0:
100,208,60080,1,0,0:0:0:0:
276,84,60183,5,8,0:0:0:0:
309,165,60286,1,0,0:0:0:0:
252,238,60390,1,8,0:0:0:0:
220,154,60493,2,0,L|309:165,1,90,0|8,0:0|0:0,0:0:0:0:
420,200,60700,5,0,0:0:0:0:
386,281,60803,1,8,0:0:0:0:
444,354,60907,1,0,0:0:0:0:
476,270,61010,2,0,L|386:281,1,90,8|0,0:0|0:0,0:0:0:0:
196,306,61218,5,8,0:0:0:0:
164,222,61322,1,0,0:0:0:0:
252,238,61425,1,8,0:0:0:0:
108,288,61528,38,0,L|16:296,2,90,12|0|0,0:0|0:0|0:0,0:0:0:0:
220,154,61838,2,0,L|128:146,2,90,12|0|0,0:0|0:0|0:0,0:0:0:0:
284,320,62149,6,0,L|192:328,2,90,12|0|0,0:0|0:0|0:0,0:0:0:0:
396,186,62459,2,0,L|304:178,2,90,12|0|0,0:0|0:0|0:0,0:0:0:0:
484,328,62769,6,0,B|424:360|424:360|356:348,1,135,12|0,0:0|0:0,0:0:0:0:
320,104,62976,2,0,B|380:72|380:72|448:84,1,135,12|0,0:0|0:0,0:0:0:0:
284,320,63183,6,0,B|220:304|220:304|160:336|160:336|92:320,1,202.500007724762,4|0,0:0|0:0,0:0:0:0:
36,284,63597,2,0,B|28:149,1,135.000005149842,8|0,0:0|0:0,0:0:0:0:
144,80,64011,1,0,0:0:0:0:
140,216,64218,1,0,0:0:0:0:
32,12,64424,1,8,0:0:0:0:
260,11,64631,1,0,0:0:0:0:
252,144,64838,38,0,L|240:352,1,202.500007724762
300,380,65252,2,0,P|352:372|408:308,1,135.000005149842,8|0,0:0|0:0,0:0:0:0:
340,196,65666,1,0,0:0:0:0:
340,196,65769,2,0,P|288:204|232:268,1,135.000005149842,8|0,0:0|0:0,0:0:0:0:
408,236,66080,2,0,L|416:168,1,67.5000025749208,8|0,0:0|0:0,0:0:0:0:
244,76,66286,2,0,L|252:144,1,67.5000025749208
476,276,66493,6,0,L|500:72,1,202.500007724762
452,28,66907,2,0,P|392:52|320:44,1,135.000005149842,8|0,0:0|0:0,0:0:0:0:
192,8,67321,1,0,0:0:0:0:
192,8,67424,2,0,P|125:0|63:25,1,135.000005149842,8|0,0:0|0:0,0:0:0:0:
191,192,67735,6,0,P|212:165|216:132,1,67.5000025749208,12|0,0:0|0:0,0:0:0:0:
168,72,67942,2,0,P|134:67|104:80,1,67.5000025749208,12|0,0:0|0:0,0:0:0:0:
60,192,68149,5,0,0:0:0:0:
56,260,68252,1,0,0:0:0:0:
124,264,68355,1,0,0:0:0:0:
128,196,68459,1,0,0:0:0:0:
296,260,68562,37,8,0:0:0:0:
300,328,68665,1,0,0:0:0:0:
232,332,68768,1,0,0:0:0:0:
228,264,68872,1,0,0:0:0:0:
32,160,68975,5,0,0:0:0:0:
24,288,69079,1,0,0:0:0:0:
152,296,69182,1,0,0:0:0:0:
160,168,69286,1,0,0:0:0:0:
324,228,69389,5,8,0:0:0:0:
332,356,69493,1,0,0:0:0:0:
204,364,69596,1,0,0:0:0:0:
196,236,69700,1,0,0:0:0:0:
356,160,69804,6,0,L|424:152,2,67.5000025749208
292,132,70114,2,0,L|224:124,2,67.5000025749208
344,92,70424,2,0,P|352:56|348:24,1,67.5000025749208
160,88,70631,38,0,P|152:124|156:156,1,67.5000025749208,8|0,0:0|0:0,0:0:0:0:
184,216,70838,1,0,0:0:0:0:
244,244,70942,1,0,0:0:0:0:
308,220,71045,1,0,0:0:0:0:
348,164,71149,1,0,0:0:0:0:
412,140,71252,1,0,0:0:0:0:
472,168,71356,1,0,0:0:0:0:
496,232,71459,6,0,L|500:304,2,67.5000025749208
424,280,71769,2,0,L|397:346,2,67.5000025749208,0|0|0,0:3|0:3|0:3,0:3:0:0:
332,292,72080,2,0,L|271:331,1,67.5000025749208,0|0,0:3|0:3,0:3:0:0:
160,360,72286,6,0,L|92:352,1,67.5000025749208,8|0,0:0|0:0,0:0:0:0:
40,312,72493,1,0,0:0:0:0:
24,244,72597,1,0,0:0:0:0:
52,184,72700,1,0,0:0:0:0:
116,156,72804,1,0,0:0:0:0:
180,176,72907,1,0,0:0:0:0:
216,232,73011,1,0,0:0:0:0:
216,300,73114,6,0,B|228:344|228:344|264:372,1,90,8|0,0:0|0:0,0:0:0:0:
472,372,73321,1,0,0:0:0:0:
296,220,73424,2,0,B|280:262|280:262|294:306,1,90,8|0,0:0|0:0,0:0:0:0:
452,368,73631,1,0,0:0:0:0:
408,200,73735,2,0,B|370:226|370:226|356:269,1,90,8|0,0:0|0:0,0:0:0:0:
432,364,73942,1,0,0:0:0:0:
512,244,74045,2,0,B|466:244|466:244|430:271,1,90,8|0,0:0|0:0,0:0:0:0:
412,360,74252,1,0,0:0:0:0:
504,104,74355,38,0,B|464:92|464:92|416:96,1,90,12|0,0:0|0:0,0:0:0:0:
296,220,74562,2,0,B|336:232|336:232|384:228,1,90,12|0,0:0|0:0,0:0:0:0:
211,192,74769,5,0,0:0:0:0:
123,212,74873,1,0,0:0:0:0:
143,300,74976,1,8,0:0:0:0:
231,284,75080,1,8,0:0:0:0:
148,124,75183,5,8,0:0:0:0:
56,272,75286,1,8,0:0:0:0:
204,368,75390,1,8,0:0:0:0:
296,220,75493,1,8,0:0:0:0:
36,184,75597,5,0,0:0:0:0:
36,184,75649,1,0,0:0:0:0:
36,184,75700,1,0,0:0:0:0:
36,184,75752,1,0,0:0:0:0:
36,184,75804,1,0,0:0:0:0:
36,184,75855,1,0,0:0:0:0:
36,184,75907,1,0,0:0:0:0:
36,184,75959,1,0,0:0:0:0:
36,184,76011,37,0,0:0:0:0:
36,230,76062,1,0,0:0:0:0:
64,264,76114,1,0,0:0:0:0:
109,272,76166,1,0,0:0:0:0:
148,249,76217,1,0,0:0:0:0:
163,207,76269,1,0,0:0:0:0:
148,165,76320,1,0,0:0:0:0:
109,142,76372,1,0,0:0:0:0:
64,150,76424,1,4,0:0:0:0:
48,344,77667,5,8,0:0:0:0:
91,353,77718,1,0,0:0:0:0:
136,348,77770,1,0,0:0:0:0:
177,331,77822,1,0,0:0:0:0:
211,301,77873,1,0,0:0:0:0:
234,263,77925,1,0,0:0:0:0:
244,219,77977,1,0,0:0:0:0:
240,174,78029,1,0,0:0:0:0:
223,133,78080,1,4,0:0:0:0:
223,133,78907,6,0,L|175:123,1,45,8|0,0:0|0:0,0:0:0:0:
320,48,79011,2,0,L|275:56,1,45,8|0,0:0|0:0,0:0:0:0:
400,148,79114,6,0,L|355:138,1,45,8|0,0:0|0:0,0:0:0:0:
497,63,79218,2,0,L|452:71,1,45,8|0,0:0|0:0,0:0:0:0:
248,260,79321,37,2,0:0:0:0:
247,314,79373,1,0,0:0:0:0:
282,355,79425,1,0,0:0:0:0:
335,364,79476,1,0,0:0:0:0:
382,337,79528,1,0,0:0:0:0:
401,287,79580,1,0,0:0:0:0:
382,236,79632,1,0,0:0:0:0:
335,209,79684,1,0,0:0:0:0:
282,218,79735,6,0,B|224:236|224:236|180:200|180:200|120:216|120:216|76:176|76:176|88:116|88:116|56:64,1,360,2|8,0:0|0:0,0:0:0:0:
247,314,80562,2,0,B|305:332|305:332|349:296|349:296|409:312|409:312|453:272|453:272|441:212|441:212|472:161,1,360,0|8,0:0|0:0,0:0:0:0:
500,76,81080,1,0,0:0:0:0:
440,8,81183,1,0,0:0:0:0:
352,24,81286,1,0,0:0:0:0:
308,104,81390,5,0,0:0:0:0:
224,132,81493,1,0,0:0:0:0:
156,76,81597,1,0,0:0:0:0:
72,104,81700,1,0,0:0:0:0:
220,244,81804,5,8,0:0:0:0:
304,272,81907,1,0,0:0:0:0:
372,216,82011,1,0,0:0:0:0:
456,244,82114,1,0,0:0:0:0:
288,188,82218,37,0,0:0:0:0:
288,188,82321,1,0,0:0:0:0:
140,164,82424,1,0,0:0:0:0:
140,164,82528,1,0,0:0:0:0:
388,300,82631,5,8,0:0:0:0:
388,300,82734,1,0,0:0:0:0:
240,324,82837,1,0,0:0:0:0:
240,324,82941,1,0,0:0:0:0:
444,160,83045,6,0,L|452:68,1,90
280,98,83252,2,0,L|288:190,1,90
448,333,83459,2,0,L|456:241,1,90,8|0,0:0|0:0,0:0:0:0:
284,271,83666,2,0,L|292:363,1,90
364,196,83873,6,0,L|384:16,1,180
212,248,84183,2,0,L|192:68,1,180
280,98,84493,1,0,0:0:0:0:
112,112,84597,1,0,0:0:0:0:
264,16,84700,38,0,P|340:28|420:96,1,180
444,180,85011,2,0,P|368:192|288:260,1,180
400,372,85321,2,0,P|443:364|477:335,1,90
436,256,85528,6,0,P|392:263|358:292,1,90,12|0,0:0|0:0,0:0:0:0:
308,368,85735,1,0,0:0:0:0:
230,188,85838,6,0,P|204:224|200:268,1,90,12|0,0:0|0:0,0:0:0:0:
228,356,86045,1,0,0:0:0:0:
28,264,86149,6,0,P|28:308|50:346,1,90,12|0,0:0|0:0,0:0:0:0:
116,284,86355,37,0,0:0:0:0:
132,196,86459,1,0,0:0:0:0:
44,176,86562,1,0,0:0:0:0:
28,264,86666,1,0,0:0:0:0:
220,224,86769,5,8,0:0:0:0:
204,136,86873,1,0,0:0:0:0:
292,116,86976,1,0,0:0:0:0:
308,204,87080,1,0,0:0:0:0:
116,104,87183,6,0,B|100:60|100:60|104:16,1,90
376,148,87390,2,0,B|392:192|392:192|388:236,1,90
204,316,87597,1,8,0:0:0:0:
60,244,87700,1,0,0:0:0:0:
220,224,87804,1,0,0:0:0:0:
100,332,87907,1,0,0:0:0:0:
132,172,88011,5,0,0:0:0:0:
132,172,88114,1,0,0:0:0:0:
300,292,88218,1,0,0:0:0:0:
300,292,88321,1,0,0:0:0:0:
96,296,88424,1,8,0:0:0:0:
96,296,88527,1,0,0:0:0:0:
264,176,88631,1,0,0:0:0:0:
264,176,88734,1,0,0:0:0:0:
196,364,88838,37,0,0:0:0:0:
199,115,88942,1,0,0:0:0:0:
340,318,89045,1,0,0:0:0:0:
108,237,89149,1,0,0:0:0:0:
344,165,89252,2,0,L|440:176,1,90,8|0,0:0|0:0,0:0:0:0:
196,364,89459,2,0,L|100:375,1,90
6,96,89666,5,2,0:0:0:0:
10,51,89717,1,0,0:0:0:0:
41,19,89769,1,0,0:0:0:0:
86,15,89821,1,0,0:0:0:0:
123,41,89872,1,0,0:0:0:0:
135,84,89924,1,0,0:0:0:0:
116,125,89976,1,0,0:0:0:0:
75,144,90028,1,0,0:0:0:0:
32,133,90080,2,0,L|16:233,1,90,10|0,0:0|0:0,0:0:0:0:
108,237,90286,2,0,L|124:337,1,90
276,296,90493,5,2,0:0:0:0:
280,341,90544,1,0,0:0:0:0:
311,373,90596,1,0,0:0:0:0:
356,377,90648,1,0,0:0:0:0:
393,351,90699,1,0,0:0:0:0:
405,308,90751,1,0,0:0:0:0:
386,267,90803,1,0,0:0:0:0:
345,248,90855,1,0,0:0:0:0:
302,259,90907,2,0,L|286:159,1,90,14|0,0:0|0:0,0:0:0:0:
378,155,91113,2,0,L|394:55,1,90,12|0,0:0|0:0,0:0:0:0:
272,24,91321,5,2,0:0:0:0:
228,20,91373,1,0,0:0:0:0:
188,40,91424,1,0,0:0:0:0:
168,80,91476,1,0,0:0:0:0:
128,96,91528,1,0,0:0:0:0:
84,88,91580,1,0,0:0:0:0:
56,52,91631,2,0,L|52:8,1,45
244,100,91735,37,10,0:0:0:0:
252,152,91786,1,0,0:0:0:0:
232,204,91838,1,0,0:0:0:0:
180,224,91890,1,0,0:0:0:0:
128,208,91942,1,0,0:0:0:0:
76,220,91993,1,0,0:0:0:0:
44,264,92045,1,0,0:0:0:0:
44,320,92097,1,0,0:0:0:0:
84,360,92149,5,0,0:0:0:0:
136,372,92200,1,0,0:0:0:0:
184,348,92252,1,0,0:0:0:0:
212,304,92304,1,0,0:0:0:0:
260,280,92355,1,0,0:0:0:0:
312,288,92407,1,0,0:0:0:0:
356,324,92459,1,0,0:0:0:0:
408,336,92511,1,0,0:0:0:0:
452,308,92562,1,0,0:0:0:0:
472,256,92614,1,0,0:0:0:0:
448,208,92666,1,0,0:0:0:0:
400,180,92718,1,0,0:0:0:0:
352,156,92769,1,0,0:0:0:0:
328,108,92821,1,0,0:0:0:0:
348,56,92873,1,0,0:0:0:0:
392,28,92924,1,0,0:0:0:0:
444,40,92976,1,4,0:0:0:0:
444,40,96286,37,4,0:0:0:0:
448,52,96355,1,0,0:0:0:0:
452,64,96424,1,0,0:0:0:0:
456,76,96493,1,0,0:0:0:0:
460,88,96562,1,0,0:0:0:0:
464,100,96631,1,0,0:0:0:0:
468,112,96700,1,0,0:0:0:0:
328,224,97114,1,8,0:0:0:0:
324,236,97183,1,0,0:0:0:0:
320,248,97252,1,0,0:0:0:0:
316,260,97321,1,0,0:0:0:0:
312,272,97390,1,0,0:0:0:0:
308,284,97459,1,0,0:0:0:0:
304,296,97528,1,0,0:0:0:0:
348,376,97735,1,0,0:0:0:0:
432,344,97942,5,4,0:0:0:0:
428,332,98011,1,0,0:0:0:0:
424,320,98080,1,0,0:0:0:0:
420,308,98149,1,0,0:0:0:0:
416,296,98218,1,0,0:0:0:0:
412,284,98287,1,0,0:0:0:0:
408,272,98356,1,0,0:0:0:0:
264,168,98769,1,8,0:0:0:0:
268,156,98838,1,0,0:0:0:0:
272,144,98907,1,0,0:0:0:0:
276,132,98976,1,0,0:0:0:0:
280,120,99045,1,0,0:0:0:0:
284,108,99114,1,0,0:0:0:0:
288,96,99183,1,0,0:0:0:0:
244,16,99390,1,0,0:0:0:0:
160,48,99597,69,4,0:0:0:0:
164,60,99666,1,0,0:0:0:0:
168,72,99735,1,0,0:0:0:0:
172,84,99804,1,0,0:0:0:0:
176,96,99873,1,0,0:0:0:0:
180,108,99942,1,0,0:0:0:0:
184,120,100011,1,0,0:0:0:0:
44,232,100425,1,8,0:0:0:0:
40,244,100494,1,0,0:0:0:0:
36,256,100563,1,0,0:0:0:0:
32,268,100632,1,0,0:0:0:0:
28,280,100701,1,0,0:0:0:0:
24,292,100770,1,0,0:0:0:0:
20,304,100839,1,0,0:0:0:0:
64,384,101046,1,0,0:0:0:0:
148,352,101253,5,4,0:0:0:0:
144,340,101322,1,0,0:0:0:0:
140,328,101391,1,0,0:0:0:0:
136,316,101460,1,0,0:0:0:0:
132,304,101529,1,0,0:0:0:0:
128,292,101598,1,0,0:0:0:0:
124,280,101667,1,0,0:0:0:0:
268,176,102080,69,4,0:0:0:0:
280,172,102149,1,0,0:0:0:0:
292,168,102218,1,0,0:0:0:0:
304,164,102286,1,0,0:0:0:0:
316,160,102355,1,0,0:0:0:0:
328,156,102424,1,0,0:0:0:0:
384,200,102493,5,0,0:0:0:0:
396,204,102562,1,0,0:0:0:0:
408,208,102631,1,0,0:0:0:0:
420,212,102699,1,0,0:0:0:0:
432,216,102768,1,0,0:0:0:0:
444,220,102837,1,0,0:0:0:0:
504,176,102907,69,4,0:0:0:0:
492,156,102976,1,0,0:0:0:0:
484,132,103045,1,0,0:0:0:0:
480,108,103114,1,0,0:0:0:0:
480,84,103183,1,0,0:0:0:0:
484,60,103252,1,0,0:0:0:0:
492,36,103321,1,0,0:0:0:0:
228,152,103735,1,8,0:0:0:0:
240,172,103804,1,0,0:0:0:0:
248,196,103873,1,0,0:0:0:0:
252,220,103942,1,0,0:0:0:0:
252,244,104011,1,0,0:0:0:0:
248,268,104080,1,0,0:0:0:0:
240,292,104149,1,0,0:0:0:0:
378,26,104562,5,4,0:0:0:0:
358,38,104631,1,0,0:0:0:0:
334,46,104700,1,0,0:0:0:0:
310,50,104769,1,0,0:0:0:0:
286,50,104838,1,0,0:0:0:0:
262,46,104907,1,0,0:0:0:0:
238,38,104976,1,0,0:0:0:0:
354,302,105390,1,8,0:0:0:0:
374,290,105459,1,0,0:0:0:0:
398,282,105528,1,0,0:0:0:0:
422,278,105597,1,0,0:0:0:0:
446,278,105666,1,0,0:0:0:0:
470,282,105735,1,0,0:0:0:0:
494,290,105804,1,0,0:0:0:0:
216,368,106218,69,4,0:0:0:0:
192,376,106287,1,0,0:0:0:0:
168,380,106356,1,0,0:0:0:0:
144,380,106425,1,0,0:0:0:0:
120,376,106494,1,0,0:0:0:0:
96,368,106563,1,0,0:0:0:0:
76,356,106632,1,0,0:0:0:0:
248,124,107045,1,8,0:0:0:0:
266,140,107114,1,0,0:0:0:0:
282,159,107183,1,0,0:0:0:0:
294,180,107252,1,0,0:0:0:0:
302,203,107321,1,0,0:0:0:0:
308,227,107390,1,0,0:0:0:0:
307,251,107459,1,0,0:0:0:0:
20,224,107873,5,4,0:0:0:0:
24,200,107942,1,0,0:0:0:0:
33,177,108011,1,0,0:0:0:0:
45,156,108080,1,0,0:0:0:0:
61,137,108149,1,0,0:0:0:0:
79,120,108218,1,0,0:0:0:0:
100,109,108287,1,0,0:0:0:0:
384,56,108700,70,0,L|436:48,2,48,12|0|0,0:0|0:0|0:0,0:0:0:0:
312,96,108907,2,0,L|260:88,2,48,12|0|0,0:0|0:0|0:0,0:0:0:0:
404,136,109114,2,0,L|456:128,2,48,12|0|0,0:0|0:0|0:0,0:0:0:0:
292,176,109321,2,0,L|240:168,2,48,12|0|0,0:0|0:0|0:0,0:0:0:0:
428,212,109528,5,0,0:0:0:0:
464,244,109597,1,0,0:0:0:0:
472,292,109666,1,0,0:0:0:0:
444,332,109735,1,0,0:0:0:0:
396,340,109804,1,0,0:0:0:0:
356,316,109873,1,0,0:0:0:0:
336,272,109942,1,0,0:0:0:0:
292,256,110011,1,0,0:0:0:0:
244,260,110080,1,0,0:0:0:0:
208,292,110149,1,0,0:0:0:0:
188,336,110218,1,0,0:0:0:0:
152,368,110287,1,0,0:0:0:0:
104,372,110356,69,8,0:0:0:0:
60,356,110425,1,0,0:0:0:0:
36,316,110493,1,0,0:0:0:0:
32,268,110562,1,0,0:0:0:0:
56,228,110631,1,0,0:0:0:0:
100,208,110700,1,0,0:0:0:0:
148,204,110769,1,0,0:0:0:0:
192,184,110838,1,0,0:0:0:0:
216,144,110907,1,0,0:0:0:0:
212,96,110976,1,0,0:0:0:0:
188,56,111044,1,0,0:0:0:0:
144,40,111113,1,0,0:0:0:0:
96,44,111183,5,4,0:0:0:0:
52,64,111252,1,0,0:0:0:0:
28,104,111321,1,0,0:0:0:0:
32,152,111390,1,0,0:0:0:0:
56,192,111458,1,0,0:0:0:0:
100,208,111527,1,0,0:0:0:0:
148,204,111597,1,0,0:0:0:0:
192,184,111666,1,0,0:0:0:0:
216,144,111735,1,0,0:0:0:0:
224,96,111804,1,0,0:0:0:0:
248,56,111873,1,0,0:0:0:0:
292,36,111942,1,0,0:0:0:0:
340,32,112012,69,8,0:0:0:0:
384,48,112081,1,0,0:0:0:0:
408,88,112149,1,0,0:0:0:0:
412,136,112218,1,0,0:0:0:0:
388,176,112287,1,0,0:0:0:0:
344,196,112356,1,0,0:0:0:0:
296,204,112424,1,0,0:0:0:0:
252,220,112493,1,0,0:0:0:0:
228,260,112561,1,0,0:0:0:0:
224,308,112630,1,0,0:0:0:0:
248,348,112699,1,0,0:0:0:0:
292,368,112768,1,0,0:0:0:0:
340,372,112838,6,0,L|352:320,1,48,4|0,0:0|0:0,0:0:0:0:
428,324,112976,2,0,L|408:274,1,48,0|0,0:0|0:0,0:0:0:0:
460,224,113114,2,0,L|415:194,1,48,0|0,0:0|0:0,0:0:0:0:
444,124,113252,2,0,L|390:125,5,48
228,260,113666,70,0,L|216:208,1,48,8|0,0:0|0:0,0:0:0:0:
140,212,113804,2,0,L|159:162,1,48,0|0,0:0|0:0,0:0:0:0:
108,112,113942,2,0,L|152:82,1,48,0|0,0:0|0:0,0:0:0:0:
124,12,114080,2,0,L|177:13,5,48
272,64,114493,6,0,L|325:62,1,48
396,24,114631,2,0,L|449:22,1,48
276,152,114769,2,0,L|329:150,1,48
400,112,114907,37,8,0:0:0:0:
436,116,114959,1,0,0:0:0:0:
460,144,115011,1,0,0:0:0:0:
460,180,115062,1,0,0:0:0:0:
440,208,115114,1,0,0:0:0:0:
420,240,115166,1,0,0:0:0:0:
420,276,115217,1,0,0:0:0:0:
444,304,115269,1,0,0:0:0:0:
480,308,115321,5,8,0:0:0:0:
500,264,115373,1,0,0:0:0:0:
492,220,115424,1,0,0:0:0:0:
452,192,115476,1,0,0:0:0:0:
404,188,115528,1,8,0:0:0:0:
364,208,115580,1,0,0:0:0:0:
344,248,115631,1,0,0:0:0:0:
340,296,115683,1,0,0:0:0:0:
320,336,115734,1,0,0:0:0:0:
280,356,115786,1,0,0:0:0:0:
232,352,115838,1,0,0:0:0:0:
192,324,115890,1,0,0:0:0:0:
184,280,115941,1,8,0:0:0:0:
204,236,115993,1,0,0:0:0:0:
248,216,116045,1,0,0:0:0:0:
268,176,116097,1,0,0:0:0:0:
260,128,116149,1,4,0:0:0:0:
260,128,117804,5,10,0:0:0:0:
242,77,117856,1,0,0:0:0:0:
195,50,117908,1,0,0:0:0:0:
142,59,117960,1,0,0:0:0:0:
107,101,118011,1,0,0:0:0:0:
107,155,118063,1,0,0:0:0:0:
142,196,118115,1,0,0:0:0:0:
195,206,118167,1,0,0:0:0:0:
242,179,118218,1,0,0:0:0:0:
296,176,118269,1,0,0:0:0:0:
344,204,118321,1,0,0:0:0:0:
368,252,118373,1,0,0:0:0:0:
360,304,118424,2,0,L|264:316,1,90,8|0,0:0|0:0,0:0:0:0:
188,284,118631,5,0,0:0:0:0:
148,364,118735,1,8,0:0:0:0:
68,324,118838,1,0,0:0:0:0:
108,244,118942,2,0,B|120:200|120:200|112:156,1,90,8|0,0:0|0:0,0:0:0:0:
32,28,119149,2,0,B|20:72|20:72|28:116,1,90,8|0,0:0|0:0,0:0:0:0:
68,324,119355,1,8,0:0:0:0:
248,204,119459,5,4,0:0:0:0:
248,204,119562,1,8,0:0:0:0:
195,50,119666,1,0,0:0:0:0:
195,50,119769,1,8,0:0:0:0:
332,240,119873,5,0,0:0:0:0:
332,240,119976,1,8,0:0:0:0:
385,86,120080,1,0,0:0:0:0:
385,86,120183,1,8,0:0:0:0:
260,296,120286,5,0,0:0:0:0:
176,260,120390,1,8,0:0:0:0:
248,204,120493,1,0,0:0:0:0:
332,240,120597,1,8,0:0:0:0:
432,368,120700,5,0,0:0:0:0:
504,312,120804,1,8,0:0:0:0:
420,276,120908,1,0,0:0:0:0:
348,332,121011,1,8,0:0:0:0:
