osu file format v14

[General]
AudioFilename: 12 - Everything will freeze.mp3
AudioLeadIn: 0
PreviewTime: 50225
Countdown: 0
SampleSet: Normal
StackLeniency: 0.7
Mode: 0
LetterboxInBreaks: 0
WidescreenStoryboard: 0

[Editor]
Bookmarks: 65225,124225,167725,184225
DistanceSpacing: 0.5
BeatDivisor: 4
GridSize: 4
TimelineZoom: 3.799998

[Metadata]
Title:Everything will freeze
TitleUnicode:Everything will freeze
Artist:UNDEAD CORPORATION
ArtistUnicode:UNDEAD CORPORATION
Creator:sjoy
Version:Freezing
Source:東方Project
Tags:Touhou BOUKUN Izayoi Sakuya chenwu Minakami Yuki hoshisorakiseki Emingk
BeatmapID:744673
BeatmapSetID:336471

[Difficulty]
HPDrainRate:6
CircleSize:4
OverallDifficulty:8.8
ApproachRate:9.8
SliderMultiplier:2
SliderTickRate:1

[Events]
//Background and Video events
0,0,"bg.jpg",0,0
//Break Periods
//Storyboard Layer 0 (Background)
//Storyboard Layer 1 (Fail)
//Storyboard Layer 2 (Pass)
//Storyboard Layer 3 (Foreground)
//Storyboard Sound Samples

[TimingPoints]
230,250,4,1,1,70,1,0
230,-100,4,2,2,70,0,0
355,-100,4,1,1,70,0,0
2105,-100,4,1,1,5,0,0
2230,-100,4,1,1,80,0,0
26230,-100,4,1,1,70,0,0
31230,-100,4,1,0,70,0,0
31292,-100,4,1,1,70,0,0
31480,-100,4,1,0,70,0,0
31542,-100,4,1,1,70,0,0
31730,-100,4,1,0,70,0,0
31792,-100,4,1,1,70,0,0
37230,-100,4,1,0,70,0,0
37292,-100,4,1,1,70,0,0
37480,-100,4,1,0,70,0,0
37542,-100,4,1,1,70,0,0
37730,-100,4,1,0,70,0,0
37792,-100,4,1,1,70,0,0
37980,-100,4,1,0,70,0,0
38042,-100,4,1,1,70,0,0
39480,-100,4,1,0,70,0,0
39542,-100,4,1,1,70,0,0
39730,-100,4,1,0,70,0,0
39792,-100,4,1,1,70,0,0
39980,-100,4,1,0,70,0,0
40042,-100,4,1,1,70,0,0
44230,-100,4,1,1,60,0,0
45230,-100,4,1,1,70,0,0
46230,-100,4,1,1,80,0,0
47230,-100,4,1,1,90,0,0
48230,-100,4,1,1,80,0,0
50230,-100,4,1,1,80,0,1
57230,-100,4,2,2,80,0,1
57292,-100,4,1,1,80,0,1
57730,-100,4,2,2,80,0,1
57792,-100,4,1,1,80,0,1
58230,-100,4,1,1,90,0,1
65230,-133.333333333333,4,1,1,80,0,1
65667,-133.333333333333,4,1,1,5,0,1
65730,-133.333333333333,4,1,1,80,0,1
66167,-133.333333333333,4,1,1,5,0,1
66230,-100,4,1,1,80,0,0
82230,-100,4,1,1,60,0,0
82480,-100,4,1,1,80,0,0
84230,-100,4,1,1,60,0,0
84480,-100,4,1,1,80,0,0
86230,-100,4,1,1,60,0,0
86480,-100,4,1,1,80,0,0
88230,-100,4,1,1,70,0,0
90230,-83.3333333333333,4,1,1,60,0,0
90480,-100,4,1,1,80,0,0
92230,-83.3333333333333,4,1,1,60,0,0
92480,-100,4,1,1,80,0,0
94230,-83.3333333333333,4,1,1,60,0,0
94480,-100,4,1,1,80,0,0
96230,-83.3333333333333,4,1,1,60,0,0
96480,-100,4,1,1,80,0,0
100230,-142.857142857143,4,1,1,60,0,0
101230,-125,4,1,1,70,0,0
102230,-111.111111111111,4,1,1,80,0,0
103230,-100,4,1,1,90,0,0
105480,-100,4,2,2,90,0,0
105542,-100,4,1,1,90,0,0
105980,-200,4,1,1,80,0,0
106230,-90.9090909090909,4,1,1,80,0,1
113730,-90.9090909090909,4,2,2,80,0,1
113792,-90.9090909090909,4,1,1,80,0,1
121230,-133.333333333333,4,1,1,80,0,1
121667,-133.333333333333,4,1,1,5,0,1
121730,-133.333333333333,4,1,1,80,0,1
122230,-100,4,1,1,80,0,0
124230,-100,4,1,1,80,0,0
139605,-100,4,2,2,80,0,0
139667,-100,4,1,1,80,0,0
140230,-100,4,1,3,60,0,0
145230,-100,4,1,3,70,0,0
145730,-100,4,1,3,80,0,0
146230,-100,4,1,3,90,0,0
147230,-100,4,1,3,80,0,0
148230,-100,4,1,3,60,0,0
152480,-100,4,1,3,70,0,0
154230,-100,4,1,3,80,0,0
155230,-100,4,1,3,90,0,0
156230,-100,4,1,3,80,0,0
158230,-100,4,1,1,60,0,0
159230,-100,4,1,1,70,0,0
160230,-100,4,1,1,80,0,0
161230,-100,4,1,1,90,0,0
162230,-100,4,1,1,70,0,0
167355,-100,4,1,1,5,0,0
167730,-200,4,1,1,80,0,0
168230,-83.3333333333333,4,1,1,80,0,1
176230,-83.3333333333333,4,1,1,80,0,1
183230,-133.333333333333,4,1,1,80,0,1
183667,-133.333333333333,4,1,1,5,0,1
183730,-133.333333333333,4,1,1,80,0,1
184167,-133.333333333333,4,1,1,5,0,1
184230,-100,4,1,1,70,0,0
193230,-55.5555555555556,4,1,1,70,0,0
193355,-100,4,1,1,5,0,0

[Colours]
Combo1 : 255,255,128
Combo2 : 140,255,100
Combo3 : 250,180,220
Combo4 : 172,251,253

[HitObjects]
336,264,230,6,0,L|456:264,2,100,6|2|2,0:2|0:0|0:0,0:0:0:0:
208,320,605,5,2,0:0:0:0:
176,308,667,1,0,0:0:0:0:
144,296,730,1,0,0:0:0:0:
176,160,855,1,2,0:0:0:0:
204,180,917,1,0,0:0:0:0:
232,200,980,1,0,0:0:0:0:
76,176,1105,1,2,0:0:0:0:
88,144,1167,1,0,0:0:0:0:
100,112,1230,1,0,0:0:0:0:
224,48,1355,1,2,0:0:0:0:
256,60,1417,1,0,0:0:0:0:
288,72,1480,1,0,0:0:0:0:
424,32,1605,5,0,0:0:0:0:
484,160,1730,1,2,0:0:0:0:
472,192,1792,1,0,0:0:0:0:
460,225,1855,1,0,0:0:0:0:
447,257,1917,1,0,0:0:0:0:
432,289,1980,2,0,P|387:278|380:230,1,100,2|4,0:0|0:2,0:0:0:0:
380,230,2230,5,4,2:0:0:0:
380,230,3105,5,0,0:0:0:0:
371,234,3167,1,0,0:0:0:0:
360,237,3230,2,0,P|312:249|262:249,1,100,8|0,0:0|0:0,0:0:0:0:
82,191,3480,1,8,0:0:0:0:
85,181,3542,1,0,0:0:0:0:
88,171,3605,1,0,0:0:0:0:
91,161,3667,1,0,0:0:0:0:
96,152,3730,2,0,P|144:138|216:143,1,100,0|8,0:0|0:0,0:0:0:0:
267,241,3980,2,0,P|254:293|202:338,1,100,8|0,0:0|0:0,0:0:0:0:
223,326,4230,5,4,2:0:0:0:
223,327,5230,6,0,L|152:308,3,50,2|0|0|0,0:0|0:0|0:0|0:0,0:0:0:0:
57,275,5480,2,0,L|128:256,3,50,2|0|0|0,0:0|0:0|0:0|0:0,0:0:0:0:
29,247,5730,1,2,0:0:0:0:
23,212,5792,1,0,0:0:0:0:
35,178,5855,1,2,0:0:0:0:
60,154,5917,1,0,0:0:0:0:
92,146,5980,1,2,0:0:0:0:
126,147,6042,1,0,0:0:0:0:
157,163,6105,1,2,0:0:0:0:
168,195,6167,1,0,0:0:0:0:
170,230,6230,6,0,P|221:230|276:218,1,100,12|0,0:0|0:0,0:0:0:0:
324,131,6480,2,0,L|304:86,2,50
158,36,6730,2,0,P|107:35|52:48,1,100,8|0,0:0|0:0,0:0:0:0:
188,136,6980,2,0,L|209:91,2,50
100,214,7230,5,8,0:0:0:0:
180,332,7355,1,0,0:0:0:0:
256,212,7480,1,8,0:0:0:0:
256,212,7542,1,0,0:0:0:0:
256,212,7605,1,0,0:0:0:0:
344,320,7730,2,0,P|388:328|448:324,1,100,0|8,0:0|0:0,0:0:0:0:
512,200,7980,2,0,P|462:196|413:204,1,100,8|0,0:0|0:0,0:0:0:0:
256,212,8230,5,2,0:0:0:0:
296,76,8355,1,0,0:0:0:0:
270,52,8417,1,0,0:0:0:0:
236,40,8480,1,0,0:0:0:0:
201,38,8542,1,0,0:0:0:0:
168,52,8605,2,0,P|121:76|61:80,1,100,2|0,0:0|0:0,0:0:0:0:
40,88,8792,1,0,0:0:0:0:
52,121,8855,1,0,0:0:0:0:
43,154,8917,1,0,0:0:0:0:
24,183,8980,2,0,P|66:208|125:205,1,100,2|2,0:0|0:0,0:0:0:0:
145,342,9230,6,0,P|190:309|199:237,1,100,8|0,0:0|0:0,0:0:0:0:
202,152,9480,1,0,0:0:0:0:
211,149,9542,1,0,0:0:0:0:
220,146,9605,1,0,0:0:0:0:
229,144,9667,1,0,0:0:0:0:
238,142,9730,2,0,P|281:137|355:148,1,100,8|0,0:0|0:0,0:0:0:0:
477,268,9980,1,0,0:0:0:0:
468,272,10042,1,0,0:0:0:0:
458,274,10105,1,0,0:0:0:0:
448,277,10167,1,0,0:0:0:0:
438,280,10230,6,0,P|384:289|320:273,1,100,12|0,0:0|0:0,0:0:0:0:
360,113,10480,2,0,P|391:161|385:216,1,100
206,223,10730,2,0,P|259:224|311:187,1,100,8|0,0:0|0:0,0:0:0:0:
154,94,10980,2,0,P|210:112|248:160,1,100
102,193,11230,6,0,P|65:232|20:238,1,100,8|0,0:0|0:0,0:0:0:0:
59,110,11480,1,8,0:0:0:0:
62,100,11542,1,0,0:0:0:0:
65,90,11605,1,0,0:0:0:0:
192,168,11730,2,0,P|229:207|274:213,1,100,0|8,0:0|0:0,0:0:0:0:
392,109,11980,1,8,0:0:0:0:
400,104,12042,1,0,0:0:0:0:
405,95,12105,1,0,0:0:0:0:
356,237,12230,6,0,P|405:240|455:233,1,100,8|0,0:0|0:0,0:0:0:0:
261,289,12480,2,0,P|283:333|313:373,1,100,0|0,0:0|0:0,0:0:0:0:
162,241,12730,2,0,P|134:282|115:328,1,100,8|0,0:0|0:0,0:0:0:0:
99,158,12980,2,0,L|130:108,2,50
13,231,13230,5,2,0:0:0:0:
29,261,13292,1,0,0:0:0:0:
61,275,13355,1,2,0:0:0:0:
95,275,13417,1,0,0:0:0:0:
129,266,13480,1,2,0:0:0:0:
152,240,13542,1,0,0:0:0:0:
151,204,13605,1,2,0:0:0:0:
131,174,13667,1,0,0:0:0:0:
99,158,13730,2,0,P|69:150|35:155,3,50,2|2|2|0,0:0|0:0|0:0|0:0,0:0:0:0:
163,94,13980,2,0,P|193:86|227:91,3,50,2|0|2|0,0:0|0:0|0:0|0:0,0:0:0:0:
163,94,14230,5,12,0:0:0:0:
289,28,14355,1,0,0:0:0:0:
424,70,14480,2,0,L|480:90,2,50,0|0|0,0:0|0:0|0:0,0:0:0:0:
444,207,14730,1,8,0:0:0:0:
313,264,14855,1,0,0:0:0:0:
178,225,14980,2,0,L|139:259,2,50,0|0|0,0:0|0:0|0:0,0:0:0:0:
141,329,15230,6,0,P|85:306|69:244,1,100,8|0,0:0|0:0,0:0:0:0:
279,273,15480,2,0,P|253:314|206:329,1,100,8|0,0:0|0:0,0:0:0:0:
207,150,15730,2,0,P|262:172|279:235,1,100,0|8,0:0|0:0,0:0:0:0:
66,202,15980,2,0,P|91:160|138:145,1,100,8|0,0:0|0:0,0:0:0:0:
141,329,16230,5,8,0:0:0:0:
207,150,16355,1,2,0:0:0:0:
68,272,16480,1,8,0:0:0:0:
279,206,16605,1,8,0:0:0:0:
66,202,16730,1,8,0:0:0:0:
279,273,16855,1,2,0:0:0:0:
138,145,16980,1,8,0:0:0:0:
206,329,17105,1,2,0:0:0:0:
364,350,17230,6,0,B|407:342|432:306|432:306|416:280|420:219,1,150,8|0,0:0|0:0,0:0:0:0:
411,206,17480,1,0,0:0:0:0:
414,181,17542,1,0,0:0:0:0:
418,156,17605,1,0,0:0:0:0:
428,133,17667,1,0,0:0:0:0:
441,111,17730,2,0,P|394:109|323:130,1,100,8|0,0:0|0:0,0:0:0:0:
192,214,17980,1,8,0:0:0:0:
187,205,18042,1,8,0:0:0:0:
185,195,18105,1,8,0:0:0:0:
185,185,18167,1,8,0:0:0:0:
184,174,18230,6,0,P|238:159|288:173,1,100,12|0,0:0|0:0,0:0:0:0:
118,117,18480,2,0,L|48:99,2,50
0,210,18730,2,0,P|49:221|101:217,1,100,8|0,0:0|0:0,0:0:0:0:
118,117,18980,2,0,L|47:134,2,50
202,54,19230,6,0,P|251:43|301:45,1,100,8|0,0:0|0:0,0:0:0:0:
350,145,19480,1,8,0:0:0:0:
350,145,19542,1,0,0:0:0:0:
350,145,19605,1,0,0:0:0:0:
329,253,19730,2,0,P|283:233|248:199,1,100,0|8,0:0|0:0,0:0:0:0:
411,216,19980,1,8,0:0:0:0:
411,216,20042,1,0,0:0:0:0:
411,216,20105,1,0,0:0:0:0:
372,324,20230,6,0,P|319:335|271:317,1,100,8|0,0:0|0:0,0:0:0:0:
180,256,20480,1,0,0:0:0:0:
180,256,20542,1,0,0:0:0:0:
180,256,20605,1,0,0:0:0:0:
231,142,20730,2,0,P|256:198|247:264,1,100,8|0,0:0|0:0,0:0:0:0:
350,145,20980,1,0,0:0:0:0:
350,145,21042,1,0,0:0:0:0:
350,145,21105,1,0,0:0:0:0:
236,58,21230,5,2,0:0:0:0:
202,66,21292,1,0,0:0:0:0:
167,73,21355,1,0,0:0:0:0:
133,82,21417,1,0,0:0:0:0:
99,92,21480,2,0,L|41:105,3,50,2|0|0|0,0:0|0:0|0:0|0:0,0:0:0:0:
39,175,21730,5,2,0:0:0:0:
73,167,21792,1,0,0:0:0:0:
108,160,21855,1,2,0:0:0:0:
142,151,21917,1,0,0:0:0:0:
176,141,21980,2,0,L|234:128,3,50,2|0|2|0,0:0|0:0|0:0|0:0,0:0:0:0:
248,199,22230,5,4,0:0:0:0:
165,312,22355,1,0,0:0:0:0:
27,273,22480,1,8,0:0:0:0:
27,273,22542,1,0,0:0:0:0:
27,273,22605,2,0,L|39:163,1,100
133,82,22855,1,0,0:0:0:0:
255,119,22980,2,0,P|305:125|362:118,1,100,8|0,0:0|0:0,0:0:0:0:
249,199,23230,6,0,P|198:192|142:200,1,100,8|0,0:0|0:0,0:0:0:0:
165,312,23480,1,8,0:0:0:0:
165,312,23542,1,0,0:0:0:0:
165,312,23605,2,0,P|216:318|265:314,1,100
375,228,23855,1,8,0:0:0:0:
255,119,23980,2,0,P|214:117|186:131,2,50,8|0|0,0:0|0:0|0:0,0:0:0:0:
111,130,24230,5,2,0:0:0:0:
133,231,24355,1,0,0:0:0:0:
235,209,24480,1,8,0:0:0:0:
206,119,24605,1,2,0:0:0:0:
95,51,24730,5,0,0:0:0:0:
134,230,24855,1,0,0:0:0:0:
314,191,24980,1,10,0:0:0:0:
278,12,25105,1,0,0:0:0:0:
206,119,25230,5,4,0:0:0:0:
124,328,25480,1,0,0:0:0:0:
157,318,25542,1,0,0:0:0:0:
191,326,25605,1,0,0:0:0:0:
224,336,25667,1,0,0:0:0:0:
258,327,25730,1,4,0:0:0:0:
482,154,25980,5,8,0:0:0:0:
475,146,26042,1,8,0:0:0:0:
468,138,26105,1,8,0:0:0:0:
461,130,26167,1,8,0:0:0:0:
454,122,26230,6,0,L|376:30,1,100,8|0,0:0|0:0,0:0:0:0:
271,89,26480,1,8,0:0:0:0:
153,126,26605,2,0,L|96:17,1,100,2|8,0:0|0:0,0:0:0:0:
23,207,26855,2,0,L|63:78,1,100,2|8,0:0|0:0,0:0:0:0:
52,111,27042,1,0,0:0:0:0:
52,111,27105,1,0,0:0:0:0:
170,272,27230,6,2,L|297:245,1,100,2|0,0:0|0:0,0:0:0:0:
348,356,27480,2,2,L|388:232,1,100,2|0,0:0|0:0,0:0:0:0:
484,168,27730,2,2,L|397:71,1,100,2|0,0:0|0:0,0:0:0:0:
292,32,27980,2,2,L|165:59,1,100,2|0,0:0|0:0,0:0:0:0:
124,206,28230,6,0,L|251:179,1,100,8|0,0:0|0:0,0:0:0:0:
337,155,28480,1,8,0:0:0:0:
282,281,28605,2,0,L|237:377,1,100,2|8,0:0|0:0,0:0:0:0:
375,254,28855,2,0,L|420:350,1,100,2|8,0:0|0:0,0:0:0:0:
417,344,29042,1,0,0:0:0:0:
417,344,29105,1,0,0:0:0:0:
433,186,29230,6,2,L|395:54,1,100,2|0,0:0|0:0,0:0:0:0:
277,174,29480,2,2,L|165:206,1,100,2|0,0:0|0:0,0:0:0:0:
33,174,29730,2,2,L|71:306,1,100,2|0,0:0|0:0,0:0:0:0:
219,328,29980,2,2,L|331:296,1,100,2|0,0:0|0:0,0:0:0:0:
139,346,30230,6,0,P|87:338|25:348,1,100,8|0,0:0|0:0,0:0:0:0:
0,240,30480,1,8,0:0:0:0:
134,163,30605,2,0,P|190:149|261:158,1,100,2|8,0:0|0:0,0:0:0:0:
372,254,30855,2,0,P|316:240|245:249,1,100,2|8,0:0|0:0,0:0:0:0:
274,241,31042,1,0,0:0:0:0:
274,241,31105,1,0,0:0:0:0:
186,258,31230,5,2,0:0:0:0:
260,159,31355,1,0,0:0:0:0:
134,163,31480,1,2,0:0:0:0:
201,59,31605,1,0,0:0:0:0:
215,62,31667,1,0,0:0:0:0:
229,64,31730,1,2,0:0:0:0:
243,64,31792,1,0,0:0:0:0:
258,63,31855,1,0,0:0:0:0:
272,66,31917,1,0,0:0:0:0:
287,65,31980,2,2,P|336:87|366:132,1,100,10|0,0:0|0:0,0:0:0:0:
453,243,32230,5,10,0:0:0:0:
457,262,32292,1,0,0:0:0:0:
458,282,32355,1,0,0:0:0:0:
456,301,32417,1,0,0:0:0:0:
452,320,32480,2,0,L|440:368,1,50
323,322,32605,5,10,0:0:0:0:
327,303,32667,1,0,0:0:0:0:
328,283,32730,1,0,0:0:0:0:
326,264,32792,1,0,0:0:0:0:
320,248,32855,2,0,L|312:196,1,50
198,244,32980,5,10,0:0:0:0:
202,263,33042,1,0,0:0:0:0:
203,283,33105,1,0,0:0:0:0:
201,302,33167,1,0,0:0:0:0:
196,324,33230,2,0,L|180:376,1,50
102,266,33355,6,0,P|153:245|213:247,1,100,2|0,0:0|0:0,0:0:0:0:
226,237,33542,1,0,0:0:0:0:
249,218,33605,1,0,0:0:0:0:
264,192,33667,1,0,0:0:0:0:
270,162,33730,2,0,L|177:124,1,100,10|0,0:0|0:0,0:0:0:0:
397,156,33980,2,0,L|489:192,1,100,8|0,0:0|0:0,0:0:0:0:
347,62,34230,5,12,0:0:0:0:
230,34,34355,1,0,0:0:0:0:
111,45,34480,1,8,0:0:0:0:
111,45,34542,1,0,0:0:0:0:
111,45,34605,2,0,P|87:84|96:160,1,100,2|8,0:0|0:0,0:0:0:0:
179,266,34855,2,0,P|202:226|194:151,1,100,2|8,0:0|0:0,0:0:0:0:
280,322,35105,1,0,0:0:0:0:
105,356,35230,6,2,L|46:231,1,100,2|0,0:0|0:0,0:0:0:0:
169,148,35480,2,2,L|141:86,2,50,2|0|0,0:0|0:0|0:0,0:0:0:0:
313,219,35730,2,2,L|355:309,1,100,2|0,0:0|0:0,0:0:0:0:
462,197,35980,2,2,L|440:151,2,50,2|0|0,0:0|0:0|0:0,0:0:0:0:
454,316,36230,5,8,0:0:0:0:
355,309,36355,1,0,0:0:0:0:
313,219,36480,1,8,0:0:0:0:
313,219,36542,1,0,0:0:0:0:
313,219,36605,2,0,P|261:228|191:215,1,100,2|8,0:0|0:0,0:0:0:0:
20,203,36855,2,0,P|71:194|142:207,1,100,2|8,0:0|0:0,0:0:0:0:
214,222,37105,1,0,0:0:0:0:
212,92,37230,5,2,0:0:0:0:
114,114,37355,1,0,0:0:0:0:
290,148,37480,1,2,0:0:0:0:
303,153,37542,1,0,0:0:0:0:
317,158,37605,1,0,0:0:0:0:
441,139,37730,1,2,0:0:0:0:
496,222,37855,1,0,0:0:0:0:
371,249,37980,1,2,0:0:0:0:
358,254,38042,1,0,0:0:0:0:
344,259,38105,1,0,0:0:0:0:
157,284,38230,6,0,P|202:299|267:295,1,100,8|0,0:0|0:0,0:0:0:0:
216,156,38480,1,8,0:0:0:0:
216,156,38542,1,0,0:0:0:0:
216,156,38605,2,0,L|193:50,1,100,2|8,0:0|0:0,0:0:0:0:
367,109,38855,2,0,L|412:19,1,100,2|8,0:0|0:0,0:0:0:0:
287,88,39105,1,0,0:0:0:0:
410,184,39230,6,2,P|428:233|404:295,1,100
297,344,39480,1,2,0:0:0:0:
277,347,39542,1,0,0:0:0:0:
257,345,39605,1,2,0:0:0:0:
110,266,39730,1,2,0:0:0:0:
113,286,39792,1,0,0:0:0:0:
111,306,39855,1,2,0:0:0:0:
106,326,39917,1,0,0:0:0:0:
96,344,39980,1,2,0:0:0:0:
96,344,40230,5,8,0:0:0:0:
32,208,40355,1,8,0:0:0:0:
92,71,40480,1,8,0:0:0:0:
243,96,40605,2,0,L|365:108,1,100,8|0,0:0|0:0,0:0:0:0:
361,109,40792,1,0,0:0:0:0:
381,110,40855,2,0,L|382:182,1,50
456,219,40980,1,8,0:0:0:0:
454,238,41042,1,0,0:0:0:0:
455,258,41105,1,0,0:0:0:0:
453,277,41167,1,0,0:0:0:0:
455,299,41230,6,0,L|503:316,1,50
385,345,41355,2,0,P|335:349|267:336,1,100,8|0,0:0|0:0,0:0:0:0:
266,339,41542,1,0,0:0:0:0:
246,333,41605,1,0,0:0:0:0:
228,323,41667,1,0,0:0:0:0:
209,316,41730,2,0,L|181:362,1,50,8|0,0:0|0:0,0:0:0:0:
308,255,41855,2,0,L|333:212,1,50,8|0,0:0|0:0,0:0:0:0:
222,206,41980,2,0,P|151:174|73:169,1,150,8|0,0:0|2:0,0:0:0:0:
40,160,42230,6,0,P|120:85|224:100,1,200,12|0,0:0|0:0,0:0:0:0:
236,104,42542,1,0,0:0:0:0:
264,125,42605,1,0,0:0:0:0:
273,158,42667,1,0,0:0:0:0:
267,192,42730,6,0,P|243:224|169:256,1,100,8|0,0:0|0:0,0:0:0:0:
152,266,42917,1,0,0:0:0:0:
116,269,42980,1,0,0:0:0:0:
86,250,43042,1,0,0:0:0:0:
79,215,43105,1,0,0:0:0:0:
92,182,43167,1,0,0:0:0:0:
122,164,43230,5,8,0:0:0:0:
156,167,43292,1,0,0:0:0:0:
186,184,43355,1,0,0:0:0:0:
204,213,43417,1,0,0:0:0:0:
204,248,43480,1,8,0:0:0:0:
185,277,43542,1,0,0:0:0:0:
156,297,43605,1,0,0:0:0:0:
124,310,43667,1,0,0:0:0:0:
89,316,43730,2,0,L|34:320,1,50,8|0,0:0|0:0,0:0:0:0:
140,360,43855,2,0,L|195:364,1,50,8|0,0:0|0:0,0:0:0:0:
100,363,43980,1,8,0:0:0:0:
480,344,44230,5,8,0:0:0:0:
456,340,44355,1,0,0:0:0:0:
432,336,44480,1,0,0:0:0:0:
408,332,44605,1,0,0:0:0:0:
384,328,44730,1,10,0:0:0:0:
361,323,44855,2,0,L|377:265,1,50
336,320,44980,1,0,0:0:0:0:
312,316,45105,1,0,0:0:0:0:
120,261,45230,5,8,0:0:0:0:
149,256,45355,1,0,0:0:0:0:
178,251,45480,1,0,0:0:0:0:
207,246,45605,1,0,0:0:0:0:
236,242,45730,1,10,0:0:0:0:
264,237,45855,2,0,L|248:176,1,50
293,232,45980,1,0,0:0:0:0:
322,227,46105,1,0,0:0:0:0:
509,157,46230,5,8,0:0:0:0:
475,152,46355,1,0,0:0:0:0:
443,146,46480,1,0,0:0:0:0:
410,141,46605,1,0,0:0:0:0:
377,135,46730,1,10,0:0:0:0:
344,129,46855,2,0,L|362:54,1,50
310,124,46980,1,0,0:0:0:0:
278,118,47105,1,0,0:0:0:0:
83,75,47230,5,8,0:0:0:0:
122,67,47355,1,0,0:0:0:0:
162,61,47480,1,0,0:0:0:0:
202,56,47605,1,0,0:0:0:0:
240,48,47730,1,10,0:0:0:0:
280,42,47855,2,0,L|268:-11,1,50
319,35,47980,1,0,0:0:0:0:
359,29,48105,2,0,L|371:90,1,50
398,20,48230,6,0,B|476:54|476:54|478:200,1,200,12|0,0:0|0:0,0:0:0:0:
372,152,48605,1,8,0:0:0:0:
372,152,48667,1,0,0:0:0:0:
372,152,48730,2,0,P|319:154|260:148,1,100
140,237,48980,2,0,P|189:232|239:234,1,100,8|0,0:0|0:0,0:0:0:0:
383,312,49230,5,4,2:0:0:0:
383,312,50230,6,0,P|305:340|187:300,1,200,4|10,0:0|0:0,0:0:0:0:
102,197,50605,1,0,0:0:0:0:
270,175,50730,2,0,P|318:164|382:178,1,100,0|2,0:0|0:0,0:0:0:0:
172,131,50980,2,0,P|129:117|76:122,1,100,8|2,0:0|0:0,0:0:0:0:
102,197,51167,1,0,0:0:0:0:
102,197,51230,6,0,P|164:253|320:256,1,200,0|10,0:0|0:0,0:0:0:0:
392,192,51605,1,0,0:0:0:0:
306,91,51730,1,0,0:0:0:0:
208,176,51855,1,2,0:0:0:0:
208,176,51917,1,0,0:0:0:0:
208,176,51980,2,0,P|220:228|192:288,1,100,8|2,0:0|0:0,0:0:0:0:
116,116,52230,6,0,P|200:80|344:108,1,200,0|10,0:0|0:0,0:0:0:0:
440,136,52605,1,0,0:0:0:0:
332,228,52730,1,0,0:0:0:0:
404,24,52855,1,2,0:0:0:0:
404,24,52917,1,0,0:0:0:0:
404,24,52980,2,0,P|460:19|508:40,1,100,8|2,0:0|0:0,0:0:0:0:
483,214,53230,6,0,L|466:337,1,100,2|0,0:0|0:0,0:0:0:0:
348,129,53480,2,0,L|332:228,1,100,8|0,0:0|0:0,0:0:0:0:
310,347,53730,1,2,0:0:0:0:
108,346,53855,1,0,0:0:0:0:
108,346,53917,1,0,0:0:0:0:
108,346,53980,2,0,P|160:338|240:350,1,100,8|0,0:0|0:0,0:0:0:0:
134,223,54230,6,0,P|48:172|68:56,1,200,4|10,0:0|0:0,0:0:0:0:
209,216,54605,1,0,0:0:0:0:
209,216,54667,1,0,0:0:0:0:
209,216,54730,2,0,P|233:264|225:320,1,100,0|2,0:0|0:0,0:0:0:0:
281,202,54980,2,0,P|305:154|297:98,1,100,8|2,0:0|0:0,0:0:0:0:
376,107,55167,1,0,0:0:0:0:
376,107,55230,6,0,P|378:183|300:290,1,200,0|8,0:0|0:0,0:0:0:0:
229,118,55605,1,0,0:0:0:0:
229,118,55667,1,0,0:0:0:0:
229,118,55730,2,0,L|206:230,1,100
426,213,55980,2,0,L|449:101,1,100,8|0,0:0|0:0,0:0:0:0:
448,85,56167,1,0,0:0:0:0:
438,55,56230,6,0,L|384:31,3,50
322,85,56480,2,0,L|267:83,3,50,8|0|0|0,0:0|0:0|0:0|0:0,0:0:0:0:
247,165,56730,2,0,L|236:226,3,50
346,211,56980,1,8,0:0:0:0:
346,211,57042,1,0,0:0:0:0:
346,211,57105,1,0,0:0:0:0:
346,211,57167,1,0,0:0:0:0:
346,211,57230,6,0,L|366:278,3,50,4|0|0|0,0:0|0:0|0:0|0:0,0:0:0:0:
285,274,57480,2,0,L|305:332,3,50,8|0|0|0,0:0|0:0|0:0|0:0,0:0:0:0:
213,315,57730,1,0,0:0:0:0:
213,315,57792,1,0,0:0:0:0:
213,315,57855,1,0,0:0:0:0:
213,315,57917,1,0,0:0:0:0:
213,315,57980,2,0,B|232:365|232:365|188:387,1,100,12|8,0:0|0:0,0:0:0:0:
49,351,58230,5,12,0:0:0:0:
82,342,58292,1,0,0:0:0:0:
110,321,58355,1,0,0:0:0:0:
120,287,58417,1,0,0:0:0:0:
117,251,58480,1,8,0:0:0:0:
92,226,58542,1,0,0:0:0:0:
58,216,58605,1,0,0:0:0:0:
24,223,58667,1,0,0:0:0:0:
0,243,58730,2,0,P|-3:293|25:338,1,100,8|0,0:0|0:0,0:0:0:0:
49,351,58917,1,0,0:0:0:0:
87,342,58980,2,0,P|133:324|187:340,1,100,8|0,0:0|0:0,0:0:0:0:
212,246,59230,5,8,0:0:0:0:
203,228,59292,1,0,0:0:0:0:
191,211,59355,1,0,0:0:0:0:
178,195,59417,1,0,0:0:0:0:
152,181,59480,1,8,0:0:0:0:
136,169,59542,1,0,0:0:0:0:
119,157,59605,1,0,0:0:0:0:
101,147,59667,1,0,0:0:0:0:
89,130,59730,5,8,0:0:0:0:
83,111,59792,1,0,0:0:0:0:
84,93,59855,2,0,L|131:78,1,50
243,64,59980,1,8,0:0:0:0:
249,83,60042,1,0,0:0:0:0:
248,101,60105,2,0,L|201:116,1,50
178,195,60230,5,8,0:0:0:0:
211,187,60292,1,0,0:0:0:0:
246,188,60355,1,0,0:0:0:0:
278,199,60417,1,0,0:0:0:0:
302,223,60480,1,8,0:0:0:0:
317,253,60542,1,0,0:0:0:0:
319,288,60605,1,0,0:0:0:0:
310,321,60667,1,0,0:0:0:0:
284,345,60730,6,0,L|237:359,3,50,8|0|0|0,0:0|0:0|0:0|0:0,0:0:0:0:
164,307,60980,2,0,L|213:293,3,50,8|0|0|0,0:0|0:0|0:0|0:0,0:0:0:0:
101,326,61230,5,8,0:0:0:0:
66,327,61292,1,0,0:0:0:0:
31,318,61355,1,0,0:0:0:0:
15,287,61417,1,0,0:0:0:0:
11,251,61480,1,8,0:0:0:0:
38,229,61542,1,0,0:0:0:0:
72,224,61605,1,0,0:0:0:0:
104,212,61667,1,0,0:0:0:0:
124,183,61730,5,8,0:0:0:0:
131,149,61792,1,0,0:0:0:0:
132,113,61855,1,0,0:0:0:0:
121,80,61917,1,0,0:0:0:0:
106,47,61980,1,8,0:0:0:0:
120,43,62042,1,0,0:0:0:0:
135,41,62105,1,0,0:0:0:0:
149,43,62167,1,0,0:0:0:0:
163,46,62230,6,0,L|223:58,3,50,8|0|0|0,0:0|0:0|0:0|0:0,0:0:0:0:
232,123,62480,2,0,L|292:111,3,50,8|0|0|0,0:0|0:0|0:0|0:0,0:0:0:0:
257,49,62730,2,0,P|305:47|380:66,1,100,8|0,0:0|0:0,0:0:0:0:
387,71,62917,1,0,0:0:0:0:
419,84,62980,2,0,P|465:123|470:186,1,100,8|0,0:0|0:0,0:0:0:0:
472,194,63167,5,0,0:0:0:0:
465,228,63230,1,8,0:0:0:0:
445,256,63292,1,0,0:0:0:0:
414,273,63355,1,0,0:0:0:0:
380,282,63417,1,0,0:0:0:0:
344,281,63480,1,8,0:0:0:0:
309,274,63542,1,0,0:0:0:0:
282,250,63605,1,0,0:0:0:0:
271,217,63667,1,0,0:0:0:0:
279,182,63730,5,8,0:0:0:0:
308,163,63792,1,0,0:0:0:0:
343,159,63855,1,0,0:0:0:0:
374,174,63917,1,0,0:0:0:0:
390,205,63980,1,8,0:0:0:0:
390,239,64042,1,0,0:0:0:0:
385,274,64105,1,0,0:0:0:0:
367,303,64167,1,0,0:0:0:0:
338,324,64230,6,0,P|293:347|228:345,1,100,8|0,0:0|0:0,0:0:0:0:
113,195,64480,2,0,P|158:172|223:174,1,100,8|0,0:0|0:0,0:0:0:0:
367,275,64730,1,8,0:0:0:0:
172,303,64855,1,8,0:0:0:0:
144,108,64980,1,8,0:0:0:0:
339,80,65105,1,8,0:0:0:0:
304,264,65230,6,2,P|180:224|144:108,1,262.500010013581,4|0,0:0|0:0,0:0:0:0:
226,46,65730,6,2,B|250:84|244:118|244:118|294:84|360:84|422:124,1,262.500010013581,4|0,0:0|0:0,0:0:0:0:
402,222,66230,6,0,L|338:310,1,100,12|0,0:0|0:0,0:0:0:0:
184,324,66480,2,0,L|124:324,2,50,2|0|0,0:0|0:0|0:0,0:0:0:0:
304,164,66730,2,0,L|224:236,1,100,8|0,0:0|0:0,0:0:0:0:
72,200,66980,2,0,L|16:176,2,50,2|0|0,0:0|0:0|0:0,0:0:0:0:
220,64,67230,6,0,B|240:76|240:76|316:76,1,100,8|0,0:0|0:0,0:0:0:0:
396,192,67480,2,2,P|393:244|396:292,1,100,2|0,0:0|0:0,0:0:0:0:
292,212,67730,2,2,P|288:264|288:316,1,100,2|0,0:0|0:0,0:0:0:0:
175,224,67980,2,2,P|176:274|184:324,1,100,2|0,0:0|0:0,0:0:0:0:
124,88,68230,6,0,P|180:72|220:64,1,100,8|0,0:0|0:0,0:0:0:0:
348,92,68480,1,2,0:0:0:0:
348,92,68542,1,0,0:0:0:0:
348,92,68605,1,0,0:0:0:0:
192,216,68730,2,0,P|232:212|292:212,1,100,8|0,0:0|0:0,0:0:0:0:
396,292,68980,1,2,0:0:0:0:
396,292,69042,1,0,0:0:0:0:
396,292,69105,1,0,0:0:0:0:
184,324,69230,5,8,0:0:0:0:
150,314,69292,1,0,0:0:0:0:
120,296,69355,1,8,0:0:0:0:
94,272,69417,1,0,0:0:0:0:
74,244,69480,5,2,0:0:0:0:
62,212,69542,1,0,0:0:0:0:
58,176,69605,1,0,0:0:0:0:
62,142,69667,1,0,0:0:0:0:
78,110,69730,5,2,0:0:0:0:
104,86,69792,1,0,0:0:0:0:
136,70,69855,1,0,0:0:0:0:
170,62,69917,1,0,0:0:0:0:
206,62,69980,5,2,0:0:0:0:
240,68,70042,1,0,0:0:0:0:
272,84,70105,1,0,0:0:0:0:
292,112,70167,1,0,0:0:0:0:
302,146,70230,6,0,P|296:190|296:246,1,100,8|0,0:0|0:0,0:0:0:0:
396,292,70480,2,0,L|450:292,2,50,2|0|0,0:0|0:0|0:0,0:0:0:0:
222,300,70730,2,0,P|216:234|208:200,1,100,8|0,0:0|0:0,0:0:0:0:
124,88,70980,2,0,L|68:76,2,50,2|0|0,0:0|0:0|0:0,0:0:0:0:
302,146,71230,5,8,0:0:0:0:
396,292,71355,1,0,0:0:0:0:
222,300,71480,2,2,L|166:304,2,50,2|0|0,0:0|0:0|0:0,0:0:0:0:
396,292,71730,1,2,0:0:0:0:
307,246,71855,1,0,0:0:0:0:
302,146,71980,2,2,L|326:92,2,50,2|0|0,0:0|0:0|0:0,0:0:0:0:
217,200,72230,5,8,0:0:0:0:
217,200,72292,1,0,0:0:0:0:
217,200,72355,1,0,0:0:0:0:
217,200,72417,1,0,0:0:0:0:
217,200,72480,2,0,L|220:252,3,50,0|0|0|0,0:0|0:0|0:0|0:0,0:0:0:0:
307,246,72730,5,8,0:0:0:0:
307,246,72792,1,0,0:0:0:0:
307,246,72855,1,0,0:0:0:0:
307,246,72917,1,0,0:0:0:0:
307,246,72980,2,0,L|304:298,3,50,0|0|0|0,0:0|0:0|0:0|0:0,0:0:0:0:
396,292,73230,6,2,P|460:217|472:120,1,200,8|0,0:0|3:0,0:0:0:0:
450,94,73542,1,0,3:0:0:0:
420,76,73605,1,0,3:0:0:0:
386,70,73667,1,0,3:0:0:0:
352,76,73730,5,8,0:0:0:0:
340,90,73792,1,0,0:0:0:0:
328,104,73855,1,0,0:0:0:0:
316,119,73917,1,0,0:0:0:0:
304,133,73980,1,0,0:0:0:0:
292,148,74042,1,0,0:0:0:0:
280,162,74105,1,0,0:0:0:0:
268,177,74167,1,0,0:0:0:0:
256,191,74230,5,2,2:0:0:0:
250,200,74480,1,2,2:0:0:0:
248,210,74730,1,2,2:0:0:0:
250,220,74980,1,2,2:0:0:0:
256,228,75230,6,0,L|320:304,1,100,12|0,0:0|0:0,0:0:0:0:
374,220,75480,2,0,L|310:144,1,100,8|0,0:0|0:0,0:0:0:0:
122,214,75730,2,0,L|186:290,1,100,8|0,0:0|0:0,0:0:0:0:
464,180,75980,2,0,L|400:104,1,100,8|0,0:0|0:0,0:0:0:0:
256,60,76230,6,0,P|234:102|216:156,1,100,12|0,0:0|0:0,0:0:0:0:
96,150,76480,1,2,0:0:0:0:
108,182,76542,1,0,0:0:0:0:
122,214,76605,1,0,0:0:0:0:
62,318,76730,2,0,P|111:326|161:328,1,100,8|0,0:0|0:0,0:0:0:0:
122,214,76980,1,2,0:0:0:0:
156,212,77042,1,0,0:0:0:0:
192,212,77105,1,0,0:0:0:0:
320,304,77230,5,8,0:0:0:0:
354,294,77292,1,0,0:0:0:0:
378,268,77355,1,8,0:0:0:0:
390,236,77417,1,0,0:0:0:0:
388,200,77480,5,2,0:0:0:0:
376,168,77542,1,0,0:0:0:0:
350,144,77605,1,0,0:0:0:0:
318,132,77667,1,0,0:0:0:0:
282,130,77730,5,2,0:0:0:0:
252,146,77792,1,0,0:0:0:0:
230,174,77855,1,0,0:0:0:0:
220,208,77917,1,0,0:0:0:0:
210,242,77980,5,2,0:0:0:0:
188,268,78042,1,0,0:0:0:0:
152,270,78105,1,0,0:0:0:0:
126,248,78167,1,0,0:0:0:0:
122,214,78230,6,0,P|120:160|104:112,1,100,8|0,0:0|0:0,0:0:0:0:
24,206,78480,1,2,0:0:0:0:
26,240,78542,1,0,0:0:0:0:
40,272,78605,1,0,0:0:0:0:
160,364,78730,2,0,P|172:312|196:252,1,100,8|0,0:0|0:0,0:0:0:0:
300,224,78980,1,2,0:0:0:0:
320,196,79042,1,0,0:0:0:0:
330,162,79105,1,0,0:0:0:0:
432,98,79230,6,0,P|440:144|440:198,1,100,8|0,0:0|0:0,0:0:0:0:
390,306,79480,2,2,L|428:342,2,50,2|0|0,0:0|0:0|0:0,0:0:0:0:
300,224,79730,2,2,P|284:172|276:124,1,100,2|0,0:0|0:0,0:0:0:0:
180,56,79980,2,2,L|142:16,2,50,2|0|0,0:0|0:0|0:0,0:0:0:0:
158,176,80230,5,8,0:0:0:0:
300,224,80355,2,0,P|356:228|400:228,1,100,0|0,0:0|0:0,0:0:0:0:
270,77,80605,1,8,0:0:0:0:
196,262,80730,2,0,P|246:270|296:266,1,100,0|0,0:0|0:0,0:0:0:0:
402,146,80980,1,8,0:0:0:0:
180,56,81105,1,0,0:0:0:0:
94,280,81230,6,2,P|190:318|294:312,1,200,8|0,0:0|0:0,0:0:0:0:
320,306,81542,1,0,0:0:0:0:
352,292,81605,1,0,0:0:0:0:
380,272,81667,1,0,0:0:0:0:
404,246,81730,2,2,P|406:196|402:146,1,100,8|0,0:0|0:0,0:0:0:0:
180,56,81980,1,0,0:0:0:0:
158,82,82042,1,0,0:0:0:0:
136,108,82105,1,0,0:0:0:0:
114,134,82167,1,0,0:0:0:0:
92,160,82230,5,8,0:0:0:0:
94,280,82355,1,8,0:0:0:0:
210,310,82480,1,8,0:0:0:0:
292,150,82605,2,0,P|288:204|280:250,1,100,2|0,0:0|0:0,0:0:0:0:
400,114,82855,2,0,P|412:164|416:218,1,100,2|0,0:0|0:0,0:0:0:0:
296,52,83105,1,2,0:0:0:0:
180,56,83230,6,2,L|116:64,2,50,2|0|0,0:0|0:0|0:0,0:0:0:0:
92,160,83480,2,2,L|34:189,2,50,2|0|0,0:0|0:0|0:0,0:0:0:0:
94,280,83730,2,2,L|50:327,2,50,2|0|0,0:0|0:0|0:0,0:0:0:0:
210,310,83980,2,2,L|185:370,2,50,2|0|0,0:0|0:0|0:0,0:0:0:0:
340,289,84230,5,8,0:0:0:0:
406,188,84355,1,8,0:0:0:0:
292,150,84480,1,8,0:0:0:0:
260,328,84605,2,0,P|200:335|156:336,1,100,2|0,0:0|0:0,0:0:0:0:
302,224,84855,2,0,P|252:225|202:232,1,100,2|0,0:0|0:0,0:0:0:0:
72,310,85105,1,2,0:0:0:0:
92,160,85230,6,2,L|76:112,2,50,2|0|0,0:0|0:0|0:0,0:0:0:0:
186,144,85480,2,2,L|187:93,2,50,2|0|0,0:0|0:0|0:0,0:0:0:0:
292,150,85730,2,2,L|310:102,2,50,2|0|0,0:0|0:0|0:0,0:0:0:0:
406,187,85980,2,2,L|439:150,2,50,2|0|0,0:0|0:0|0:0,0:0:0:0:
340,289,86230,5,8,0:0:0:0:
228,330,86355,1,8,0:0:0:0:
140,247,86480,1,8,0:0:0:0:
292,150,86605,2,0,P|268:100|236:52,1,100,2|0,0:0|0:0,0:0:0:0:
92,160,86855,2,0,P|116:210|148:258,1,100,2|0,0:0|0:0,0:0:0:0:
302,224,87105,1,2,0:0:0:0:
390,64,87230,6,2,L|444:108,2,50,2|0|0,0:0|0:0|0:0,0:0:0:0:
376,182,87480,2,2,L|416:240,2,50,2|0|0,0:0|0:0|0:0,0:0:0:0:
328,288,87730,1,2,0:0:0:0:
302,310,87792,1,0,0:0:0:0:
270,324,87855,1,0,0:0:0:0:
236,332,87917,1,0,0:0:0:0:
200,334,87980,1,2,0:0:0:0:
166,328,88042,1,0,0:0:0:0:
134,314,88105,1,0,0:0:0:0:
106,294,88167,1,0,0:0:0:0:
86,264,88230,6,0,L|54:220,5,50,8|0|0|0|0|0,0:0|0:0|0:0|0:0|0:0|0:0,0:0:0:0:
108,168,88605,6,0,L|96:112,5,50,8|0|0|0|0|0,0:0|0:0|0:0|0:0|0:0|0:0,0:0:0:0:
172,104,88980,6,0,L|174:52,5,50,8|0|0|0|0|0,0:0|0:0|0:0|0:0|0:0|0:0,0:0:0:0:
268,76,89355,6,0,L|278:24,5,50,8|0|0|0|0|0,0:0|0:0|0:0|0:0|0:0|0:0,0:0:0:0:
346,136,89730,5,8,0:0:0:0:
340,160,89792,1,0,0:0:0:0:
335,184,89855,1,0,0:0:0:0:
330,209,89917,1,0,0:0:0:0:
309,229,89980,5,8,0:0:0:0:
304,253,90042,1,0,0:0:0:0:
299,278,90105,1,0,0:0:0:0:
294,302,90167,1,0,0:0:0:0:
272,322,90230,6,0,L|152:312,1,119.999996337891,8|8,0:0|0:0,0:0:0:0:
72,222,90480,2,0,L|32:186,1,50,8|0,0:0|0:0,0:0:0:0:
84,224,90605,2,0,L|72:116,1,100,2|0,0:0|0:0,0:0:0:0:
180,182,90855,2,0,L|180:80,1,100,2|0,0:0|0:0,0:0:0:0:
282,192,91105,2,0,L|300:136,1,50,2|0,0:0|0:0,0:0:0:0:
340,76,91230,6,2,L|384:48,2,50,2|0|0,0:0|0:0|0:0,0:0:0:0:
408,150,91480,2,2,L|458:138,2,50,2|0|0,0:0|0:0|0:0,0:0:0:0:
394,250,91730,2,2,L|445:256,2,50,2|0|0,0:0|0:0|0:0,0:0:0:0:
328,326,91980,2,2,L|374:350,2,50,2|0|0,0:0|0:0|0:0,0:0:0:0:
282,192,92230,6,0,L|242:78,1,119.999996337891,8|8,0:0|0:0,0:0:0:0:
180,182,92480,2,0,L|152:228,1,50,8|0,0:0|0:0,0:0:0:0:
196,182,92605,2,0,L|96:190,1,100,2|0,0:0|0:0,0:0:0:0:
242,78,92855,2,0,L|138:78,1,100,2|0,0:0|0:0,0:0:0:0:
282,192,93105,2,0,L|300:136,1,50,2|0,0:0|0:0,0:0:0:0:
340,76,93230,6,2,L|384:48,2,50,2|0|0,0:0|0:0|0:0,0:0:0:0:
270,200,93480,1,2,0:0:0:0:
258,208,93542,1,0,0:0:0:0:
246,216,93605,1,0,0:0:0:0:
364,182,93730,2,2,L|414:170,2,50,2|0|0,0:0|0:0|0:0,0:0:0:0:
196,182,93980,1,2,0:0:0:0:
180,182,94042,1,0,0:0:0:0:
164,182,94105,1,0,0:0:0:0:
142,300,94230,6,0,L|256:352,1,119.999996337891,8|8,0:0|0:0,0:0:0:0:
352,284,94480,2,0,L|408:264,1,50,8|0,0:0|0:0,0:0:0:0:
340,280,94605,2,0,L|364:182,1,100,2|0,0:0|0:0,0:0:0:0:
242,78,94855,2,0,L|218:176,1,100,2|0,0:0|0:0,0:0:0:0:
252,350,95105,2,0,L|200:368,1,50,2|0,0:0|0:0,0:0:0:0:
142,300,95230,6,2,L|94:288,2,50,2|0|0,0:0|0:0|0:0,0:0:0:0:
164,182,95480,2,2,L|104:150,2,50,2|0|0,0:0|0:0|0:0,0:0:0:0:
258,106,95730,2,2,L|214:66,2,50,2|0|0,0:0|0:0|0:0,0:0:0:0:
296,220,95980,2,2,L|448:220,1,150,2|0,0:0|0:0,0:0:0:0:
450,160,96230,6,0,L|368:64,1,119.999996337891,8|8,0:0|0:0,0:0:0:0:
258,106,96480,1,8,0:0:0:0:
110,240,96605,2,2,L|254:288,1,150,2|0,0:0|0:0,0:0:0:0:
292,282,96855,2,0,L|352:276,1,50
164,182,96980,2,2,L|316:198,1,150,2|0,0:0|0:0,0:0:0:0:
348,182,97230,2,0,L|392:152,1,50
318,56,97355,2,2,P|218:38|208:166,1,250,2|0,0:0|0:0,0:0:0:0:
258,106,97730,2,2,L|140:212,1,150,2|0,0:0|0:0,0:0:0:0:
110,240,97980,2,0,L|98:304,2,50
292,282,98230,6,0,L|396:272,1,100,2|0,0:0|0:0,0:0:0:0:
220,282,98480,2,0,L|116:272,1,100,2|0,0:0|0:0,0:0:0:0:
348,182,98730,2,0,L|447:150,1,100,2|0,0:0|0:0,0:0:0:0:
164,182,98980,2,0,L|64:150,1,100,2|0,0:0|0:0,0:0:0:0:
376,78,99230,2,0,L|468:29,1,100,2|0,0:0|0:0,0:0:0:0:
136,78,99480,2,0,L|43:29,1,100,2|0,0:0|0:0,0:0:0:0:
256,56,99730,5,8,0:0:0:0:
256,81,99792,1,0,0:0:0:0:
256,106,99855,1,0,0:0:0:0:
256,131,99917,1,0,0:0:0:0:
256,156,99980,1,0,0:0:0:0:
256,181,100042,1,0,0:0:0:0:
256,206,100105,1,0,0:0:0:0:
256,231,100167,1,0,0:0:0:0:
256,256,100230,6,0,L|256:328,1,69.9999978637696,8|8,0:0|0:0,0:0:0:0:
348,182,100480,2,0,P|362:212|372:249,1,69.9999978637696,2|0,0:0|0:0,0:0:0:0:
376,78,100730,1,2,0:0:0:0:
174,170,100855,1,0,0:0:0:0:
174,170,100917,1,0,0:0:0:0:
174,170,100980,2,0,L|104:176,1,69.9999978637696,2|2,0:0|0:0,0:0:0:0:
136,78,101230,6,0,L|52:72,1,80,8|8,0:0|0:0,0:0:0:0:
104,176,101480,2,0,P|120:212|132:250,1,80,2|0,0:0|0:0,0:0:0:0:
256,256,101730,1,2,0:0:0:0:
104,176,101855,1,0,0:0:0:0:
110,348,101980,1,2,0:0:0:0:
256,256,102105,1,2,0:0:0:0:
372,268,102230,6,0,L|348:182,1,89.9999972534181,8|8,0:0|0:0,0:0:0:0:
240,344,102480,2,0,P|244:300|256:256,1,89.9999972534181,2|0,0:0|0:0,0:0:0:0:
110,348,102730,1,2,0:0:0:0:
104,176,102855,1,0,0:0:0:0:
250,84,102980,1,2,0:0:0:0:
250,84,103042,1,0,0:0:0:0:
250,84,103105,1,2,0:0:0:0:
250,84,103167,1,0,0:0:0:0:
250,84,103230,6,0,L|254:196,1,100,8|8,0:0|0:0,0:0:0:0:
376,78,103480,1,2,0:0:0:0:
376,78,103542,1,0,0:0:0:0:
376,78,103605,1,0,0:0:0:0:
342,172,103730,1,2,0:0:0:0:
342,172,103792,1,0,0:0:0:0:
342,172,103855,1,0,0:0:0:0:
372,268,103980,2,0,P|330:300|286:324,1,100,2|2,0:0|0:0,0:0:0:0:
200,152,104230,6,0,P|132:164|104:176,1,100,8|0,0:0|0:0,0:0:0:0:
116,306,104480,2,0,P|184:294|212:282,1,100,2|0,0:0|0:0,0:0:0:0:
256,256,104667,1,0,0:0:0:0:
299,281,104730,2,0,P|346:299|396:306,1,100,2|0,0:0|0:0,0:0:0:0:
408,176,104980,2,0,P|361:158|312:152,1,100,2|0,0:0|0:0,0:0:0:0:
200,152,105230,6,0,L|172:196,3,50,8|0|0|0,0:0|0:0|0:0|0:0,0:0:0:0:
96,260,105480,2,0,L|116:306,3,50,4|0|0|0,0:0|0:0|0:0|0:0,0:0:0:0:
212,281,105730,1,2,0:0:0:0:
258,302,105792,1,0,0:0:0:0:
308,300,105855,1,8,0:0:0:0:
356,288,105917,1,0,0:0:0:0:
388,248,105980,6,0,L|408:176,1,75,4|0,0:2|0:0,0:0:0:0:
360,204,106230,6,0,L|344:80,1,110.000003356934,8|0,0:0|0:0,0:0:0:0:
226,36,106480,2,0,P|184:72|146:120,1,110.000003356934,2|0,0:0|0:0,0:0:0:0:
96,260,106730,1,8,0:0:0:0:
200,228,106855,1,0,0:0:0:0:
122,152,106980,1,2,0:0:0:0:
106,336,107105,1,2,0:0:0:0:
156,340,107167,1,0,0:0:0:0:
208,340,107230,6,0,P|262:322|318:316,1,110.000003356934,8|0,0:0|0:0,0:0:0:0:
306,204,107480,2,0,P|252:222|196:228,1,110.000003356934,2|0,0:0|0:0,0:0:0:0:
388,288,107730,1,8,0:0:0:0:
418,148,107855,1,0,0:0:0:0:
276,64,107980,1,2,0:0:0:0:
306,204,108105,1,8,0:0:0:0:
96,260,108230,6,0,L|88:150,1,110.000003356934,8|0,0:0|0:0,0:0:0:0:
276,64,108480,2,0,L|284:174,1,110.000003356934,2|0,0:0|0:0,0:0:0:0:
208,340,108730,1,8,0:0:0:0:
142,238,108854,1,0,0:0:0:0:
189,217,108917,1,0,0:0:0:0:
236,195,108979,1,8,0:0:0:0:
334,302,109105,1,8,0:0:0:0:
440,196,109230,6,0,P|440:134|428:82,1,110.000003356934,8|0,0:0|0:0,0:0:0:0:
290,28,109480,2,0,P|230:42|184:60,1,110.000003356934,2|0,0:0|0:0,0:0:0:0:
88,150,109730,1,8,0:0:0:0:
189,217,109855,1,2,0:0:0:0:
189,217,109917,1,0,0:0:0:0:
189,217,109980,2,0,P|194:280|206:328,1,110.000003356934,8|8,0:0|0:0,0:0:0:0:
402,256,110230,6,0,P|414:202|417:147,1,110.000003356934,8|0,0:0|0:0,0:0:0:0:
290,28,110480,2,0,P|276:92|258:144,1,110.000003356934,2|0,0:0|0:0,0:0:0:0:
142,238,110730,1,8,0:0:0:0:
324,286,110855,1,0,0:0:0:0:
261,134,110980,1,2,0:0:0:0:
218,304,111105,1,2,0:0:0:0:
174,280,111167,1,0,0:0:0:0:
142,238,111230,6,0,P|122:178|88:150,1,110.000003356934,8|0,0:0|0:0,0:0:0:0:
60,326,111480,2,0,P|108:352|172:354,1,110.000003356934,2|0,0:0|0:0,0:0:0:0:
324,286,111730,2,0,P|350:238|352:174,1,110.000003356934,8|0,0:0|0:0,0:0:0:0:
172,136,111980,2,0,P|146:184|144:248,1,110.000003356934,2|8,0:0|0:0,0:0:0:0:
324,286,112230,6,0,L|380:304,3,55.0000016784668,8|0|0|0,0:0|0:0|0:0|0:0,0:0:0:0:
371,200,112480,2,0,L|421:169,3,55.0000016784668,2|0|0|0,0:0|0:0|0:0|0:0,0:0:0:0:
336,108,112730,2,0,L|344:50,3,55.0000016784668,8|0|0|0,0:0|0:0|0:0|0:0,0:0:0:0:
244,76,112980,2,0,L|204:33,3,55.0000016784668,8|0|0|0,0:0|0:0|0:0|0:0,0:0:0:0:
172,136,113230,5,8,0:0:0:0:
172,136,113292,1,0,0:0:0:0:
172,136,113355,1,0,0:0:0:0:
172,136,113417,1,0,0:0:0:0:
172,136,113480,2,0,L|172:192,3,55.0000016784668,2|0|0|0,0:0|0:0|0:0|0:0,0:0:0:0:
244,296,113730,5,4,0:0:0:0:
272,272,113792,1,0,0:0:0:0:
292,238,113855,1,0,0:0:0:0:
300,200,113917,1,0,0:0:0:0:
298,162,113980,1,2,0:0:0:0:
208,36,114105,1,2,0:0:0:0:
86,192,114230,6,0,P|80:248|90:306,1,110.000003356934,8|0,0:0|0:0,0:0:0:0:
138,324,114417,1,0,0:0:0:0:
138,324,114480,2,0,P|192:303|244:295,1,110.000003356934,2|0,0:0|0:0,0:0:0:0:
356,322,114730,5,8,0:0:0:0:
376,332,114792,1,0,0:0:0:0:
396,340,114855,2,0,L|456:352,1,55.0000016784668
452,272,114980,2,0,L|512:256,1,55.0000016784668,2|0,0:0|0:0,0:0:0:0:
440,196,115105,2,0,L|484:152,1,55.0000016784668,2|0,0:0|0:0,0:0:0:0:
412,118,115230,6,0,P|368:76|324:56,1,110.000003356934,8|0,0:0|0:0,0:0:0:0:
296,104,115417,1,0,0:0:0:0:
296,104,115480,2,0,P|244:84|186:80,1,110.000003356934,2|0,0:0|0:0,0:0:0:0:
60,152,115730,5,8,0:0:0:0:
68,172,115792,1,0,0:0:0:0:
76,192,115855,2,0,L|84:248,1,55.0000016784668
160,160,115980,2,0,L|168:104,1,55.0000016784668,2|0,0:0|0:0,0:0:0:0:
236,216,116105,2,0,L|244:272,1,55.0000016784668,8|0,0:0|0:0,0:0:0:0:
138,324,116230,6,0,P|200:356|264:352,1,110.000003356934,8|0,0:0|0:0,0:0:0:0:
288,332,116417,1,0,0:0:0:0:
288,332,116480,2,0,L|394:306,1,110.000003356934,2|0,0:0|0:0,0:0:0:0:
492,148,116730,5,8,0:0:0:0:
472,116,116792,1,0,0:0:0:0:
452,84,116855,2,0,L|420:32,1,55.0000016784668
380,144,116980,1,8,0:0:0:0:
355,116,117042,1,0,0:0:0:0:
328,88,117105,2,0,L|288:44,1,55.0000016784668,2|0,0:0|0:0,0:0:0:0:
224,112,117230,6,0,P|163:113|120:148,1,110.000003356934,8|0,0:0|0:0,0:0:0:0:
256,288,117480,2,0,P|272:224|256:176,1,110.000003356934,2|0,0:0|0:0,0:0:0:0:
16,184,117730,2,0,L|64:212,1,55.0000016784668,8|0,0:0|0:0,0:0:0:0:
184,232,117855,2,0,L|128:264,1,55.0000016784668,8|0,0:0|0:0,0:0:0:0:
32,290,117980,1,8,0:0:0:0:
44,308,118042,1,0,0:0:0:0:
60,324,118105,1,0,0:0:0:0:
78,336,118167,1,0,0:0:0:0:
100,342,118230,6,0,P|156:338|204:316,1,110.000003356934,8|0,0:0|0:0,0:0:0:0:
250,348,118417,1,0,0:0:0:0:
250,348,118480,2,0,P|296:308|316:264,1,110.000003356934,2|0,0:0|0:0,0:0:0:0:
136,164,118730,5,8,0:0:0:0:
134,142,118792,1,0,0:0:0:0:
132,120,118855,2,0,L|128:64,1,55.0000016784668
228,128,118980,2,0,L|232:188,1,55.0000016784668,2|0,0:0|0:0,0:0:0:0:
292,64,119105,2,0,L|296:8,1,55.0000016784668,2|0,0:0|0:0,0:0:0:0:
364,102,119230,6,0,P|360:162|344:212,1,110.000003356934,8|0,0:0|0:0,0:0:0:0:
370,258,119417,1,0,0:0:0:0:
370,258,119480,2,0,P|336:300|284:328,1,110.000003356934,2|0,0:0|0:0,0:0:0:0:
100,342,119730,1,8,0:0:0:0:
78,338,119792,1,0,0:0:0:0:
56,336,119855,2,0,L|16:296,1,55.0000016784668
44,200,119980,2,0,L|84:240,1,55.0000016784668,2|0,0:0|0:0,0:0:0:0:
188,344,120105,2,0,L|216:292,1,55.0000016784668,8|0,0:0|0:0,0:0:0:0:
158,200,120230,6,0,P|148:146|152:92,1,110.000003356934,8|0,0:0|0:0,0:0:0:0:
252,136,120480,2,0,P|284:92|328:60,1,110.000003356934,2|0,0:0|0:0,0:0:0:0:
392,150,120730,1,8,0:0:0:0:
370,258,120855,1,2,0:0:0:0:
254,290,120980,1,2,0:0:0:0:
158,200,121105,1,2,0:0:0:0:
328,192,121230,6,2,P|332:320|254:290,1,262.500010013581,4|0,0:0|0:0,0:0:0:0:
158,200,121730,2,2,B|182:128|182:128|252:168|212:88|286:124|286:124|322:108|378:119,1,262.500010013581,4|0,0:0|2:0,0:0:0:0:
435,113,122230,6,0,L|445:183,2,50
342,32,122480,1,8,0:0:0:0:
219,56,122605,1,0,0:0:0:0:
195,64,122667,1,0,0:0:0:0:
170,70,122730,1,0,0:0:0:0:
145,70,122792,1,0,0:0:0:0:
120,65,122855,1,0,0:0:0:0:
96,56,122917,1,0,0:0:0:0:
74,68,122980,1,0,0:0:0:0:
64,90,123042,1,0,0:0:0:0:
60,114,123105,1,0,0:0:0:0:
65,138,123167,1,0,0:0:0:0:
76,159,123230,6,0,L|67:226,1,50
164,199,123355,1,0,0:0:0:0:
164,199,123417,1,0,0:0:0:0:
164,199,123480,2,0,L|169:278,3,50
156,164,123730,1,0,0:0:0:0:
135,143,123792,1,0,0:0:0:0:
106,133,123855,1,0,0:0:0:0:
77,127,123917,1,0,0:0:0:0:
60,114,123980,1,0,0:0:0:0:
60,114,124230,6,0,P|110:102|198:105,1,100,12|0,0:0|0:0,0:0:0:0:
176,296,124480,2,0,P|190:246|237:171,1,100,0|0,0:0|0:0,0:0:0:0:
336,296,124730,2,0,P|321:248|298:203,1,100,8|0,0:0|0:0,0:0:0:0:
452,114,124981,2,0,P|403:102|353:99,1,100
256,46,125230,5,8,0:0:0:0:
136,54,125355,1,0,0:0:0:0:
48,136,125480,1,8,0:0:0:0:
168,128,125605,1,0,0:0:0:0:
266,197,125730,1,8,0:0:0:0:
146,205,125855,1,0,0:0:0:0:
44,268,125980,1,8,0:0:0:0:
52,272,126042,1,0,0:0:0:0:
61,276,126105,1,0,0:0:0:0:
69,281,126167,1,0,0:0:0:0:
77,286,126230,6,0,P|126:305|185:312,1,100,8|0,0:0|0:0,0:0:0:0:
327,247,126480,2,0,P|285:281|227:297,1,100
180,148,126730,2,0,P|219:180|266:197,1,100,8|0,0:0|0:0,0:0:0:0:
414,107,126980,2,0,P|372:141|314:157,1,100
314,38,127230,5,2,0:0:0:0:
117,78,127355,1,0,0:0:0:0:
215,57,127480,1,2,0:0:0:0:
19,101,127605,1,0,0:0:0:0:
57,223,127730,1,0,0:0:0:0:
57,223,127813,2,0,L|85:293,1,66.6666666666667
276,234,127980,1,0,0:0:0:0:
276,234,128063,2,0,L|248:164,1,66.6666666666667
167,240,128230,6,0,P|177:301|210:333,1,100,12|0,0:0|0:0,0:0:0:0:
325,344,128480,1,0,0:0:0:0:
455,331,128605,1,0,0:0:0:0:
443,179,128730,2,0,P|408:214|363:234,1,100,8|0,0:0|0:0,0:0:0:0:
381,88,128980,1,0,0:0:0:0:
374,80,129042,1,0,0:0:0:0:
367,72,129105,1,0,0:0:0:0:
361,64,129167,1,0,0:0:0:0:
350,61,129230,6,0,P|293:42|237:50,1,100,8|0,0:0|0:0,0:0:0:0:
57,152,129480,2,0,P|106:148|152:128,1,100,8|0,0:0|0:0,0:0:0:0:
253,44,129730,2,0,P|275:95|277:148,1,100,8|0,0:0|0:0,0:0:0:0:
249,336,129980,2,0,P|254:287|274:242,1,100,8|0,0:0|0:0,0:0:0:0:
470,166,130230,6,0,L|406:169,3,50,2|0|0|0,0:0|0:0|0:0|0:0,0:0:0:0:
471,206,130480,1,0,0:0:0:0:
471,206,130542,1,0,0:0:0:0:
471,206,130605,1,0,0:0:0:0:
471,206,130667,1,0,0:0:0:0:
471,206,130730,2,0,L|412:208,1,50,2|0,0:0|0:0,0:0:0:0:
474,242,130855,2,0,L|415:244,1,50
477,278,130980,2,0,L|418:280,1,50,2|0,0:0|0:0,0:0:0:0:
480,314,131105,2,0,L|421:316,1,50
404,317,131230,5,2,0:0:0:0:
369,319,131292,1,0,0:0:0:0:
333,315,131355,1,2,0:0:0:0:
299,307,131417,1,0,0:0:0:0:
265,295,131480,1,2,0:0:0:0:
237,273,131542,1,0,0:0:0:0:
208,251,131605,1,2,0:0:0:0:
188,222,131667,1,0,0:0:0:0:
181,187,131730,5,2,0:0:0:0:
188,153,131792,1,0,0:0:0:0:
215,130,131855,1,2,0:0:0:0:
247,116,131917,1,0,0:0:0:0:
282,112,131980,1,2,0:0:0:0:
316,118,132042,1,0,0:0:0:0:
343,140,132105,1,2,0:0:0:0:
360,170,132167,1,0,0:0:0:0:
361,205,132230,6,0,P|315:243|256:243,1,100,12|0,0:0|0:0,0:0:0:0:
57,316,132480,2,0,P|112:329|195:322,1,100
181,187,132730,2,0,P|126:200|43:193,1,100,8|0,0:0|0:0,0:0:0:0:
32,67,132980,2,0,P|87:80|170:73,1,100
281,112,133230,6,0,P|286:161|275:210,1,100,8|0,0:0|0:0,0:0:0:0:
386,263,133480,2,0,P|375:209|391:137,1,100,8|0,0:0|0:0,0:0:0:0:
474,253,133730,2,0,P|479:303|469:352,1,100,8|0,0:0|0:0,0:0:0:0:
345,323,133980,1,8,0:0:0:0:
335,325,134042,1,0,0:0:0:0:
325,327,134105,1,0,0:0:0:0:
315,329,134167,1,0,0:0:0:0:
305,330,134230,6,0,P|256:335|185:334,1,100,8|0,0:0|0:0,0:0:0:0:
56,270,134480,2,0,P|92:308|172:327,1,100,0|0,0:0|0:0,0:0:0:0:
287,252,134730,2,0,P|238:257|167:256,1,100,8|0,0:0|0:0,0:0:0:0:
40,161,134980,2,0,P|76:199|156:218,1,100,0|0,0:0|0:0,0:0:0:0:
138,97,135230,6,0,P|194:85|242:100,1,100,2|0,0:0|0:0,0:0:0:0:
372,134,135480,1,8,0:0:0:0:
372,134,135563,2,0,L|384:223,1,66.6666666666667
456,286,135730,1,8,0:0:0:0:
456,286,135813,2,0,L|468:375,1,66.6666666666667
287,252,135980,1,8,0:0:0:0:
287,252,136063,2,0,L|299:341,1,66.6666666666667
123,369,136230,6,0,P|76:383|16:379,1,100,12|0,0:0|0:0,0:0:0:0:
210,345,136480,2,0,P|196:298|200:238,1,100
4,233,136730,2,0,P|50:219|111:223,1,100,8|0,0:0|0:0,0:0:0:0:
236,139,136980,1,0,0:0:0:0:
241,131,137042,1,0,0:0:0:0:
246,122,137105,1,0,0:0:0:0:
250,113,137167,1,0,0:0:0:0:
254,103,137230,6,0,P|269:55|278:-26,2,100,8|0|8,0:0|0:0|0:0,0:0:0:0:
187,229,137605,1,0,0:0:0:0:
83,231,137730,2,0,P|68:278|59:360,2,100,0|8|8,0:0|0:0|0:0,0:0:0:0:
132,141,138105,1,0,0:0:0:0:
263,43,138230,6,0,P|313:35|381:53,1,100,8|0,0:0|0:0,0:0:0:0:
448,156,138480,1,2,0:0:0:0:
258,260,138605,2,0,P|226:220|207:152,1,100,8|0,0:0|0:0,0:0:0:0:
263,43,138855,1,2,0:0:0:0:
449,155,138980,2,0,P|430:202|381:252,1,100,8|0,0:0|0:0,0:0:0:0:
258,260,139230,2,0,P|223:188|262:116,1,150,8|0,0:0|2:0,0:0:0:0:
277,119,139480,5,8,0:0:0:0:
305,109,139542,1,0,0:0:0:0:
334,113,139605,1,4,0:0:0:0:
363,117,139667,1,0,0:0:0:0:
389,131,139730,2,0,P|424:203|385:275,1,150,8|0,0:0|2:0,0:0:0:0:
370,275,139980,5,8,0:0:0:0:
341,284,140042,1,0,0:0:0:0:
311,291,140105,1,0,0:0:0:0:
282,300,140167,1,0,0:0:0:0:
252,305,140230,5,6,0:0:0:0:
252,305,140292,1,0,0:0:0:0:
252,305,140355,1,0,0:0:0:0:
252,305,140417,1,0,0:0:0:0:
252,305,140480,2,0,L|204:315,3,50,2|0|0|8,0:0|0:0|0:0|0:0,0:0:0:0:
145,255,140730,5,2,0:0:0:0:
145,255,140792,1,0,0:0:0:0:
145,255,140855,1,0,0:0:0:0:
145,255,140917,1,0,0:0:0:0:
145,255,140980,2,0,L|96:261,3,50,2|0|0|8,0:0|0:0|0:0|0:0,0:0:0:0:
50,175,141230,5,2,0:0:0:0:
50,175,141292,1,0,0:0:0:0:
50,175,141355,1,0,0:0:0:0:
50,175,141417,1,0,0:0:0:0:
50,175,141480,2,0,L|99:181,3,50,2|0|0|8,0:0|0:0|0:0|0:0,0:0:0:0:
61,82,141730,5,2,0:0:0:0:
61,82,141792,1,0,0:0:0:0:
61,82,141855,1,0,0:0:0:0:
61,82,141917,1,0,0:0:0:0:
61,82,141980,2,0,L|12:88,3,50,2|0|0|8,0:0|0:0|0:0|0:0,0:0:0:0:
141,37,142230,5,2,0:0:0:0:
141,37,142292,1,0,0:0:0:0:
141,37,142355,2,0,L|201:43,1,50
261,112,142480,1,2,0:0:0:0:
261,112,142542,1,0,0:0:0:0:
261,112,142605,2,0,L|201:106,1,50
296,45,142730,5,2,0:0:0:0:
296,45,142792,1,0,0:0:0:0:
296,45,142855,2,0,L|356:51,1,50
416,120,142980,1,2,0:0:0:0:
416,120,143042,1,0,0:0:0:0:
416,120,143105,2,0,L|356:114,1,50
416,120,143230,6,2,B|441:141|441:141|457:122|457:122|495:151|496:215|444:263,1,200,6|8,0:0|0:0,0:0:0:0:
384,324,143605,1,0,0:0:0:0:
265,283,143730,6,2,B|244:308|244:308|263:324|263:324|234:362|170:363|122:311,1,200,2|8,0:0|0:0,0:0:0:0:
108,206,144105,1,0,0:0:0:0:
36,136,144230,6,0,L|68:16,1,100,2|0,0:0|0:0,0:0:0:0:
104,188,144480,1,8,0:0:0:0:
106,197,144542,1,0,0:0:0:0:
108,206,144605,2,0,L|140:326,1,100,0|0,0:0|0:0,0:0:0:0:
184,144,144855,2,0,L|288:120,1,100,2|10,0:0|0:0,0:0:0:0:
301,118,145042,1,0,0:0:0:0:
320,114,145105,1,2,0:0:0:0:
447,75,145230,5,2,0:0:0:0:
453,184,145355,1,2,0:0:0:0:
388,275,145480,1,10,0:0:0:0:
282,309,145605,1,2,0:0:0:0:
345,132,145730,5,2,0:0:0:0:
296,230,145855,1,2,0:0:0:0:
194,276,145980,1,10,0:0:0:0:
84,253,146105,1,2,0:0:0:0:
133,125,146230,5,8,0:0:0:0:
227,82,146355,1,8,0:0:0:0:
321,114,146480,1,8,0:0:0:0:
364,202,146605,1,8,0:0:0:0:
335,298,146730,1,8,0:0:0:0:
242,346,146855,1,8,0:0:0:0:
147,314,146980,1,8,0:0:0:0:
103,225,147105,1,8,0:0:0:0:
133,125,147230,5,10,0:0:0:0:
321,115,147355,1,10,0:0:0:0:
335,298,147480,1,10,0:0:0:0:
147,314,147605,1,10,0:0:0:0:
238,218,147730,2,2,B|327:141|272:78|272:78|201:116|125:78,1,300,6|0,0:0|0:0,0:0:0:0:
17,186,148230,6,0,P|96:205|175:190,1,150,2|0,0:0|0:0,0:0:0:0:
133,125,148480,2,0,B|185:187|126:234|126:234|28:269,1,200,10|0,0:0|0:0,0:0:0:0:
174,350,148855,1,0,0:0:0:0:
238,218,148980,1,8,0:0:0:0:
238,218,149042,1,0,0:0:0:0:
238,218,149105,2,0,P|278:186|350:186,1,100,2|0,0:0|0:0,0:0:0:0:
346,182,149292,5,0,0:0:0:0:
366,187,149355,2,0,P|418:209|446:253,1,100,2|8,0:0|0:0,0:0:0:0:
335,278,149605,2,0,B|367:328|367:328|331:367,1,100,2|0,0:0|0:0,0:0:0:0:
435,362,149813,2,0,L|516:319,4,66.6666666666667
500,284,150230,5,2,0:0:0:0:
494,259,150292,1,0,0:0:0:0:
493,233,150355,1,0,0:0:0:0:
496,208,150417,1,0,0:0:0:0:
471,214,150480,1,8,0:0:0:0:
446,216,150542,1,0,0:0:0:0:
421,219,150605,1,0,0:0:0:0:
396,218,150667,1,0,0:0:0:0:
371,211,150730,5,2,0:0:0:0:
350,196,150792,1,0,0:0:0:0:
328,182,150855,1,0,0:0:0:0:
310,164,150917,1,0,0:0:0:0:
284,166,150980,1,8,0:0:0:0:
259,171,151042,1,0,0:0:0:0:
234,177,151105,1,0,0:0:0:0:
209,178,151167,1,0,0:0:0:0:
183,180,151230,6,0,L|123:193,3,50,2|0|0|8,0:0|0:0|0:0|0:0,0:0:0:0:
18,144,151480,2,0,L|66:133,3,50,2|0|0|8,0:0|0:0|0:0|0:0,0:0:0:0:
135,43,151730,6,0,L|75:56,3,50,2|0|0|8,0:0|0:0|0:0|0:0,0:0:0:0:
189,103,151980,2,0,L|237:92,3,50,2|0|0|8,0:0|0:0|0:0|0:0,0:0:0:0:
183,180,152230,6,0,P|287:165|393:196,1,200,6|2,0:0|0:0,0:0:0:0:
471,237,152605,1,2,0:0:0:0:
361,264,152730,2,0,L|310:349,1,100,2|2,0:0|0:0,0:0:0:0:
151,264,152980,2,0,L|202:349,1,100,2|2,0:0|0:0,0:0:0:0:
196,146,153230,6,0,L|134:61,1,100,2|2,0:0|0:0,0:0:0:0:
316,146,153480,2,0,L|378:61,1,100,2|2,0:0|0:0,0:0:0:0:
196,146,153730,1,2,0:0:0:0:
316,146,153855,1,2,0:0:0:0:
374,65,153980,1,2,0:0:0:0:
137,65,154105,1,2,0:0:0:0:
256,58,154230,5,10,0:0:0:0:
196,146,154355,1,8,0:0:0:0:
316,146,154480,1,8,0:0:0:0:
256,326,154605,5,10,0:0:0:0:
196,238,154730,1,8,0:0:0:0:
316,238,154855,1,8,0:0:0:0:
256,326,154980,2,0,L|257:210,1,100,2|8,0:0|0:0,0:0:0:0:
256,56,155230,5,6,0:0:0:0:
256,76,155292,1,0,0:0:0:0:
256,96,155355,1,0,0:0:0:0:
256,116,155417,1,0,0:0:0:0:
256,136,155480,1,0,0:0:0:0:
256,156,155542,1,0,0:0:0:0:
256,176,155605,1,0,0:0:0:0:
256,192,155667,1,0,0:0:0:0:
256,208,155730,1,0,0:0:0:0:
256,224,155792,1,0,0:0:0:0:
256,240,155855,1,0,0:0:0:0:
256,256,155917,1,0,0:0:0:0:
256,272,155980,2,0,P|191:334|124:351,1,150,4|0,0:0|0:0,0:0:0:0:
96,356,156230,6,0,L|68:308,3,50,10|0|0|0,0:0|0:0|0:0|0:0,0:0:0:0:
115,225,156480,2,0,L|143:273,3,50,10|0|0|0,0:0|0:0|0:0|0:0,0:0:0:0:
36,188,156730,1,10,0:0:0:0:
31,168,156792,1,0,0:0:0:0:
24,148,156855,1,0,0:0:0:0:
17,129,156917,1,0,0:0:0:0:
36,124,156980,1,10,0:0:0:0:
41,144,157042,1,0,0:0:0:0:
48,164,157105,1,0,0:0:0:0:
55,183,157167,1,0,0:0:0:0:
62,201,157230,6,0,L|81:250,1,50,10|0,0:0|0:0,0:0:0:0:
138,170,157355,2,0,L|117:124,1,50
213,143,157480,2,0,L|235:190,1,50,10|0,0:0|0:0,0:0:0:0:
290,111,157605,2,0,L|268:63,1,50
367,89,157730,2,2,B|387:160|387:160|361:281|361:281|310:168,1,300,10|0,0:0|0:0,0:0:0:0:
206,237,158230,5,8,0:0:0:0:
106,237,158355,1,0,0:0:0:0:
6,237,158480,2,0,L|6:343,1,100
106,337,158730,1,10,0:0:0:0:
206,338,158855,1,0,0:0:0:0:
206,338,158917,1,0,0:0:0:0:
206,338,158980,2,0,L|206:227,1,100
206,47,159230,5,8,0:0:0:0:
106,47,159355,1,0,0:0:0:0:
6,47,159480,2,0,L|6:153,1,100
106,147,159730,1,10,0:0:0:0:
206,148,159855,1,0,0:0:0:0:
206,148,159917,1,0,0:0:0:0:
206,148,159980,2,0,L|206:37,1,100
306,47,160230,5,8,0:0:0:0:
406,47,160355,1,0,0:0:0:0:
506,47,160480,2,0,L|506:153,1,100
406,147,160730,1,10,0:0:0:0:
306,148,160855,1,0,0:0:0:0:
306,148,160917,1,0,0:0:0:0:
306,148,160980,2,0,L|306:37,1,100
306,237,161230,5,8,0:0:0:0:
306,237,161292,1,0,0:0:0:0:
306,237,161355,1,0,0:0:0:0:
306,237,161417,1,0,0:0:0:0:
306,237,161480,2,0,L|306:357,1,100
406,147,161730,1,10,0:0:0:0:
406,147,161792,1,0,0:0:0:0:
406,147,161855,1,0,0:0:0:0:
406,147,161917,1,0,0:0:0:0:
406,147,161980,2,0,L|406:292,1,100
228,289,162230,6,0,P|183:295|119:289,1,100,8|0,0:0|0:0,0:0:0:0:
234,151,162480,2,0,P|279:157|343:151,1,100,8|0,0:0|0:0,0:0:0:0:
208,22,162730,2,0,P|163:28|99:22,1,100,8|0,0:0|0:0,0:0:0:0:
68,141,162980,1,8,0:0:0:0:
147,247,163105,5,0,0:0:0:0:
114,234,163167,1,0,0:0:0:0:
88,209,163230,1,8,0:0:0:0:
75,176,163292,1,0,0:0:0:0:
68,141,163355,1,8,0:0:0:0:
76,107,163417,1,0,0:0:0:0:
104,85,163480,1,8,0:0:0:0:
137,74,163542,1,0,0:0:0:0:
171,79,163605,1,8,0:0:0:0:
197,101,163667,1,0,0:0:0:0:
209,134,163730,2,0,P|216:208|198:269,2,100,8|8|8,0:0|0:0|0:0,0:0:0:0:
374,38,164230,6,0,B|410:30|410:30|422:92|496:127,1,150,2|0,0:0|0:0,0:0:0:0:
501,156,164480,2,0,P|475:176|434:188,1,50,8|0,0:0|0:0,0:0:0:0:
504,206,164605,2,0,P|478:226|437:238,1,50
416,248,164730,2,0,P|390:268|349:280,1,50,8|0,0:0|0:0,0:0:0:0:
419,298,164855,2,0,P|393:318|352:330,1,50
326,324,164980,2,0,P|300:304|259:292,1,50,8|0,0:0|0:0,0:0:0:0:
329,274,165105,2,0,P|303:254|262:242,1,50
258,237,165230,5,8,0:0:0:0:
228,234,165292,1,0,0:0:0:0:
197,237,165355,1,0,0:0:0:0:
169,246,165417,1,0,0:0:0:0:
148,268,165480,1,8,0:0:0:0:
125,287,165542,1,0,0:0:0:0:
97,298,165605,1,0,0:0:0:0:
67,304,165667,1,0,0:0:0:0:
36,301,165730,5,8,0:0:0:0:
22,274,165792,1,0,0:0:0:0:
7,247,165855,1,0,0:0:0:0:
3,217,165917,1,0,0:0:0:0:
16,189,165980,2,0,P|26:138|15:70,1,100,8|0,0:0|0:0,0:0:0:0:
104,72,166230,5,8,0:0:0:0:
124,72,166292,1,0,0:0:0:0:
144,72,166355,1,0,0:0:0:0:
164,72,166417,1,0,0:0:0:0:
184,72,166480,1,8,0:0:0:0:
204,72,166542,1,0,0:0:0:0:
224,72,166605,1,0,0:0:0:0:
244,72,166667,1,0,0:0:0:0:
264,72,166730,5,8,0:0:0:0:
284,72,166792,1,0,0:0:0:0:
304,72,166855,1,8,0:0:0:0:
324,72,166917,1,0,0:0:0:0:
344,72,166980,1,8,0:0:0:0:
360,72,167042,1,0,0:0:0:0:
376,72,167105,1,8,0:0:0:0:
392,72,167167,1,0,0:0:0:0:
408,72,167230,6,0,L|512:72,1,100,4|0,2:0|0:0,0:0:0:0:
460,154,167730,1,0,0:0:0:0:
456,158,167792,1,0,0:0:0:0:
452,162,167855,1,0,0:0:0:0:
448,166,167917,1,0,0:0:0:0:
444,170,167980,6,0,L|384:230,1,75,0|0,0:0|0:0,0:0:0:0:
388,174,168230,6,0,L|268:198,1,119.999996337891,8|0,0:0|0:0,0:0:0:0:
176,322,168480,2,0,P|122:290|80:244,1,119.999996337891,2|0,0:0|0:0,0:0:0:0:
208,54,168730,1,8,0:0:0:0:
270,197,168855,1,0,0:0:0:0:
116,180,168980,1,2,0:0:0:0:
260,288,169105,1,2,0:0:0:0:
306,282,169167,1,0,0:0:0:0:
342,252,169230,6,0,P|405:248|467:258,1,119.999996337891,8|0,0:0|0:0,0:0:0:0:
509,100,169480,2,0,P|449:108|385:108,1,119.999996337891,2|0,0:0|0:0,0:0:0:0:
208,54,169730,1,8,0:0:0:0:
270,197,169855,1,0,0:0:0:0:
270,197,169917,1,0,0:0:0:0:
270,198,169980,2,0,P|226:238|175:271,1,119.999996337891,2|8,0:0|0:0,0:0:0:0:
100,62,170230,6,0,P|104:132|116:180,1,119.999996337891,8|0,0:0|0:0,0:0:0:0:
318,98,170480,2,0,P|255:66|207:52,1,119.999996337891,2|0,0:0|0:0,0:0:0:0:
175,271,170730,1,8,0:0:0:0:
288,316,170855,1,2,0:0:0:0:
288,316,170917,1,0,0:0:0:0:
288,316,170980,1,8,0:0:0:0:
270,197,171105,1,8,0:0:0:0:
454,108,171230,6,0,P|444:166|420:222,1,119.999996337891,8|0,0:0|0:0,0:0:0:0:
402,280,171417,1,0,0:0:0:0:
402,280,171480,2,0,P|348:292|288:316,1,119.999996337891,2|0,0:0|0:0,0:0:0:0:
270,197,171730,2,0,P|216:236|176:270,1,119.999996337891,8|0,0:0|0:0,0:0:0:0:
116,282,171917,1,0,0:0:0:0:
116,282,171980,2,0,P|68:224|96:122,1,179.999994506836,2|0,0:0|0:0,0:0:0:0:
154,172,172230,6,0,P|204:188|270:197,1,119.999996337891,8|0,0:0|0:0,0:0:0:0:
454,108,172480,2,0,P|472:168|472:224,1,119.999996337891,2|0,0:0|0:0,0:0:0:0:
288,316,172730,1,8,0:0:0:0:
270,197,172855,1,0,0:0:0:0:
402,280,172980,1,2,0:0:0:0:
200,250,173105,1,2,0:0:0:0:
170,216,173167,1,0,0:0:0:0:
154,172,173230,6,0,P|154:116|168:52,1,119.999996337891,8|0,0:0|0:0,0:0:0:0:
388,72,173480,2,0,P|388:128|374:192,1,119.999996337891,2|0,0:0|0:0,0:0:0:0:
200,250,173730,1,8,0:0:0:0:
248,106,173855,1,0,0:0:0:0:
374,190,173980,1,2,0:0:0:0:
288,316,174105,1,8,0:0:0:0:
154,190,174230,5,8,0:0:0:0:
154,186,174292,1,0,0:0:0:0:
154,182,174354,1,0,0:0:0:0:
154,176,174417,1,0,0:0:0:0:
154,172,174480,2,0,L|126:120,3,59.9999981689454,2|0|0|0,0:0|0:0|0:0|0:0,0:0:0:0:
268,156,174730,2,0,L|260:94,3,59.9999981689454,8|0|0|0,0:0|0:0|0:0|0:0,0:0:0:0:
374,190,174980,2,0,L|380:128,3,59.9999981689454,2|0|8|0,0:0|0:0|0:0|0:0,0:0:0:0:
324,278,175230,5,8,0:0:0:0:
328,282,175292,1,0,0:0:0:0:
332,286,175355,1,0,0:0:0:0:
336,290,175417,1,0,0:0:0:0:
340,294,175480,1,0,0:0:0:0:
344,298,175542,1,0,0:0:0:0:
348,302,175605,1,0,0:0:0:0:
352,306,175667,1,0,0:0:0:0:
356,310,175730,6,0,L|414:336,3,59.9999981689454,2|0|0|0,0:0|0:0|0:0|0:0,0:0:0:0:
468,264,175980,2,0,L|486:146,1,119.999996337891,2|0,0:0|0:0,0:0:0:0:
374,190,176230,5,8,0:0:0:0:
346,202,176292,1,0,0:0:0:0:
316,208,176355,1,0,0:0:0:0:
286,212,176417,1,0,0:0:0:0:
256,192,176480,1,8,0:0:0:0:
224,176,176542,1,0,0:0:0:0:
188,170,176605,1,0,0:0:0:0:
152,170,176667,1,0,0:0:0:0:
128,188,176730,6,0,L|56:186,1,59.9999981689454,8|0,0:0|0:0,0:0:0:0:
70,89,176855,2,0,L|84:31,1,59.9999981689454
184,96,176980,2,0,L|256:98,1,59.9999981689454,8|0,0:0|0:0,0:0:0:0:
360,132,177105,2,0,L|374:190,1,59.9999981689454
356,310,177230,5,8,0:0:0:0:
314,304,177292,1,0,0:0:0:0:
272,304,177355,1,0,0:0:0:0:
230,310,177417,1,0,0:0:0:0:
204,336,177480,1,8,0:0:0:0:
170,346,177542,1,0,0:0:0:0:
134,338,177605,1,0,0:0:0:0:
112,310,177667,1,0,0:0:0:0:
102,276,177730,6,0,L|90:218,1,59.9999981689454,8|0,0:0|0:0,0:0:0:0:
70,89,177855,2,0,L|120:121,1,59.9999981689454
211,212,177980,2,0,L|283:214,1,59.9999981689454,8|0,0:0|0:0,0:0:0:0:
356,310,178105,2,0,L|394:264,1,59.9999981689454
360,132,178230,5,8,0:0:0:0:
336,114,178292,1,0,0:0:0:0:
312,96,178355,1,0,0:0:0:0:
288,78,178417,1,0,0:0:0:0:
256,94,178480,1,8,0:0:0:0:
220,90,178542,1,0,0:0:0:0:
184,86,178605,1,0,0:0:0:0:
148,82,178667,1,0,0:0:0:0:
112,104,178730,6,0,L|62:72,3,59.9999981689454,8|0|0|0,0:0|0:0|0:0|0:0,0:0:0:0:
128,188,178980,2,0,L|66:174,3,59.9999981689454,8|0|0|0,0:0|0:0|0:0|0:0,0:0:0:0:
102,276,179230,5,8,0:0:0:0:
148,292,179292,1,0,0:0:0:0:
196,306,179355,1,0,0:0:0:0:
246,312,179417,1,0,0:0:0:0:
296,312,179480,2,0,L|356:310,3,59.9999981689454,8|0|0|0,0:0|0:0|0:0|0:0,0:0:0:0:
340,166,179730,6,0,L|280:168,1,59.9999981689454,8|0,0:0|0:0,0:0:0:0:
320,240,179855,2,0,L|380:238,1,59.9999981689454
360,92,179980,2,0,L|178:98,1,179.999994506836,8|0,0:0|0:0,0:0:0:0:
250,170,180230,5,8,0:0:0:0:
220,166,180292,1,0,0:0:0:0:
190,166,180355,1,0,0:0:0:0:
160,170,180417,1,0,0:0:0:0:
128,188,180480,1,8,0:0:0:0:
98,168,180542,1,0,0:0:0:0:
82,136,180605,1,0,0:0:0:0:
74,102,180667,1,0,0:0:0:0:
100,76,180730,6,0,L|164:62,1,59.9999981689454,8|0,0:0|0:0,0:0:0:0:
300,94,180855,2,0,L|360:92,1,59.9999981689454
266,228,180980,2,0,L|250:170,1,59.9999981689454,8|0,0:0|0:0,0:0:0:0:
128,188,181105,2,0,L|112:246,1,59.9999981689454
204,336,181230,5,8,0:0:0:0:
240,356,181292,1,0,0:0:0:0:
282,352,181355,1,0,0:0:0:0:
316,328,181417,1,0,0:0:0:0:
336,298,181480,1,8,0:0:0:0:
340,262,181542,1,0,0:0:0:0:
334,226,181605,1,0,0:0:0:0:
344,192,181667,1,0,0:0:0:0:
366,162,181730,6,0,L|426:160,1,59.9999981689454,8|0,0:0|0:0,0:0:0:0:
350,62,181855,2,0,L|300:94,1,59.9999981689454
238,204,181980,2,0,L|252:262,1,59.9999981689454,8|0,0:0|0:0,0:0:0:0:
112,246,182105,2,0,L|128:188,1,59.9999981689454
80,66,182230,5,8,0:0:0:0:
110,66,182292,1,0,0:0:0:0:
140,66,182355,1,0,0:0:0:0:
170,66,182417,1,0,0:0:0:0:
200,46,182480,1,8,0:0:0:0:
230,64,182542,1,0,0:0:0:0:
260,84,182605,1,0,0:0:0:0:
290,102,182667,1,0,0:0:0:0:
332,112,182730,6,0,L|366:162,1,59.9999981689454,8|0,0:0|0:0,0:0:0:0:
280,192,182855,2,0,L|294:250,1,59.9999981689454,0|0,0:0|0:0,0:0:0:0:
204,254,182980,2,0,L|197:314,1,59.9999981689454,8|0,0:0|0:0,0:0:0:0:
108,304,183105,2,0,L|81:358,1,59.9999981689454,0|0,0:0|0:0,0:0:0:0:
118,96,183230,6,2,P|233:167|191:273,1,262.500010013581,4|0,0:0|0:0,0:0:0:0:
130,191,183730,2,2,L|394:191,1,262.500010013581,4|0,0:0|0:0,0:0:0:0:
384,268,184230,6,0,P|334:226|328:162,1,100,4|0,0:0|0:0,0:0:0:0:
286,42,184480,2,0,L|206:76,2,50,8|0|0,0:0|0:0|0:0,0:0:0:0:
130,191,184730,2,0,L|216:163,2,50
324,194,184980,2,0,L|244:228,2,50,8|0|0,0:0|0:0|0:0,0:0:0:0:
127,268,185230,5,8,0:0:0:0:
134,274,185292,1,0,0:0:0:0:
140,281,185355,1,0,0:0:0:0:
145,288,185417,1,0,0:0:0:0:
150,296,185480,2,0,P|201:315|273:303,1,100,8|0,0:0|0:0,0:0:0:0:
384,192,185730,2,0,P|329:202|258:204,1,100,0|8,0:0|0:0,0:0:0:0:
129,116,185980,2,0,P|183:126|254:128,1,100,8|0,0:0|0:0,0:0:0:0:
387,142,186230,5,0,0:0:0:0:
387,142,186292,1,0,0:0:0:0:
387,142,186355,2,0,L|383:201,1,50
489,249,186480,1,8,0:0:0:0:
489,249,186542,1,0,0:0:0:0:
489,249,186605,2,0,L|493:190,1,50
496,76,186730,5,0,0:0:0:0:
496,76,186792,1,0,0:0:0:0:
496,76,186855,2,0,L|437:72,1,50
308,53,186980,1,8,0:0:0:0:
308,53,187042,1,0,0:0:0:0:
308,53,187105,2,0,L|367:57,1,50
304,140,187230,6,0,L|386:124,1,50,2|0,0:0|0:0,0:0:0:0:
281,211,187355,2,0,L|360:238,1,50
210,235,187480,2,0,L|264:298,1,50,2|0,0:0|0:0,0:0:0:0:
134,234,187605,2,0,L|150:316,1,50
76,182,187730,2,0,L|48:261,1,50,2|0,0:0|0:0,0:0:0:0:
87,104,187855,2,0,L|23:158,1,50,2|0,0:0|0:0,0:0:0:0:
156,69,187980,2,0,L|73:85,1,50,2|0,0:0|0:0,0:0:0:0:
230,59,188105,2,0,L|150:31,1,50,2|0,0:0|0:0,0:0:0:0:
300,75,188230,6,0,P|349:70|432:93,1,100,12|0,0:0|0:0,0:0:0:0:
486,195,188480,1,0,0:0:0:0:
454,210,188542,1,0,0:0:0:0:
419,215,188605,1,0,0:0:0:0:
384,214,188667,1,0,0:0:0:0:
349,209,188730,1,8,0:0:0:0:
317,193,188792,1,0,0:0:0:0:
288,183,188855,5,0,0:0:0:0:
271,213,188917,1,0,0:0:0:0:
267,248,188980,1,0,0:0:0:0:
271,282,189042,1,0,0:0:0:0:
291,311,189105,1,0,0:0:0:0:
322,327,189167,1,0,0:0:0:0:
357,329,189230,6,0,L|333:399,3,50,8|0|0|0,0:0|0:0|0:0|0:0,0:0:0:0:
255,330,189480,2,0,L|272:283,3,50,8|0|0|0,0:0|0:0|0:0|0:0,0:0:0:0:
175,297,189730,2,0,L|159:345,3,50,8|0|0|0,0:0|0:0|0:0|0:0,0:0:0:0:
75,320,189980,2,0,L|92:273,3,50,8|0|0|0,0:0|0:0|0:0|0:0,0:0:0:0:
88,187,190230,5,4,2:0:0:0:
160,55,190355,1,2,0:0:0:0:
238,184,190480,1,2,0:0:0:0:
128,250,190605,5,4,2:0:0:0:
200,118,190730,1,2,0:0:0:0:
278,247,190855,1,2,0:0:0:0:
165,317,190980,5,4,2:0:0:0:
237,185,191105,1,2,0:0:0:0:
315,314,191230,1,10,0:0:0:0:
165,317,191355,1,8,0:0:0:0:
315,314,191480,1,8,0:0:0:0:
165,317,191605,6,0,P|111:300|58:268,1,100,10|0,0:0|0:0,0:0:0:0:
64,273,191792,1,0,0:0:0:0:
55,267,191855,1,0,0:0:0:0:
237,186,191980,6,0,P|291:203|344:235,1,100,10|0,0:0|0:0,0:0:0:0:
337,228,192167,1,0,0:0:0:0:
345,233,192230,1,0,0:0:0:0:
165,213,192355,6,0,P|169:154|208:109,1,100,10|0,0:0|0:0,0:0:0:0:
199,115,192542,1,0,0:0:0:0:
206,108,192605,1,0,0:0:0:0:
400,143,192730,5,0,0:0:0:0:
351,164,192792,1,0,0:0:0:0:
303,143,192855,1,0,0:0:0:0:
281,93,192917,1,0,0:0:0:0:
303,43,192980,1,0,0:0:0:0:
351,20,193042,1,0,0:0:0:0:
400,43,193105,1,0,0:0:0:0:
422,93,193167,1,0,0:0:0:0:
400,143,193230,6,0,B|309:307|410:339|473:253|410:166|309:200|309:307,1,359.999989013672,4|0,0:2|0:0,0:0:0:0:
