osu file format v14

[General]
AudioFilename: 12 - Everything will freeze.mp3
AudioLeadIn: 0
PreviewTime: 50225
Countdown: 0
SampleSet: Normal
StackLeniency: 0.7
Mode: 0
LetterboxInBreaks: 0
WidescreenStoryboard: 0

[Editor]
DistanceSpacing: 1
BeatDivisor: 2
GridSize: 4
TimelineZoom: 1.1

[Metadata]
Title:Everything will freeze
TitleUnicode:Everything will freeze
Artist:UNDEAD CORPORATION
ArtistUnicode:UNDEAD CORPORATION
Creator:sjoy
Version:Easy
Source:東方Project
Tags:Touhou BOUKUN Izayoi Sakuya chenwu Minakami Yuki hoshisorakiseki Emingk
BeatmapID:744649
BeatmapSetID:336471

[Difficulty]
HPDrainRate:2.5
CircleSize:2.5
OverallDifficulty:2.5
ApproachRate:4
SliderMultiplier:0.699999999999999
SliderTickRate:1

[Events]
//Background and Video events
0,0,"bg.jpg",0,0
//Break Periods
2,66230,72910
2,124430,130910
//Storyboard Layer 0 (Background)
//Storyboard Layer 1 (Fail)
//Storyboard Layer 2 (Pass)
//Storyboard Layer 3 (Foreground)
//Storyboard Sound Samples

[TimingPoints]
230,250,4,1,1,70,1,0
50230,-100,4,1,3,80,0,1
66230,-100,4,1,1,70,0,0
106230,-100,4,1,3,80,0,1
122230,-100,4,1,1,80,0,0
140230,-100,4,1,3,80,0,0
168230,-100,4,1,3,80,0,1
184230,-100,4,1,1,70,0,0

[Colours]
Combo1 : 255,255,128
Combo2 : 140,255,100
Combo3 : 250,180,220
Combo4 : 172,251,253

[HitObjects]
389,280,230,6,0,P|278:341|162:325,2,245,4|8|8,0:2|0:0|0:0,0:0:0:0:
417,215,2230,5,4,0:0:0:0:
417,215,4230,1,4,0:0:0:0:
173,76,5230,2,0,P|78:119|36:239,1,210,2|0,0:0|0:0,0:0:0:0:
79,265,6230,6,0,P|148:285|246:272,1,140,4|8,0:0|0:0,0:0:0:0:
353,259,7230,1,0,0:0:0:0:
392,124,7730,1,8,0:0:0:0:
250,140,8230,2,0,P|234:195|193:229,2,105
196,96,9230,6,0,P|129:77|42:83,1,140
58,220,10230,2,0,P|90:284|177:309,1,140,4|8,0:0|0:0,0:0:0:0:
281,260,11230,1,0,0:0:0:0:
399,333,11730,1,8,0:0:0:0:
405,193,12230,2,0,P|357:141|278:123,1,140,0|8,0:0|0:0,0:0:0:0:
151,121,13230,2,0,B|179:185|154:253|154:253|197:240|251:262,1,210,2|0,0:0|0:0,0:0:0:0:
290,224,14230,5,8,0:0:0:0:
409,297,14730,1,8,0:0:0:0:
472,172,15230,2,0,P|489:102|477:10,1,140,8|0,0:0|0:0,0:0:0:0:
346,57,16230,2,0,L|250:62,1,69.9999999999999,2|0,0:0|0:0,0:0:0:0:
224,107,16730,2,0,L|128:112,1,69.9999999999999,2|0,0:0|0:0,0:0:0:0:
84,116,17230,2,0,B|90:185|90:185|172:245,1,140,2|8,0:0|0:0,0:0:0:0:
284,202,18230,6,0,P|351:185|436:222,1,140,0|8,0:0|0:0,0:0:0:0:
496,321,19230,1,8,0:0:0:0:
356,329,19730,1,8,0:0:0:0:
217,312,20230,2,0,P|166:268|151:177,1,140,0|8,0:0|0:0,0:0:0:0:
155,60,21230,2,0,B|266:39|376:68,1,210,2|8,0:0|0:0,0:0:0:0:
429,88,22230,5,8,0:0:0:0:
498,209,22730,1,8,0:0:0:0:
360,182,23230,2,0,P|276:172|206:194,1,140,0|8,0:0|0:0,0:0:0:0:
92,235,24230,2,0,P|70:189|76:124,2,105,2|0|0,0:0|0:0|0:0,0:0:0:0:
150,272,25230,2,0,P|216:282|315:271,1,140,2|8,0:0|0:0,0:0:0:0:
286,136,26230,5,4,0:0:0:0:
413,193,26730,1,8,0:0:0:0:
435,334,27230,2,0,L|333:343,1,69.9999999999999,8|0,0:0|0:0,0:0:0:0:
295,337,27730,2,0,L|193:328,1,69.9999999999999,8|0,0:0|0:0,0:0:0:0:
155,325,28230,5,8,0:0:0:0:
68,214,28730,1,8,0:0:0:0:
173,121,29230,2,0,L|265:109,1,69.9999999999999,8|0,0:0|0:0,0:0:0:0:
312,114,29730,2,0,L|404:126,1,69.9999999999999,8|0,0:0|0:0,0:0:0:0:
451,131,30230,5,8,0:0:0:0:
478,268,30730,1,8,0:0:0:0:
351,208,31230,2,0,P|256:184|139:215,1,210,0|2,0:0|0:0,0:0:0:0:
85,238,32230,2,0,P|63:196|73:108,2,105,2|2|2,0:0|0:0|0:0,0:0:0:0:
168,309,33355,2,0,P|221:314|277:308,1,105,2|2,0:0|0:0,0:0:0:0:
405,264,34230,5,12,0:0:0:0:
373,127,34730,1,8,0:0:0:0:
239,170,35230,2,0,L|146:173,1,69.9999999999999,8|0,0:0|0:0,0:0:0:0:
151,104,35730,2,0,L|244:101,1,69.9999999999999,8|0,0:0|0:0,0:0:0:0:
290,101,36230,5,12,0:0:0:0:
418,45,36730,1,8,0:0:0:0:
498,159,37230,2,0,L|468:245,1,69.9999999999999,8|0,0:0|0:0,0:0:0:0:
405,229,37730,2,0,L|375:315,1,69.9999999999999,8|0,0:0|0:0,0:0:0:0:
361,362,38230,5,12,0:0:0:0:
224,330,38730,1,8,0:0:0:0:
273,198,39230,2,0,L|311:103,1,69.9999999999999,8|0,0:0|0:0,0:0:0:0:
230,115,39730,2,0,L|192:210,1,69.9999999999999,8|0,0:0|0:0,0:0:0:0:
169,241,40230,6,0,P|120:259|47:240,1,105,2|2,0:0|0:0,0:0:0:0:
40,150,40980,2,0,P|22:101|41:28,1,105,2|2,0:0|0:0,0:0:0:0:
134,59,41730,2,0,P|172:65|214:52,1,69.9999999999999
271,44,42230,2,0,B|342:37|406:78|406:78|436:149|416:231,1,280,2|2,0:0|0:0,0:0:0:0:
152,137,44230,5,12,0:0:0:0:
291,123,44730,1,8,0:0:0:0:
310,262,45230,1,8,0:0:0:0:
170,275,45730,1,8,0:0:0:0:
152,137,46230,5,8,0:0:0:0:
291,123,46730,1,8,0:0:0:0:
310,262,47230,1,8,0:0:0:0:
170,275,47730,1,8,0:0:0:0:
152,137,48230,6,0,B|291:127|291:127|454:150,1,280,0|4,0:0|0:2,0:0:0:0:
172,238,50230,6,0,L|174:137,1,69.9999999999999,4|2,0:0|0:0,0:0:0:0:
178,98,50730,2,0,P|108:113|25:88,1,140,8|2,0:0|0:0,0:0:0:0:
79,232,51730,1,2,0:0:0:0:
180,328,52230,2,0,P|225:320|269:334,1,69.9999999999999,0|2,0:0|0:0,0:0:0:0:
317,335,52730,2,0,P|339:269|331:200,1,140,0|2,0:0|0:0,0:0:0:0:
200,251,53730,1,2,0:0:0:0:
110,358,54230,6,0,L|100:268,1,69.9999999999999,6|2,0:0|0:0,0:0:0:0:
37,260,54730,2,0,L|21:88,1,140,8|2,0:0|0:0,0:0:0:0:
136,36,55730,1,2,0:0:0:0:
259,102,56230,2,0,P|314:117|403:105,1,140,8|2,0:0|0:0,0:0:0:0:
505,20,57230,1,2,0:0:0:0:
512,158,57730,1,2,0:0:0:0:
487,295,58230,6,0,P|449:289|392:298,1,69.9999999999999,4|2,0:0|0:0,0:0:0:0:
349,308,58730,2,0,P|314:317|251:306,1,69.9999999999999,2|2,0:0|0:0,0:0:0:0:
211,309,59230,2,0,P|204:237|226:164,1,140,8|2,0:0|0:0,0:0:0:0:
87,212,60230,2,0,L|8:233,1,69.9999999999999,8|2,0:0|0:0,0:0:0:0:
1,162,60730,2,0,L|81:145,1,69.9999999999999,8|2,0:0|0:0,0:0:0:0:
66,77,61230,2,0,L|-13:98,2,69.9999999999999,8|2|2,0:0|0:0|0:0,0:0:0:0:
204,100,62230,6,0,P|243:98|298:103,1,69.9999999999999,6|2,0:0|0:0,0:0:0:0:
343,109,62730,2,0,P|320:173|341:257,1,140,8|2,0:0|0:0,0:0:0:0:
458,181,63730,1,2,0:0:0:0:
475,319,64230,2,0,L|395:340,1,69.9999999999999,8|2,0:0|0:0,0:0:0:0:
337,341,64730,2,0,L|258:334,2,69.9999999999999,8|2|2,0:0|0:0|0:0,0:0:0:0:
343,200,65730,1,4,0:0:0:0:
231,124,74230,5,4,0:0:0:0:
231,124,75230,5,0,0:0:0:0:
113,51,75730,1,8,0:0:0:0:
107,191,76230,2,0,P|155:243|234:261,1,140,0|8,0:0|0:0,0:0:0:0:
361,263,77230,2,0,B|333:199|358:131|358:131|315:144|277:167,1,210,2|0,0:0|0:0,0:0:0:0:
231,124,78230,5,8,0:0:0:0:
103,87,78730,1,8,0:0:0:0:
40,212,79230,2,0,P|23:282|35:374,1,140,8|0,0:0|0:0,0:0:0:0:
167,336,80230,2,0,L|295:327,2,105,2|0|0,0:0|0:0|0:0,0:0:0:0:
136,272,81230,2,0,P|114:206|138:112,1,140,2|8,0:0|0:0,0:0:0:0:
254,189,82230,6,0,P|321:172|406:209,1,140,0|8,0:0|0:0,0:0:0:0:
465,308,83230,1,8,0:0:0:0:
477,168,83730,1,8,0:0:0:0:
393,55,84230,2,0,P|365:116|391:212,1,140,0|8,0:0|0:0,0:0:0:0:
365,323,85230,6,0,B|373:349|373:349|314:333|261:347,1,140,8|8,0:0|0:0,0:0:0:0:
121,335,86230,1,8,0:0:0:0:
20,237,86730,1,8,0:0:0:0:
152,202,87230,2,0,P|236:212|306:190,1,140,8|8,0:0|0:0,0:0:0:0:
422,157,88230,2,0,P|451:203|457:270,2,105,2|2|2,0:0|0:0|0:0,0:0:0:0:
335,98,89355,2,0,P|279:86|219:97,1,105,2|2,0:0|0:0,0:0:0:0:
222,232,90230,5,4,0:0:0:0:
87,191,90730,1,8,0:0:0:0:
77,50,91230,2,0,L|179:41,1,69.9999999999999,8|0,0:0|0:0,0:0:0:0:
217,47,91730,2,0,L|319:56,1,69.9999999999999,8|0,0:0|0:0,0:0:0:0:
357,59,92230,5,8,0:0:0:0:
444,170,92730,1,8,0:0:0:0:
339,263,93230,2,0,L|247:275,1,69.9999999999999,8|0,0:0|0:0,0:0:0:0:
200,270,93730,2,0,L|108:258,1,69.9999999999999,8|0,0:0|0:0,0:0:0:0:
61,253,94230,5,8,0:0:0:0:
25,117,94730,1,8,0:0:0:0:
161,146,95230,2,0,B|257:188|257:188|376:169,1,210,0|8,0:0|0:0,0:0:0:0:
424,142,96230,2,0,P|446:184|436:272,1,105,2|2,0:0|0:0,0:0:0:0:
360,299,96980,2,0,P|307:304|251:298,1,105,2|2,0:0|0:0,0:0:0:0:
150,298,97730,2,0,P|142:263|157:213,1,69.9999999999999
159,160,98230,5,12,0:0:0:0:
269,74,98730,1,8,0:0:0:0:
273,214,99230,2,0,L|366:211,1,69.9999999999999,8|0,0:0|0:0,0:0:0:0:
361,280,99730,2,0,L|268:283,1,69.9999999999999,8|0,0:0|0:0,0:0:0:0:
222,283,100230,5,12,0:0:0:0:
94,339,100730,1,8,0:0:0:0:
14,225,101230,2,0,L|44:139,1,69.9999999999999,8|0,0:0|0:0,0:0:0:0:
107,155,101730,2,0,L|137:69,1,69.9999999999999,8|0,0:0|0:0,0:0:0:0:
151,22,102230,5,12,0:0:0:0:
288,54,102730,1,8,0:0:0:0:
239,186,103230,2,0,L|201:281,1,69.9999999999999,8|0,0:0|0:0,0:0:0:0:
282,269,103730,2,0,L|320:174,1,69.9999999999999,8|0,0:0|0:0,0:0:0:0:
336,139,104230,2,0,L|51:36,1,280,0|4,0:0|0:2,0:0:0:0:
163,316,106230,6,0,L|252:295,1,69.9999999999999,4|2,0:0|0:0,0:0:0:0:
297,272,106730,2,0,P|367:257|450:282,1,140,8|2,0:0|0:0,0:0:0:0:
382,142,107730,1,2,0:0:0:0:
246,173,108230,2,0,P|201:181|157:167,1,69.9999999999999,0|2,0:0|0:0,0:0:0:0:
109,164,108730,2,0,P|101:91|129:21,1,140,0|2,0:0|0:0,0:0:0:0:
263,45,109730,1,2,0:0:0:0:
402,26,110230,6,0,L|412:116,1,69.9999999999999,6|2,0:0|0:0,0:0:0:0:
475,124,110730,2,0,L|491:296,1,140,8|2,0:0|0:0,0:0:0:0:
384,358,111730,1,2,0:0:0:0:
274,270,112230,2,0,P|219:255|130:267,1,140,8|2,0:0|0:0,0:0:0:0:
16,335,113230,1,2,0:0:0:0:
0,196,113730,1,2,0:0:0:0:
19,57,114230,6,0,P|57:63|114:54,1,69.9999999999999,4|2,0:0|0:0,0:0:0:0:
158,54,114730,2,0,P|193:45|256:56,1,69.9999999999999,2|2,0:0|0:0,0:0:0:0:
296,53,115230,2,0,P|303:125|281:198,1,140,8|2,0:0|0:0,0:0:0:0:
425,172,116230,2,0,L|504:151,1,69.9999999999999,8|2,0:0|0:0,0:0:0:0:
511,222,116730,2,0,L|431:239,1,69.9999999999999,8|2,0:0|0:0,0:0:0:0:
446,307,117230,2,0,L|525:286,2,69.9999999999999,8|2|2,0:0|0:0|0:0,0:0:0:0:
308,284,118230,6,0,P|269:286|214:281,1,69.9999999999999,6|2,0:0|0:0,0:0:0:0:
169,275,118730,2,0,P|192:211|171:127,1,140,8|2,0:0|0:0,0:0:0:0:
54,203,119730,1,2,0:0:0:0:
37,65,120230,2,0,L|117:44,1,69.9999999999999,8|2,0:0|0:0,0:0:0:0:
175,43,120730,2,0,L|254:50,2,69.9999999999999,8|2|2,0:0|0:0|0:0,0:0:0:0:
169,184,121730,1,2,0:0:0:0:
256,192,122230,12,4,124230,0:0:0:0:
120,112,132230,6,0,P|193:120|276:100,1,140,4|8,0:0|0:0,0:0:0:0:
331,226,133230,2,0,P|257:234|175:214,1,140,0|8,0:0|0:0,0:0:0:0:
104,330,134230,2,0,P|177:338|260:318,1,140,0|8,0:0|0:0,0:0:0:0:
381,319,135230,2,0,P|436:238|380:135,1,210,2|8,0:0|0:0,0:0:0:0:
344,94,136230,5,4,0:0:0:0:
210,135,136730,1,8,0:0:0:0:
157,264,137230,1,0,0:0:0:0:
291,223,137730,1,8,0:0:0:0:
361,344,138230,6,0,L|456:297,2,105,2|8|0,0:0|0:0|0:0,0:0:0:0:
291,349,139230,1,2,0:0:0:0:
189,252,139730,1,2,0:0:0:0:
57,292,140230,6,0,L|59:142,1,140,4|8,0:0|0:0,0:0:0:0:
169,66,141230,2,0,L|167:216,1,140,0|8,0:0|0:0,0:0:0:0:
298,254,142230,1,0,0:0:0:0:
413,175,142730,1,8,0:0:0:0:
343,53,143230,2,0,P|415:38|507:68,1,140,2|8,0:0|0:0,0:0:0:0:
413,175,144230,6,0,B|368:214|368:214|296:178|219:220,1,210,4|0,0:0|0:0,0:0:0:0:
157,241,145230,1,8,0:0:0:0:
93,116,145730,1,8,0:0:0:0:
226,74,146230,2,0,L|311:53,1,69.9999999999999,2|0,0:0|0:0,0:0:0:0:
363,61,146730,2,0,L|448:82,1,69.9999999999999,2|0,0:0|0:0,0:0:0:0:
498,94,147230,2,0,B|476:166|476:166|396:203,1,140,2|8,0:0|0:0,0:0:0:0:
283,235,148230,6,0,P|214:220|124:253,1,140,2|2,0:0|0:0,0:0:0:0:
33,317,149230,1,2,0:0:0:0:
31,177,149730,1,2,0:0:0:0:
145,96,150230,2,0,P|213:76|289:101,1,140,2|2,0:0|0:0,0:0:0:0:
358,209,151230,2,0,P|289:228|214:204,1,140,2|2,0:0|0:0,0:0:0:0:
94,158,152230,5,8,0:0:0:0:
181,48,152730,1,8,0:0:0:0:
315,85,153230,1,8,0:0:0:0:
446,37,153730,1,8,0:0:0:0:
490,169,154230,6,0,L|519:261,1,69.9999999999999,2|0,0:0|0:0,0:0:0:0:
452,273,154730,2,0,L|423:365,1,69.9999999999999,2|0,0:0|0:0,0:0:0:0:
361,345,155230,2,0,B|253:346|253:346|164:285,1,210,2|8,0:0|0:0,0:0:0:0:
116,242,156230,2,0,B|138:198|181:191|181:191|139:103|189:50|189:50|275:72|288:215,1,419.999999999999,0|8,0:0|0:0,0:0:0:0:
349,67,158230,6,0,L|490:54,1,140,0|8,0:0|0:0,0:0:0:0:
488,193,159230,2,0,L|347:206,1,140,0|8,0:0|0:0,0:0:0:0:
209,223,160230,1,8,0:0:0:0:
69,236,160730,1,8,0:0:0:0:
50,97,161230,1,8,0:0:0:0:
189,83,161730,1,8,0:0:0:0:
327,68,162230,6,0,B|349:204|349:204|183:226,1,280,0|4,0:0|0:0,0:0:0:0:
256,192,164230,12,4,166230,0:0:0:0:
349,316,168230,6,0,L|260:295,1,69.9999999999999,4|2,0:0|0:0,0:0:0:0:
215,272,168730,2,0,P|145:257|62:282,1,140,8|2,0:0|0:0,0:0:0:0:
130,142,169730,1,2,0:0:0:0:
266,173,170230,2,0,P|311:181|355:167,1,69.9999999999999,0|2,0:0|0:0,0:0:0:0:
403,164,170730,2,0,P|411:91|383:21,1,140,0|2,0:0|0:0,0:0:0:0:
249,45,171730,1,2,0:0:0:0:
110,26,172230,6,0,L|100:116,1,69.9999999999999,6|2,0:0|0:0,0:0:0:0:
37,124,172730,2,0,L|21:296,1,140,8|2,0:0|0:0,0:0:0:0:
126,359,173730,1,2,0:0:0:0:
245,286,174230,2,0,P|300:271|389:283,1,140,8|2,0:0|0:0,0:0:0:0:
499,354,175230,1,2,0:0:0:0:
509,214,175730,1,2,0:0:0:0:
473,78,176230,6,0,P|435:84|378:75,1,69.9999999999999,4|2,0:0|0:0,0:0:0:0:
334,68,176730,2,0,P|299:59|236:70,1,69.9999999999999,2|2,0:0|0:0,0:0:0:0:
195,69,177230,2,0,P|196:148|236:212,1,140,8|2,0:0|0:0,0:0:0:0:
87,172,178230,2,0,L|8:151,1,69.9999999999999,8|2,0:0|0:0,0:0:0:0:
1,222,178730,2,0,L|81:239,1,69.9999999999999,8|2,0:0|0:0,0:0:0:0:
66,307,179230,2,0,L|-13:286,2,69.9999999999999,8|2|2,0:0|0:0|0:0,0:0:0:0:
204,284,180230,6,0,P|243:286|298:281,1,69.9999999999999,6|2,0:0|0:0,0:0:0:0:
343,275,180730,2,0,P|320:211|341:127,1,140,8|2,0:0|0:0,0:0:0:0:
458,203,181730,1,2,0:0:0:0:
475,65,182230,2,0,L|395:44,1,69.9999999999999,8|2,0:0|0:0,0:0:0:0:
337,43,182730,2,0,L|258:50,2,69.9999999999999,8|2|2,0:0|0:0|0:0,0:0:0:0:
459,110,183730,1,2,0:0:0:0:
343,184,184230,6,0,P|271:203|193:206,1,140,0|8,0:0|0:0,0:0:0:0:
101,113,185230,1,8,0:0:0:0:
44,240,185730,1,8,0:0:0:0:
151,329,186230,2,0,P|220:339|307:337,1,140,2|8,0:0|0:0,0:0:0:0:
429,327,187230,2,0,B|421:264|460:224|460:224|395:246|341:240,1,210,2|8,0:0|0:0,0:0:0:0:
293,244,188230,6,0,L|203:239,1,69.9999999999999,8|0,0:0|0:0,0:0:0:0:
153,237,188730,2,0,L|63:242,1,69.9999999999999,8|0,0:0|0:0,0:0:0:0:
12,245,189230,1,8,0:0:0:0:
56,109,189730,1,8,0:0:0:0:
195,108,190230,6,0,L|292:95,1,69.9999999999999,0|4,0:0|0:2,0:0:0:0:
279,167,190730,2,0,L|209:176,1,69.9999999999999,0|4,0:0|0:2,0:0:0:0:
221,245,191230,2,0,L|237:349,2,105,0|2|2,0:0|0:0|0:0,0:0:0:0:
325,257,192355,2,0,B|401:280|456:257|456:257|405:368,1,245,2|4,0:0|0:0,0:0:0:0:
