osu file format v14

[General]
AudioFilename: 12 - Everything will freeze.mp3
AudioLeadIn: 0
PreviewTime: 50225
Countdown: 1
SampleSet: Normal
StackLeniency: 0.7
Mode: 1
LetterboxInBreaks: 1
WidescreenStoryboard: 1

[Editor]
Bookmarks: 65225,124225,167725,184225
DistanceSpacing: 0.5
BeatDivisor: 4
GridSize: 16
TimelineZoom: 1

[Metadata]
Title:Everything will freeze
TitleUnicode:Everything will freeze
Artist:UNDEAD CORPORATION
ArtistUnicode:UNDEAD CORPORATION
Creator:Juuryoushin
Version:Inner Oni
Source:東方Project
Tags:izayoi sakuya flowering night pinetree tyrant boukun instrumental kouta c84 comiket 84
BeatmapID:713877
BeatmapSetID:320864

[Difficulty]
HPDrainRate:5
CircleSize:4
OverallDifficulty:6
ApproachRate:5
SliderMultiplier:1.4
SliderTickRate:1

[Events]
//Background and Video events
0,0,"BGEveryFreeze.jpg",0,24
//Break Periods
//Storyboard Layer 0 (Background)
//Storyboard Layer 1 (Fail)
//Storyboard Layer 2 (Pass)
//Storyboard Layer 3 (Foreground)
//Storyboard Sound Samples

[TimingPoints]
225,250,4,1,0,85,1,0
50225,-100,4,1,0,100,0,1
66225,-100,4,1,0,85,0,0
106225,-100,4,1,0,100,0,1
122225,-100,4,1,0,85,0,0
168225,-100,4,1,0,100,0,1
184225,-100,4,1,0,85,0,0

[Colours]
Combo1 : 0,0,255
Combo2 : 255,0,0

[HitObjects]
256,192,225,5,0,0:0:0:0:
256,192,350,1,2,0:0:0:0:
256,192,475,1,2,0:0:0:0:
256,192,600,1,2,0:0:0:0:
256,192,662,1,2,0:0:0:0:
256,192,725,1,2,0:0:0:0:
256,192,787,1,2,0:0:0:0:
256,192,850,1,0,0:0:0:0:
256,192,912,1,0,0:0:0:0:
256,192,975,1,2,0:0:0:0:
256,192,1037,1,2,0:0:0:0:
256,192,1100,1,2,0:0:0:0:
256,192,1162,1,2,0:0:0:0:
256,192,1225,1,0,0:0:0:0:
256,192,1287,1,0,0:0:0:0:
256,192,1350,1,2,0:0:0:0:
256,192,1412,1,2,0:0:0:0:
256,192,1475,1,2,0:0:0:0:
256,192,1537,1,2,0:0:0:0:
256,192,1600,1,0,0:0:0:0:
256,192,1662,1,0,0:0:0:0:
256,192,1725,1,2,0:0:0:0:
256,192,1787,1,0,0:0:0:0:
256,192,1850,1,0,0:0:0:0:
256,192,1912,1,0,0:0:0:0:
256,192,1975,1,2,0:0:0:0:
256,192,2225,1,4,0:0:0:0:
256,192,3100,1,0,0:0:0:0:
256,192,3162,1,0,0:0:0:0:
256,192,3225,1,0,0:0:0:0:
256,192,3475,1,2,0:0:0:0:
256,192,3537,1,2,0:0:0:0:
256,192,3600,1,0,0:0:0:0:
256,192,3662,1,0,0:0:0:0:
256,192,3725,1,2,0:0:0:0:
256,192,3787,1,2,0:0:0:0:
256,192,3850,1,0,0:0:0:0:
256,192,3912,1,0,0:0:0:0:
256,192,3975,1,2,0:0:0:0:
256,192,4037,1,2,0:0:0:0:
256,192,4100,1,2,0:0:0:0:
256,192,4162,1,2,0:0:0:0:
256,192,4225,1,0,0:0:0:0:
256,192,5225,1,0,0:0:0:0:
256,192,5287,1,0,0:0:0:0:
256,192,5350,1,0,0:0:0:0:
256,192,5412,1,0,0:0:0:0:
256,192,5475,1,2,0:0:0:0:
256,192,5537,1,2,0:0:0:0:
256,192,5600,1,2,0:0:0:0:
256,192,5662,1,2,0:0:0:0:
256,192,5725,1,0,0:0:0:0:
256,192,5787,1,0,0:0:0:0:
256,192,5850,1,0,0:0:0:0:
256,192,5912,1,0,0:0:0:0:
256,192,5975,1,2,0:0:0:0:
256,192,6037,1,2,0:0:0:0:
256,192,6100,1,2,0:0:0:0:
256,192,6162,1,2,0:0:0:0:
256,192,6225,1,0,0:0:0:0:
256,192,6350,1,2,0:0:0:0:
256,192,6475,1,0,0:0:0:0:
256,192,6537,1,0,0:0:0:0:
256,192,6600,1,2,0:0:0:0:
256,192,6725,1,0,0:0:0:0:
256,192,6850,1,2,0:0:0:0:
256,192,6975,1,0,0:0:0:0:
256,192,7037,1,0,0:0:0:0:
256,192,7100,1,2,0:0:0:0:
256,192,7225,1,0,0:0:0:0:
256,192,7350,1,2,0:0:0:0:
256,192,7475,1,0,0:0:0:0:
256,192,7537,1,0,0:0:0:0:
256,192,7600,1,2,0:0:0:0:
256,192,7725,1,0,0:0:0:0:
256,192,7850,1,2,0:0:0:0:
256,192,7975,1,0,0:0:0:0:
256,192,8037,1,0,0:0:0:0:
256,192,8100,1,2,0:0:0:0:
256,192,8225,1,6,0:0:0:0:
256,192,8350,1,0,0:0:0:0:
256,192,8412,1,0,0:0:0:0:
256,192,8475,1,0,0:0:0:0:
256,192,8600,1,6,0:0:0:0:
256,192,8725,1,0,0:0:0:0:
256,192,8787,1,0,0:0:0:0:
256,192,8850,1,0,0:0:0:0:
256,192,8975,1,6,0:0:0:0:
256,192,9100,1,0,0:0:0:0:
256,192,9162,1,0,0:0:0:0:
256,192,9225,1,2,0:0:0:0:
256,192,9475,1,0,0:0:0:0:
256,192,9537,1,0,0:0:0:0:
256,192,9600,1,0,0:0:0:0:
256,192,9662,1,0,0:0:0:0:
256,192,9725,1,0,0:0:0:0:
256,192,9975,1,2,0:0:0:0:
256,192,10037,1,2,0:0:0:0:
256,192,10100,1,2,0:0:0:0:
256,192,10162,1,2,0:0:0:0:
256,192,10225,1,0,0:0:0:0:
256,192,10350,1,2,0:0:0:0:
256,192,10475,1,0,0:0:0:0:
256,192,10537,1,0,0:0:0:0:
256,192,10600,1,2,0:0:0:0:
256,192,10725,1,0,0:0:0:0:
256,192,10850,1,2,0:0:0:0:
256,192,10975,1,0,0:0:0:0:
256,192,11037,1,0,0:0:0:0:
256,192,11100,1,2,0:0:0:0:
256,192,11225,1,0,0:0:0:0:
256,192,11350,1,2,0:0:0:0:
256,192,11475,1,0,0:0:0:0:
256,192,11537,1,0,0:0:0:0:
256,192,11600,1,2,0:0:0:0:
256,192,11725,1,0,0:0:0:0:
256,192,11787,1,0,0:0:0:0:
256,192,11850,1,2,0:0:0:0:
256,192,11912,1,2,0:0:0:0:
256,192,11975,1,0,0:0:0:0:
256,192,12100,1,2,0:0:0:0:
256,192,12225,1,0,0:0:0:0:
256,192,12350,1,2,0:0:0:0:
256,192,12475,1,0,0:0:0:0:
256,192,12537,1,0,0:0:0:0:
256,192,12600,1,2,0:0:0:0:
256,192,12725,1,0,0:0:0:0:
256,192,12850,1,2,0:0:0:0:
256,192,12975,1,0,0:0:0:0:
256,192,13037,1,0,0:0:0:0:
256,192,13100,1,2,0:0:0:0:
256,192,13225,1,0,0:0:0:0:
256,192,13287,1,0,0:0:0:0:
256,192,13350,1,2,0:0:0:0:
256,192,13412,1,2,0:0:0:0:
256,192,13475,1,0,0:0:0:0:
256,192,13537,1,0,0:0:0:0:
256,192,13600,1,2,0:0:0:0:
256,192,13662,1,2,0:0:0:0:
256,192,13725,1,0,0:0:0:0:
256,192,13787,1,0,0:0:0:0:
256,192,13850,1,2,0:0:0:0:
256,192,13912,1,2,0:0:0:0:
256,192,13975,1,0,0:0:0:0:
256,192,14037,1,0,0:0:0:0:
256,192,14100,1,2,0:0:0:0:
256,192,14162,1,2,0:0:0:0:
256,192,14225,1,0,0:0:0:0:
256,192,14350,1,2,0:0:0:0:
256,192,14475,1,0,0:0:0:0:
256,192,14537,1,0,0:0:0:0:
256,192,14600,1,2,0:0:0:0:
256,192,14725,1,0,0:0:0:0:
256,192,14850,1,2,0:0:0:0:
256,192,14975,1,0,0:0:0:0:
256,192,15037,1,0,0:0:0:0:
256,192,15100,1,2,0:0:0:0:
256,192,15225,1,0,0:0:0:0:
256,192,15350,1,2,0:0:0:0:
256,192,15475,1,0,0:0:0:0:
256,192,15537,1,0,0:0:0:0:
256,192,15600,1,2,0:0:0:0:
256,192,15725,1,0,0:0:0:0:
256,192,15850,1,2,0:0:0:0:
256,192,15975,1,0,0:0:0:0:
256,192,16037,1,0,0:0:0:0:
256,192,16100,1,2,0:0:0:0:
256,192,16225,1,6,0:0:0:0:
256,192,16350,1,0,0:0:0:0:
256,192,16475,1,6,0:0:0:0:
256,192,16600,1,0,0:0:0:0:
256,192,16725,1,6,0:0:0:0:
256,192,16850,1,0,0:0:0:0:
256,192,16975,1,6,0:0:0:0:
256,192,17100,1,0,0:0:0:0:
256,192,17225,1,6,0:0:0:0:
256,192,17475,1,0,0:0:0:0:
256,192,17558,1,0,0:0:0:0:
256,192,17641,1,0,0:0:0:0:
256,192,17725,1,2,0:0:0:0:
256,192,17975,1,2,0:0:0:0:
256,192,18037,1,2,0:0:0:0:
256,192,18100,1,2,0:0:0:0:
256,192,18162,1,2,0:0:0:0:
256,192,18225,1,0,0:0:0:0:
256,192,18350,1,2,0:0:0:0:
256,192,18475,1,0,0:0:0:0:
256,192,18537,1,0,0:0:0:0:
256,192,18600,1,2,0:0:0:0:
256,192,18725,1,0,0:0:0:0:
256,192,18850,1,2,0:0:0:0:
256,192,18975,1,0,0:0:0:0:
256,192,19038,1,0,0:0:0:0:
256,192,19100,1,2,0:0:0:0:
256,192,19225,1,0,0:0:0:0:
256,192,19350,1,2,0:0:0:0:
256,192,19475,1,0,0:0:0:0:
256,192,19537,1,0,0:0:0:0:
256,192,19600,1,2,0:0:0:0:
256,192,19725,1,0,0:0:0:0:
256,192,19850,1,2,0:0:0:0:
256,192,19975,1,0,0:0:0:0:
256,192,20037,1,0,0:0:0:0:
256,192,20100,1,2,0:0:0:0:
256,192,20162,1,2,0:0:0:0:
256,192,20225,1,0,0:0:0:0:
256,192,20350,1,2,0:0:0:0:
256,192,20475,1,0,0:0:0:0:
256,192,20537,1,0,0:0:0:0:
256,192,20600,1,2,0:0:0:0:
256,192,20725,1,0,0:0:0:0:
256,192,20850,1,2,0:0:0:0:
256,192,20975,1,0,0:0:0:0:
256,192,21037,1,0,0:0:0:0:
256,192,21100,1,2,0:0:0:0:
256,192,21225,1,0,0:0:0:0:
256,192,21287,1,0,0:0:0:0:
256,192,21350,1,2,0:0:0:0:
256,192,21412,1,2,0:0:0:0:
256,192,21475,1,0,0:0:0:0:
256,192,21537,1,0,0:0:0:0:
256,192,21600,1,2,0:0:0:0:
256,192,21662,1,2,0:0:0:0:
256,192,21725,1,0,0:0:0:0:
256,192,21787,1,0,0:0:0:0:
256,192,21850,1,2,0:0:0:0:
256,192,21912,1,0,0:0:0:0:
256,192,21975,1,0,0:0:0:0:
256,192,22037,1,0,0:0:0:0:
256,192,22100,1,2,0:0:0:0:
256,192,22162,1,2,0:0:0:0:
256,192,22225,1,0,0:0:0:0:
256,192,22350,1,2,0:0:0:0:
256,192,22475,1,0,0:0:0:0:
256,192,22537,1,0,0:0:0:0:
256,192,22600,1,2,0:0:0:0:
256,192,22725,1,0,0:0:0:0:
256,192,22850,1,2,0:0:0:0:
256,192,22975,1,0,0:0:0:0:
256,192,23037,1,0,0:0:0:0:
256,192,23100,1,2,0:0:0:0:
256,192,23225,1,0,0:0:0:0:
256,192,23350,1,2,0:0:0:0:
256,192,23475,1,0,0:0:0:0:
256,192,23537,1,0,0:0:0:0:
256,192,23600,1,2,0:0:0:0:
256,192,23662,1,0,0:0:0:0:
256,192,23725,1,0,0:0:0:0:
256,192,23787,1,0,0:0:0:0:
256,192,23850,1,2,0:0:0:0:
256,192,23975,1,0,0:0:0:0:
256,192,24037,1,0,0:0:0:0:
256,192,24100,1,2,0:0:0:0:
256,192,24225,1,6,0:0:0:0:
256,192,24350,1,0,0:0:0:0:
256,192,24475,1,0,0:0:0:0:
256,192,24600,1,6,0:0:0:0:
256,192,24725,1,0,0:0:0:0:
256,192,24850,1,0,0:0:0:0:
256,192,24975,1,6,0:0:0:0:
256,192,25100,1,0,0:0:0:0:
256,192,25225,1,6,0:0:0:0:
256,192,25475,1,0,0:0:0:0:
256,192,25558,1,0,0:0:0:0:
256,192,25641,1,0,0:0:0:0:
256,192,25725,1,2,0:0:0:0:
256,192,25975,1,2,0:0:0:0:
256,192,26037,1,2,0:0:0:0:
256,192,26100,1,2,0:0:0:0:
256,192,26162,1,2,0:0:0:0:
256,192,26225,1,0,0:0:0:0:
256,192,26350,1,2,0:0:0:0:
256,192,26475,1,0,0:0:0:0:
256,192,26537,1,0,0:0:0:0:
256,192,26600,1,2,0:0:0:0:
256,192,26662,1,2,0:0:0:0:
256,192,26725,1,0,0:0:0:0:
256,192,26850,1,2,0:0:0:0:
256,192,26975,1,0,0:0:0:0:
256,192,27037,1,0,0:0:0:0:
256,192,27100,1,2,0:0:0:0:
256,192,27162,1,2,0:0:0:0:
256,192,27225,1,2,0:0:0:0:
256,192,27350,1,2,0:0:0:0:
256,192,27475,1,0,0:0:0:0:
256,192,27537,1,0,0:0:0:0:
256,192,27600,1,2,0:0:0:0:
256,192,27725,1,0,0:0:0:0:
256,192,27787,1,0,0:0:0:0:
256,192,27850,1,2,0:0:0:0:
256,192,27912,1,2,0:0:0:0:
256,192,27975,1,0,0:0:0:0:
256,192,28037,1,0,0:0:0:0:
256,192,28100,1,2,0:0:0:0:
256,192,28225,1,4,0:0:0:0:
256,192,28350,1,2,0:0:0:0:
256,192,28475,1,0,0:0:0:0:
256,192,28537,1,0,0:0:0:0:
256,192,28600,1,2,0:0:0:0:
256,192,28725,1,0,0:0:0:0:
256,192,28850,1,2,0:0:0:0:
256,192,28975,1,0,0:0:0:0:
256,192,29037,1,0,0:0:0:0:
256,192,29100,1,2,0:0:0:0:
256,192,29162,1,2,0:0:0:0:
256,192,29225,1,2,0:0:0:0:
256,192,29350,1,2,0:0:0:0:
256,192,29475,1,0,0:0:0:0:
256,192,29537,1,0,0:0:0:0:
256,192,29600,1,2,0:0:0:0:
256,192,29725,1,0,0:0:0:0:
256,192,29787,1,0,0:0:0:0:
256,192,29850,1,0,0:0:0:0:
256,192,29912,1,0,0:0:0:0:
256,192,29975,1,2,0:0:0:0:
256,192,30037,1,2,0:0:0:0:
256,192,30100,1,2,0:0:0:0:
256,192,30162,1,2,0:0:0:0:
256,192,30225,1,0,0:0:0:0:
256,192,30350,1,2,0:0:0:0:
256,192,30475,1,0,0:0:0:0:
256,192,30537,1,0,0:0:0:0:
256,192,30600,1,2,0:0:0:0:
256,192,30725,1,0,0:0:0:0:
256,192,30850,1,2,0:0:0:0:
256,192,30975,1,0,0:0:0:0:
256,192,31037,1,0,0:0:0:0:
256,192,31100,1,2,0:0:0:0:
256,192,31162,1,2,0:0:0:0:
256,192,31225,1,2,0:0:0:0:
256,192,31350,1,2,0:0:0:0:
256,192,31475,1,0,0:0:0:0:
256,192,31537,1,0,0:0:0:0:
256,192,31600,1,2,0:0:0:0:
256,192,31725,1,0,0:0:0:0:
256,192,31787,1,0,0:0:0:0:
256,192,31850,1,0,0:0:0:0:
256,192,31912,1,0,0:0:0:0:
256,192,31975,1,2,0:0:0:0:
256,192,32225,1,2,0:0:0:0:
256,192,32287,1,0,0:0:0:0:
256,192,32350,1,0,0:0:0:0:
256,192,32412,1,0,0:0:0:0:
256,192,32475,1,0,0:0:0:0:
256,192,32537,1,0,0:0:0:0:
256,192,32600,1,2,0:0:0:0:
256,192,32662,1,0,0:0:0:0:
256,192,32725,1,0,0:0:0:0:
256,192,32787,1,0,0:0:0:0:
256,192,32850,1,0,0:0:0:0:
256,192,32912,1,0,0:0:0:0:
256,192,32975,1,2,0:0:0:0:
256,192,33037,1,0,0:0:0:0:
256,192,33100,1,0,0:0:0:0:
256,192,33162,1,0,0:0:0:0:
256,192,33225,1,0,0:0:0:0:
256,192,33287,1,0,0:0:0:0:
256,192,33350,1,2,0:0:0:0:
256,192,33412,1,0,0:0:0:0:
256,192,33475,1,2,0:0:0:0:
256,192,33537,1,0,0:0:0:0:
256,192,33600,1,0,0:0:0:0:
256,192,33662,1,0,0:0:0:0:
256,192,33725,1,2,0:0:0:0:
256,192,33850,1,0,0:0:0:0:
256,192,33975,1,6,0:0:0:0:
256,192,34225,1,4,0:0:0:0:
256,192,34350,1,2,0:0:0:0:
256,192,34475,1,0,0:0:0:0:
256,192,34537,1,0,0:0:0:0:
256,192,34600,1,2,0:0:0:0:
256,192,34725,1,0,0:0:0:0:
256,192,34850,1,2,0:0:0:0:
256,192,34975,1,0,0:0:0:0:
256,192,35037,1,0,0:0:0:0:
256,192,35100,1,2,0:0:0:0:
256,192,35162,1,0,0:0:0:0:
256,192,35225,1,2,0:0:0:0:
256,192,35350,1,2,0:0:0:0:
256,192,35475,1,0,0:0:0:0:
256,192,35537,1,0,0:0:0:0:
256,192,35600,1,2,0:0:0:0:
256,192,35725,1,0,0:0:0:0:
256,192,35787,1,0,0:0:0:0:
256,192,35850,1,2,0:0:0:0:
256,192,35912,1,2,0:0:0:0:
256,192,35975,1,0,0:0:0:0:
256,192,36100,1,2,0:0:0:0:
256,192,36225,1,0,0:0:0:0:
256,192,36350,1,2,0:0:0:0:
256,192,36475,1,0,0:0:0:0:
256,192,36537,1,0,0:0:0:0:
256,192,36600,1,2,0:0:0:0:
256,192,36725,1,0,0:0:0:0:
256,192,36850,1,2,0:0:0:0:
256,192,36975,1,0,0:0:0:0:
256,192,37037,1,0,0:0:0:0:
256,192,37100,1,2,0:0:0:0:
256,192,37162,1,2,0:0:0:0:
256,192,37225,1,2,0:0:0:0:
256,192,37350,1,2,0:0:0:0:
256,192,37475,1,0,0:0:0:0:
256,192,37537,1,0,0:0:0:0:
256,192,37600,1,2,0:0:0:0:
256,192,37725,1,0,0:0:0:0:
256,192,37787,1,0,0:0:0:0:
256,192,37850,1,0,0:0:0:0:
256,192,37912,1,0,0:0:0:0:
256,192,37975,1,2,0:0:0:0:
256,192,38037,1,2,0:0:0:0:
256,192,38100,1,2,0:0:0:0:
256,192,38162,1,2,0:0:0:0:
256,192,38225,1,0,0:0:0:0:
256,192,38350,1,2,0:0:0:0:
256,192,38475,1,0,0:0:0:0:
256,192,38537,1,0,0:0:0:0:
256,192,38600,1,2,0:0:0:0:
256,192,38725,1,0,0:0:0:0:
256,192,38850,1,2,0:0:0:0:
256,192,38975,1,0,0:0:0:0:
256,192,39037,1,0,0:0:0:0:
256,192,39100,1,2,0:0:0:0:
256,192,39162,1,2,0:0:0:0:
256,192,39225,1,2,0:0:0:0:
256,192,39350,1,2,0:0:0:0:
256,192,39475,1,0,0:0:0:0:
256,192,39600,1,2,0:0:0:0:
256,192,39662,1,2,0:0:0:0:
256,192,39725,1,0,0:0:0:0:
256,192,39787,1,0,0:0:0:0:
256,192,39850,1,0,0:0:0:0:
256,192,39912,1,0,0:0:0:0:
256,192,39975,1,2,0:0:0:0:
256,192,40225,1,6,0:0:0:0:
256,192,40350,1,0,0:0:0:0:
256,192,40475,1,0,0:0:0:0:
256,192,40600,1,6,0:0:0:0:
256,192,40725,1,0,0:0:0:0:
256,192,40850,1,2,0:0:0:0:
256,192,40912,1,0,0:0:0:0:
256,192,40975,1,0,0:0:0:0:
256,192,41037,1,0,0:0:0:0:
256,192,41100,1,0,0:0:0:0:
256,192,41162,1,0,0:0:0:0:
256,192,41225,1,2,0:0:0:0:
256,192,41350,1,0,0:0:0:0:
256,192,41475,1,0,0:0:0:0:
256,192,41600,1,2,0:0:0:0:
256,192,41662,1,0,0:0:0:0:
256,192,41725,1,0,0:0:0:0:
256,192,41787,1,0,0:0:0:0:
256,192,41850,1,0,0:0:0:0:
256,192,41912,1,0,0:0:0:0:
256,192,41975,1,2,0:0:0:0:
256,192,42225,1,4,0:0:0:0:
256,192,42475,1,2,0:0:0:0:
256,192,42537,1,2,0:0:0:0:
256,192,42600,1,2,0:0:0:0:
256,192,42662,1,2,0:0:0:0:
256,192,42725,1,0,0:0:0:0:
256,192,42787,1,0,0:0:0:0:
256,192,42850,1,0,0:0:0:0:
256,192,42912,1,0,0:0:0:0:
256,192,42975,1,2,0:0:0:0:
256,192,43037,1,2,0:0:0:0:
256,192,43100,1,2,0:0:0:0:
256,192,43162,1,2,0:0:0:0:
256,192,43225,1,2,0:0:0:0:
256,192,43350,1,0,0:0:0:0:
256,192,43412,1,0,0:0:0:0:
256,192,43475,1,0,0:0:0:0:
256,192,43537,1,0,0:0:0:0:
256,192,43600,1,0,0:0:0:0:
256,192,43662,1,0,0:0:0:0:
256,192,43725,1,2,0:0:0:0:
256,192,43850,1,0,0:0:0:0:
256,192,43912,1,0,0:0:0:0:
256,192,43975,1,2,0:0:0:0:
256,192,44225,1,0,0:0:0:0:
256,192,44350,1,0,0:0:0:0:
256,192,44475,1,0,0:0:0:0:
256,192,44600,1,0,0:0:0:0:
256,192,44725,1,2,0:0:0:0:
256,192,44850,1,0,0:0:0:0:
256,192,44912,1,0,0:0:0:0:
256,192,44975,1,0,0:0:0:0:
256,192,45100,1,0,0:0:0:0:
256,192,45225,1,0,0:0:0:0:
256,192,45350,1,0,0:0:0:0:
256,192,45475,1,0,0:0:0:0:
256,192,45600,1,0,0:0:0:0:
256,192,45725,1,6,0:0:0:0:
256,192,45850,1,0,0:0:0:0:
256,192,45975,1,0,0:0:0:0:
256,192,46100,1,0,0:0:0:0:
256,192,46225,1,4,0:0:0:0:
256,192,46350,1,0,0:0:0:0:
256,192,46475,1,2,0:0:0:0:
256,192,46600,1,0,0:0:0:0:
256,192,46725,1,6,0:0:0:0:
256,192,46850,1,0,0:0:0:0:
256,192,46912,1,0,0:0:0:0:
256,192,46975,1,0,0:0:0:0:
256,192,47100,1,0,0:0:0:0:
256,192,47225,1,0,0:0:0:0:
256,192,47350,1,0,0:0:0:0:
256,192,47475,1,2,0:0:0:0:
256,192,47600,1,0,0:0:0:0:
256,192,47725,1,2,0:0:0:0:
256,192,47850,1,0,0:0:0:0:
256,192,47912,1,0,0:0:0:0:
256,192,47975,1,0,0:0:0:0:
256,192,48037,1,0,0:0:0:0:
256,192,48100,1,0,0:0:0:0:
256,192,48162,1,0,0:0:0:0:
256,192,48225,1,2,0:0:0:0:
256,192,48350,1,0,0:0:0:0:
256,192,48475,1,2,0:0:0:0:
256,192,48600,1,0,0:0:0:0:
256,192,48662,1,0,0:0:0:0:
256,192,48725,1,2,0:0:0:0:
256,192,48850,1,0,0:0:0:0:
256,192,48975,1,2,0:0:0:0:
256,192,49100,1,0,0:0:0:0:
256,192,49162,1,0,0:0:0:0:
256,192,49225,1,2,0:0:0:0:
256,192,50225,1,6,0:0:0:0:
256,192,50350,1,0,0:0:0:0:
256,192,50475,1,2,0:0:0:0:
256,192,50600,1,0,0:0:0:0:
256,192,50662,1,0,0:0:0:0:
256,192,50725,1,2,0:0:0:0:
256,192,50850,1,0,0:0:0:0:
256,192,50912,1,0,0:0:0:0:
256,192,50975,1,2,0:0:0:0:
256,192,51100,1,0,0:0:0:0:
256,192,51162,1,0,0:0:0:0:
256,192,51225,1,2,0:0:0:0:
256,192,51350,1,0,0:0:0:0:
256,192,51475,1,2,0:0:0:0:
256,192,51600,1,0,0:0:0:0:
256,192,51662,1,0,0:0:0:0:
256,192,51725,1,2,0:0:0:0:
256,192,51787,1,0,0:0:0:0:
256,192,51850,1,0,0:0:0:0:
256,192,51912,1,0,0:0:0:0:
256,192,51975,1,2,0:0:0:0:
256,192,52100,1,0,0:0:0:0:
256,192,52225,1,6,0:0:0:0:
256,192,52350,1,0,0:0:0:0:
256,192,52475,1,2,0:0:0:0:
256,192,52600,1,0,0:0:0:0:
256,192,52662,1,0,0:0:0:0:
256,192,52725,1,2,0:0:0:0:
256,192,52850,1,0,0:0:0:0:
256,192,52912,1,0,0:0:0:0:
256,192,52975,1,2,0:0:0:0:
256,192,53037,1,2,0:0:0:0:
256,192,53100,1,0,0:0:0:0:
256,192,53162,1,0,0:0:0:0:
256,192,53225,1,2,0:0:0:0:
256,192,53350,1,0,0:0:0:0:
256,192,53412,1,0,0:0:0:0:
256,192,53475,1,2,0:0:0:0:
256,192,53600,1,0,0:0:0:0:
256,192,53725,1,2,0:0:0:0:
256,192,53787,1,0,0:0:0:0:
256,192,53850,1,0,0:0:0:0:
256,192,53912,1,0,0:0:0:0:
256,192,53975,1,2,0:0:0:0:
256,192,54100,1,0,0:0:0:0:
256,192,54225,1,4,0:0:0:0:
256,192,54350,1,0,0:0:0:0:
256,192,54475,1,2,0:0:0:0:
256,192,54600,1,0,0:0:0:0:
256,192,54725,1,2,0:0:0:0:
256,192,54850,1,0,0:0:0:0:
256,192,54912,1,0,0:0:0:0:
256,192,54975,1,2,0:0:0:0:
256,192,55100,1,0,0:0:0:0:
256,192,55162,1,0,0:0:0:0:
256,192,55225,1,2,0:0:0:0:
256,192,55350,1,0,0:0:0:0:
256,192,55475,1,2,0:0:0:0:
256,192,55600,1,0,0:0:0:0:
256,192,55662,1,0,0:0:0:0:
256,192,55725,1,2,0:0:0:0:
256,192,55850,1,0,0:0:0:0:
256,192,55912,1,0,0:0:0:0:
256,192,55975,1,0,0:0:0:0:
256,192,56037,1,0,0:0:0:0:
256,192,56100,1,2,0:0:0:0:
256,192,56162,1,2,0:0:0:0:
256,192,56225,1,0,0:0:0:0:
256,192,56287,1,0,0:0:0:0:
256,192,56350,1,0,0:0:0:0:
256,192,56412,1,0,0:0:0:0:
256,192,56475,1,2,0:0:0:0:
256,192,56537,1,2,0:0:0:0:
256,192,56600,1,2,0:0:0:0:
256,192,56662,1,2,0:0:0:0:
256,192,56725,1,0,0:0:0:0:
256,192,56850,1,0,0:0:0:0:
256,192,56975,1,6,0:0:0:0:
256,192,57100,1,0,0:0:0:0:
256,192,57225,1,0,0:0:0:0:
256,192,57287,1,0,0:0:0:0:
256,192,57350,1,0,0:0:0:0:
256,192,57412,1,0,0:0:0:0:
256,192,57475,1,2,0:0:0:0:
256,192,57537,1,2,0:0:0:0:
256,192,57600,1,0,0:0:0:0:
256,192,57662,1,0,0:0:0:0:
256,192,57725,1,0,0:0:0:0:
256,192,57787,1,0,0:0:0:0:
256,192,57850,1,0,0:0:0:0:
256,192,57912,1,0,0:0:0:0:
256,192,57975,1,2,0:0:0:0:
256,192,58100,1,2,0:0:0:0:
256,192,58225,1,6,0:0:0:0:
256,192,58350,1,0,0:0:0:0:
256,192,58412,1,0,0:0:0:0:
256,192,58475,1,2,0:0:0:0:
256,192,58600,1,0,0:0:0:0:
256,192,58725,1,2,0:0:0:0:
256,192,58850,1,0,0:0:0:0:
256,192,58975,1,2,0:0:0:0:
256,192,59037,1,0,0:0:0:0:
256,192,59100,1,0,0:0:0:0:
256,192,59162,1,0,0:0:0:0:
256,192,59225,1,2,0:0:0:0:
256,192,59350,1,0,0:0:0:0:
256,192,59412,1,0,0:0:0:0:
256,192,59475,1,2,0:0:0:0:
256,192,59600,1,0,0:0:0:0:
256,192,59662,1,0,0:0:0:0:
256,192,59725,1,2,0:0:0:0:
256,192,59850,1,0,0:0:0:0:
256,192,59975,1,2,0:0:0:0:
256,192,60037,1,2,0:0:0:0:
256,192,60100,1,0,0:0:0:0:
256,192,60162,1,0,0:0:0:0:
256,192,60225,1,2,0:0:0:0:
256,192,60350,1,0,0:0:0:0:
256,192,60475,1,2,0:0:0:0:
256,192,60600,1,0,0:0:0:0:
256,192,60662,1,0,0:0:0:0:
256,192,60725,1,2,0:0:0:0:
256,192,60850,1,0,0:0:0:0:
256,192,60975,1,2,0:0:0:0:
256,192,61037,1,2,0:0:0:0:
256,192,61100,1,0,0:0:0:0:
256,192,61162,1,0,0:0:0:0:
256,192,61225,1,2,0:0:0:0:
256,192,61287,1,2,0:0:0:0:
256,192,61350,1,0,0:0:0:0:
256,192,61412,1,0,0:0:0:0:
256,192,61475,1,2,0:0:0:0:
256,192,61537,1,2,0:0:0:0:
256,192,61600,1,0,0:0:0:0:
256,192,61662,1,0,0:0:0:0:
256,192,61725,1,2,0:0:0:0:
256,192,61850,1,0,0:0:0:0:
256,192,61975,1,2,0:0:0:0:
256,192,62100,1,0,0:0:0:0:
256,192,62225,1,4,0:0:0:0:
256,192,62350,1,0,0:0:0:0:
256,192,62475,1,2,0:0:0:0:
256,192,62600,1,0,0:0:0:0:
256,192,62662,1,0,0:0:0:0:
256,192,62725,1,2,0:0:0:0:
256,192,62850,1,0,0:0:0:0:
256,192,62912,1,0,0:0:0:0:
256,192,62975,1,2,0:0:0:0:
256,192,63100,1,0,0:0:0:0:
256,192,63225,1,6,0:0:0:0:
256,192,63350,1,0,0:0:0:0:
256,192,63475,1,2,0:0:0:0:
256,192,63600,1,0,0:0:0:0:
256,192,63662,1,0,0:0:0:0:
256,192,63725,1,2,0:0:0:0:
256,192,63787,1,0,0:0:0:0:
256,192,63850,1,0,0:0:0:0:
256,192,63912,1,0,0:0:0:0:
256,192,63975,1,2,0:0:0:0:
256,192,64100,1,0,0:0:0:0:
256,192,64225,1,4,0:0:0:0:
256,192,64350,1,2,0:0:0:0:
256,192,64412,1,2,0:0:0:0:
256,192,64475,1,0,0:0:0:0:
256,192,64537,1,0,0:0:0:0:
256,192,64600,1,0,0:0:0:0:
256,192,64662,1,0,0:0:0:0:
256,192,64725,1,0,0:0:0:0:
256,192,64850,1,0,0:0:0:0:
256,192,64975,1,0,0:0:0:0:
256,192,65100,1,0,0:0:0:0:
256,192,65162,1,0,0:0:0:0:
256,192,65225,1,2,0:0:0:0:
256,192,65725,1,6,0:0:0:0:
256,192,66225,1,6,0:0:0:0:
256,192,66350,1,2,0:0:0:0:
256,192,66475,1,0,0:0:0:0:
256,192,66537,1,0,0:0:0:0:
256,192,66600,1,2,0:0:0:0:
256,192,66725,1,0,0:0:0:0:
256,192,66850,1,2,0:0:0:0:
256,192,66975,1,0,0:0:0:0:
256,192,67037,1,0,0:0:0:0:
256,192,67100,1,2,0:0:0:0:
256,192,67225,1,0,0:0:0:0:
256,192,67350,1,2,0:0:0:0:
256,192,67412,1,2,0:0:0:0:
256,192,67475,1,0,0:0:0:0:
256,192,67537,1,0,0:0:0:0:
256,192,67600,1,2,0:0:0:0:
256,192,67725,1,0,0:0:0:0:
256,192,67787,1,0,0:0:0:0:
256,192,67850,1,2,0:0:0:0:
256,192,67912,1,2,0:0:0:0:
256,192,67975,1,0,0:0:0:0:
256,192,68100,1,2,0:0:0:0:
256,192,68225,1,0,0:0:0:0:
256,192,68350,1,2,0:0:0:0:
256,192,68475,1,0,0:0:0:0:
256,192,68538,1,0,0:0:0:0:
256,192,68600,1,2,0:0:0:0:
256,192,68725,1,0,0:0:0:0:
256,192,68850,1,2,0:0:0:0:
256,192,68975,1,0,0:0:0:0:
256,192,69037,1,0,0:0:0:0:
256,192,69100,1,2,0:0:0:0:
256,192,69225,1,0,0:0:0:0:
256,192,69287,1,0,0:0:0:0:
256,192,69350,1,2,0:0:0:0:
256,192,69412,1,2,0:0:0:0:
256,192,69475,1,0,0:0:0:0:
256,192,69537,1,0,0:0:0:0:
256,192,69600,1,2,0:0:0:0:
256,192,69662,1,2,0:0:0:0:
256,192,69725,1,0,0:0:0:0:
256,192,69787,1,0,0:0:0:0:
256,192,69850,1,0,0:0:0:0:
256,192,69912,1,0,0:0:0:0:
256,192,69975,1,2,0:0:0:0:
256,192,70037,1,2,0:0:0:0:
256,192,70100,1,2,0:0:0:0:
256,192,70162,1,2,0:0:0:0:
256,192,70225,1,0,0:0:0:0:
256,192,70350,1,2,0:0:0:0:
256,192,70475,1,0,0:0:0:0:
256,192,70537,1,0,0:0:0:0:
256,192,70600,1,2,0:0:0:0:
256,192,70725,1,0,0:0:0:0:
256,192,70850,1,2,0:0:0:0:
256,192,70975,1,0,0:0:0:0:
256,192,71037,1,0,0:0:0:0:
256,192,71100,1,2,0:0:0:0:
256,192,71225,1,0,0:0:0:0:
256,192,71287,1,0,0:0:0:0:
256,192,71350,1,2,0:0:0:0:
256,192,71412,1,0,0:0:0:0:
256,192,71475,1,0,0:0:0:0:
256,192,71537,1,0,0:0:0:0:
256,192,71600,1,2,0:0:0:0:
256,192,71725,1,0,0:0:0:0:
256,192,71850,1,2,0:0:0:0:
256,192,71912,1,2,0:0:0:0:
256,192,71975,1,0,0:0:0:0:
256,192,72037,1,0,0:0:0:0:
256,192,72100,1,2,0:0:0:0:
256,192,72225,1,2,0:0:0:0:
256,192,72287,1,2,0:0:0:0:
256,192,72350,1,0,0:0:0:0:
256,192,72412,1,0,0:0:0:0:
256,192,72475,1,2,0:0:0:0:
256,192,72537,1,2,0:0:0:0:
256,192,72600,1,0,0:0:0:0:
256,192,72662,1,0,0:0:0:0:
256,192,72725,1,2,0:0:0:0:
256,192,72787,1,2,0:0:0:0:
256,192,72850,1,0,0:0:0:0:
256,192,72912,1,0,0:0:0:0:
256,192,72975,1,2,0:0:0:0:
256,192,73037,1,2,0:0:0:0:
256,192,73100,1,0,0:0:0:0:
256,192,73162,1,0,0:0:0:0:
256,192,73225,1,2,0:0:0:0:
256,192,73475,1,2,0:0:0:0:
256,192,73537,1,2,0:0:0:0:
256,192,73600,1,2,0:0:0:0:
256,192,73662,1,2,0:0:0:0:
256,192,73725,1,0,0:0:0:0:
256,192,73787,1,0,0:0:0:0:
256,192,73850,1,0,0:0:0:0:
256,192,73912,1,0,0:0:0:0:
256,192,73975,1,2,0:0:0:0:
256,192,74037,1,2,0:0:0:0:
256,192,74100,1,2,0:0:0:0:
256,192,74225,1,4,0:0:0:0:
256,192,75225,1,6,0:0:0:0:
256,192,75350,1,0,0:0:0:0:
256,192,75475,1,6,0:0:0:0:
256,192,75600,1,0,0:0:0:0:
256,192,75725,1,6,0:0:0:0:
256,192,75850,1,0,0:0:0:0:
256,192,75975,1,6,0:0:0:0:
256,192,76100,1,0,0:0:0:0:
256,192,76225,1,6,0:0:0:0:
256,192,76350,1,2,0:0:0:0:
256,192,76475,1,0,0:0:0:0:
256,192,76537,1,0,0:0:0:0:
256,192,76600,1,2,0:0:0:0:
256,192,76725,1,0,0:0:0:0:
256,192,76850,1,2,0:0:0:0:
256,192,76975,1,0,0:0:0:0:
256,192,77037,1,2,0:0:0:0:
256,192,77100,1,2,0:0:0:0:
256,192,77225,1,0,0:0:0:0:
256,192,77287,1,0,0:0:0:0:
256,192,77350,1,2,0:0:0:0:
256,192,77412,1,2,0:0:0:0:
256,192,77475,1,0,0:0:0:0:
256,192,77537,1,0,0:0:0:0:
256,192,77600,1,2,0:0:0:0:
256,192,77662,1,2,0:0:0:0:
256,192,77725,1,0,0:0:0:0:
256,192,77787,1,2,0:0:0:0:
256,192,77850,1,0,0:0:0:0:
256,192,77912,1,0,0:0:0:0:
256,192,77975,1,2,0:0:0:0:
256,192,78037,1,2,0:0:0:0:
256,192,78100,1,2,0:0:0:0:
256,192,78162,1,2,0:0:0:0:
256,192,78225,1,0,0:0:0:0:
256,192,78350,1,2,0:0:0:0:
256,192,78475,1,0,0:0:0:0:
256,192,78537,1,0,0:0:0:0:
256,192,78600,1,2,0:0:0:0:
256,192,78725,1,0,0:0:0:0:
256,192,78850,1,2,0:0:0:0:
256,192,78912,1,2,0:0:0:0:
256,192,78975,1,0,0:0:0:0:
256,192,79037,1,0,0:0:0:0:
256,192,79100,1,2,0:0:0:0:
256,192,79225,1,0,0:0:0:0:
256,192,79349,1,2,0:0:0:0:
256,192,79475,1,0,0:0:0:0:
256,192,79537,1,0,0:0:0:0:
256,192,79600,1,2,0:0:0:0:
256,192,79725,1,0,0:0:0:0:
256,192,79787,1,0,0:0:0:0:
256,192,79850,1,2,0:0:0:0:
256,192,79912,1,2,0:0:0:0:
256,192,79975,1,0,0:0:0:0:
256,192,80037,1,0,0:0:0:0:
256,192,80100,1,2,0:0:0:0:
256,192,80225,1,6,0:0:0:0:
256,192,80350,1,0,0:0:0:0:
256,192,80475,1,0,0:0:0:0:
256,192,80600,1,6,0:0:0:0:
256,192,80725,1,0,0:0:0:0:
256,192,80850,1,0,0:0:0:0:
256,192,80975,1,6,0:0:0:0:
256,192,81100,1,0,0:0:0:0:
256,192,81225,1,6,0:0:0:0:
256,192,81475,1,0,0:0:0:0:
256,192,81558,1,0,0:0:0:0:
256,192,81641,1,0,0:0:0:0:
256,192,81725,1,2,0:0:0:0:
256,192,81808,1,2,0:0:0:0:
256,192,81891,1,2,0:0:0:0:
256,192,81975,1,2,0:0:0:0:
256,192,82037,1,2,0:0:0:0:
256,192,82100,1,2,0:0:0:0:
256,192,82162,1,2,0:0:0:0:
256,192,82225,1,0,0:0:0:0:
256,192,82350,1,2,0:0:0:0:
256,192,82475,1,0,0:0:0:0:
256,192,82537,1,0,0:0:0:0:
256,192,82600,1,2,0:0:0:0:
256,192,82662,1,2,0:0:0:0:
256,192,82725,1,2,0:0:0:0:
256,192,82850,1,2,0:0:0:0:
256,192,82975,1,0,0:0:0:0:
256,192,83037,1,0,0:0:0:0:
256,192,83100,1,2,0:0:0:0:
256,192,83162,1,2,0:0:0:0:
256,192,83225,1,0,0:0:0:0:
256,192,83350,1,2,0:0:0:0:
256,192,83412,1,0,0:0:0:0:
256,192,83475,1,0,0:0:0:0:
256,192,83600,1,2,0:0:0:0:
256,192,83725,1,0,0:0:0:0:
256,192,83850,1,2,0:0:0:0:
256,192,83912,1,2,0:0:0:0:
256,192,83975,1,0,0:0:0:0:
256,192,84037,1,0,0:0:0:0:
256,192,84100,1,2,0:0:0:0:
256,192,84225,1,0,0:0:0:0:
256,192,84350,1,2,0:0:0:0:
256,192,84475,1,0,0:0:0:0:
256,192,84537,1,0,0:0:0:0:
256,192,84600,1,2,0:0:0:0:
256,192,84725,1,0,0:0:0:0:
256,192,84787,1,0,0:0:0:0:
256,192,84850,1,2,0:0:0:0:
256,192,84912,1,2,0:0:0:0:
256,192,84975,1,0,0:0:0:0:
256,192,85037,1,0,0:0:0:0:
256,192,85100,1,2,0:0:0:0:
256,192,85225,1,0,0:0:0:0:
256,192,85350,1,2,0:0:0:0:
256,192,85412,1,2,0:0:0:0:
256,192,85475,1,0,0:0:0:0:
256,192,85600,1,2,0:0:0:0:
256,192,85725,1,0,0:0:0:0:
256,192,85787,1,0,0:0:0:0:
256,192,85850,1,2,0:0:0:0:
256,192,85975,1,0,0:0:0:0:
256,192,86100,1,2,0:0:0:0:
256,192,86225,1,0,0:0:0:0:
256,192,86287,1,0,0:0:0:0:
256,192,86350,1,2,0:0:0:0:
256,192,86412,1,2,0:0:0:0:
256,192,86475,1,0,0:0:0:0:
256,192,86600,1,2,0:0:0:0:
256,192,86725,1,0,0:0:0:0:
256,192,86850,1,2,0:0:0:0:
256,192,86912,1,2,0:0:0:0:
256,192,86975,1,0,0:0:0:0:
256,192,87037,1,0,0:0:0:0:
256,192,87100,1,2,0:0:0:0:
256,192,87162,1,2,0:0:0:0:
256,192,87225,1,2,0:0:0:0:
256,192,87350,1,2,0:0:0:0:
256,192,87475,1,2,0:0:0:0:
256,192,87600,1,0,0:0:0:0:
256,192,87662,1,0,0:0:0:0:
256,192,87725,1,2,0:0:0:0:
256,192,87850,1,0,0:0:0:0:
256,192,87975,1,2,0:0:0:0:
256,192,88037,1,2,0:0:0:0:
256,192,88100,1,0,0:0:0:0:
256,192,88162,1,0,0:0:0:0:
256,192,88225,1,2,0:0:0:0:
256,192,88287,1,0,0:0:0:0:
256,192,88350,1,0,0:0:0:0:
256,192,88412,1,0,0:0:0:0:
256,192,88475,1,0,0:0:0:0:
256,192,88537,1,0,0:0:0:0:
256,192,88600,1,0,0:0:0:0:
256,192,88662,1,0,0:0:0:0:
256,192,88725,1,2,0:0:0:0:
256,192,88787,1,0,0:0:0:0:
256,192,88850,1,0,0:0:0:0:
256,192,88912,1,0,0:0:0:0:
256,192,88975,1,2,0:0:0:0:
256,192,89037,1,0,0:0:0:0:
256,192,89100,1,0,0:0:0:0:
256,192,89162,1,0,0:0:0:0:
256,192,89225,1,0,0:0:0:0:
256,192,89287,1,0,0:0:0:0:
256,192,89350,1,2,0:0:0:0:
256,192,89412,1,0,0:0:0:0:
256,192,89475,1,0,0:0:0:0:
256,192,89537,1,0,0:0:0:0:
256,192,89600,1,0,0:0:0:0:
256,192,89662,1,0,0:0:0:0:
256,192,89725,1,2,0:0:0:0:
256,192,89787,1,2,0:0:0:0:
256,192,89850,1,2,0:0:0:0:
256,192,89912,1,2,0:0:0:0:
256,192,89975,1,0,0:0:0:0:
256,192,90037,1,0,0:0:0:0:
256,192,90100,1,0,0:0:0:0:
256,192,90225,1,0,0:0:0:0:
256,192,90350,1,2,0:0:0:0:
256,192,90475,1,0,0:0:0:0:
256,192,90537,1,0,0:0:0:0:
256,192,90600,1,2,0:0:0:0:
256,192,90725,1,0,0:0:0:0:
256,192,90850,1,2,0:0:0:0:
256,192,90975,1,0,0:0:0:0:
256,192,91037,1,0,0:0:0:0:
256,192,91100,1,2,0:0:0:0:
256,192,91162,1,2,0:0:0:0:
256,192,91225,1,0,0:0:0:0:
256,192,91350,1,2,0:0:0:0:
256,192,91475,1,0,0:0:0:0:
256,192,91537,1,0,0:0:0:0:
256,192,91600,1,2,0:0:0:0:
256,192,91662,1,2,0:0:0:0:
256,192,91725,1,0,0:0:0:0:
256,192,91787,1,0,0:0:0:0:
256,192,91850,1,2,0:0:0:0:
256,192,91912,1,2,0:0:0:0:
256,192,91975,1,0,0:0:0:0:
256,192,92100,1,2,0:0:0:0:
256,192,92225,1,0,0:0:0:0:
256,192,92350,1,2,0:0:0:0:
256,192,92475,1,0,0:0:0:0:
256,192,92538,1,0,0:0:0:0:
256,192,92600,1,2,0:0:0:0:
256,192,92725,1,0,0:0:0:0:
256,192,92850,1,2,0:0:0:0:
256,192,92975,1,0,0:0:0:0:
256,192,93037,1,0,0:0:0:0:
256,192,93100,1,2,0:0:0:0:
256,192,93162,1,2,0:0:0:0:
256,192,93225,1,2,0:0:0:0:
256,192,93350,1,0,0:0:0:0:
256,192,93475,1,0,0:0:0:0:
256,192,93537,1,0,0:0:0:0:
256,192,93600,1,2,0:0:0:0:
256,192,93662,1,2,0:0:0:0:
256,192,93725,1,0,0:0:0:0:
256,192,93850,1,2,0:0:0:0:
256,192,93975,1,0,0:0:0:0:
256,192,94037,1,2,0:0:0:0:
256,192,94100,1,2,0:0:0:0:
256,192,94162,1,2,0:0:0:0:
256,192,94225,1,0,0:0:0:0:
256,192,94350,1,2,0:0:0:0:
256,192,94475,1,0,0:0:0:0:
256,192,94537,1,0,0:0:0:0:
256,192,94600,1,2,0:0:0:0:
256,192,94725,1,0,0:0:0:0:
256,192,94850,1,2,0:0:0:0:
256,192,94912,1,2,0:0:0:0:
256,192,94975,1,0,0:0:0:0:
256,192,95037,1,0,0:0:0:0:
256,192,95100,1,2,0:0:0:0:
256,192,95162,1,0,0:0:0:0:
256,192,95225,1,2,0:0:0:0:
256,192,95350,1,2,0:0:0:0:
256,192,95475,1,0,0:0:0:0:
256,192,95537,1,0,0:0:0:0:
256,192,95600,1,2,0:0:0:0:
256,192,95725,1,0,0:0:0:0:
256,192,95787,1,0,0:0:0:0:
256,192,95850,1,0,0:0:0:0:
256,192,95912,1,0,0:0:0:0:
256,192,95975,1,2,0:0:0:0:
256,192,96225,1,6,0:0:0:0:
256,192,96350,1,0,0:0:0:0:
256,192,96475,1,0,0:0:0:0:
256,192,96600,1,6,0:0:0:0:
256,192,96725,1,0,0:0:0:0:
256,192,96787,1,0,0:0:0:0:
256,192,96850,1,2,0:0:0:0:
256,192,96912,1,0,0:0:0:0:
256,192,96975,1,0,0:0:0:0:
256,192,97037,1,0,0:0:0:0:
256,192,97100,1,0,0:0:0:0:
256,192,97162,1,0,0:0:0:0:
256,192,97225,1,2,0:0:0:0:
256,192,97287,1,2,0:0:0:0:
256,192,97350,1,0,0:0:0:0:
256,192,97412,1,0,0:0:0:0:
256,192,97475,1,0,0:0:0:0:
256,192,97537,1,0,0:0:0:0:
256,192,97600,1,2,0:0:0:0:
256,192,97662,1,2,0:0:0:0:
256,192,97725,1,0,0:0:0:0:
256,192,97787,1,0,0:0:0:0:
256,192,97850,1,0,0:0:0:0:
256,192,97912,1,0,0:0:0:0:
256,192,97975,1,2,0:0:0:0:
256,192,98225,1,6,0:0:0:0:
256,192,98350,1,0,0:0:0:0:
256,192,98475,1,2,0:0:0:0:
256,192,98600,1,0,0:0:0:0:
256,192,98725,1,2,0:0:0:0:
256,192,98850,1,0,0:0:0:0:
256,192,98912,1,0,0:0:0:0:
256,192,98975,1,2,0:0:0:0:
256,192,99100,1,0,0:0:0:0:
256,192,99225,1,6,0:0:0:0:
256,192,99350,1,0,0:0:0:0:
256,192,99475,1,2,0:0:0:0:
256,192,99537,1,0,0:0:0:0:
256,192,99600,1,0,0:0:0:0:
256,192,99662,1,0,0:0:0:0:
256,192,99725,1,2,0:0:0:0:
256,192,99787,1,2,0:0:0:0:
256,192,99850,1,0,0:0:0:0:
256,192,99912,1,0,0:0:0:0:
256,192,99975,1,2,0:0:0:0:
256,192,100037,1,2,0:0:0:0:
256,192,100100,1,0,0:0:0:0:
256,192,100225,1,4,0:0:0:0:
256,192,100350,1,0,0:0:0:0:
256,192,100475,1,0,0:0:0:0:
256,192,100600,1,0,0:0:0:0:
256,192,100725,1,6,0:0:0:0:
256,192,100850,1,0,0:0:0:0:
256,192,100912,1,0,0:0:0:0:
256,192,100975,1,0,0:0:0:0:
256,192,101100,1,0,0:0:0:0:
256,192,101225,1,0,0:0:0:0:
256,192,101350,1,0,0:0:0:0:
256,192,101475,1,0,0:0:0:0:
256,192,101600,1,0,0:0:0:0:
256,192,101725,1,6,0:0:0:0:
256,192,101850,1,0,0:0:0:0:
256,192,101975,1,0,0:0:0:0:
256,192,102100,1,0,0:0:0:0:
256,192,102225,1,4,0:0:0:0:
256,192,102350,1,0,0:0:0:0:
256,192,102475,1,0,0:0:0:0:
256,192,102600,1,0,0:0:0:0:
256,192,102725,1,6,0:0:0:0:
256,192,102850,1,0,0:0:0:0:
256,192,102975,1,0,0:0:0:0:
256,192,103037,1,0,0:0:0:0:
256,192,103100,1,0,0:0:0:0:
256,192,103162,1,0,0:0:0:0:
256,192,103225,1,2,0:0:0:0:
256,192,103350,1,0,0:0:0:0:
256,192,103475,1,0,0:0:0:0:
256,192,103537,1,0,0:0:0:0:
256,192,103600,1,0,0:0:0:0:
256,192,103662,1,0,0:0:0:0:
256,192,103725,1,2,0:0:0:0:
256,192,103850,1,0,0:0:0:0:
256,192,103975,1,6,0:0:0:0:
256,192,104100,1,0,0:0:0:0:
256,192,104225,1,6,0:0:0:0:
256,192,104350,1,0,0:0:0:0:
256,192,104475,1,2,0:0:0:0:
256,192,104600,1,0,0:0:0:0:
256,192,104662,1,0,0:0:0:0:
256,192,104725,1,2,0:0:0:0:
256,192,104850,1,0,0:0:0:0:
256,192,104975,1,2,0:0:0:0:
256,192,105100,1,0,0:0:0:0:
256,192,105162,1,0,0:0:0:0:
256,192,105225,1,0,0:0:0:0:
256,192,105350,1,0,0:0:0:0:
256,192,105412,1,0,0:0:0:0:
256,192,105475,1,2,0:0:0:0:
256,192,105537,1,2,0:0:0:0:
256,192,105600,1,2,0:0:0:0:
256,192,105662,1,2,0:0:0:0:
256,192,105725,1,0,0:0:0:0:
256,192,105787,1,0,0:0:0:0:
256,192,105850,1,0,0:0:0:0:
256,192,105912,1,0,0:0:0:0:
256,192,105975,1,2,0:0:0:0:
256,192,106225,1,6,0:0:0:0:
256,192,106350,1,0,0:0:0:0:
256,192,106475,1,2,0:0:0:0:
256,192,106600,1,0,0:0:0:0:
256,192,106662,1,0,0:0:0:0:
256,192,106725,1,2,0:0:0:0:
256,192,106850,1,0,0:0:0:0:
256,192,106912,1,0,0:0:0:0:
256,192,106975,1,2,0:0:0:0:
256,192,107037,1,0,0:0:0:0:
256,192,107100,1,0,0:0:0:0:
256,192,107162,1,0,0:0:0:0:
256,192,107225,1,2,0:0:0:0:
256,192,107350,1,0,0:0:0:0:
256,192,107412,1,0,0:0:0:0:
256,192,107475,1,2,0:0:0:0:
256,192,107600,1,0,0:0:0:0:
256,192,107725,1,2,0:0:0:0:
256,192,107850,1,0,0:0:0:0:
256,192,107975,1,2,0:0:0:0:
256,192,108037,1,0,0:0:0:0:
256,192,108100,1,0,0:0:0:0:
256,192,108162,1,0,0:0:0:0:
256,192,108225,1,2,0:0:0:0:
256,192,108350,1,0,0:0:0:0:
256,192,108475,1,2,0:0:0:0:
256,192,108600,1,0,0:0:0:0:
256,192,108662,1,0,0:0:0:0:
256,192,108725,1,2,0:0:0:0:
256,192,108850,1,0,0:0:0:0:
256,192,108975,1,2,0:0:0:0:
256,192,109037,1,2,0:0:0:0:
256,192,109100,1,0,0:0:0:0:
256,192,109162,1,0,0:0:0:0:
256,192,109225,1,2,0:0:0:0:
256,192,109350,1,0,0:0:0:0:
256,192,109475,1,2,0:0:0:0:
256,192,109537,1,2,0:0:0:0:
256,192,109600,1,0,0:0:0:0:
256,192,109662,1,0,0:0:0:0:
256,192,109725,1,2,0:0:0:0:
256,192,109787,1,2,0:0:0:0:
256,192,109850,1,0,0:0:0:0:
256,192,109975,1,2,0:0:0:0:
256,192,110100,1,0,0:0:0:0:
256,192,110225,1,6,0:0:0:0:
256,192,110350,1,0,0:0:0:0:
256,192,110475,1,2,0:0:0:0:
256,192,110600,1,0,0:0:0:0:
256,192,110662,1,0,0:0:0:0:
256,192,110725,1,2,0:0:0:0:
256,192,110850,1,0,0:0:0:0:
256,192,110912,1,0,0:0:0:0:
256,192,110975,1,2,0:0:0:0:
256,192,111037,1,2,0:0:0:0:
256,192,111100,1,0,0:0:0:0:
256,192,111162,1,0,0:0:0:0:
256,192,111225,1,2,0:0:0:0:
256,192,111350,1,0,0:0:0:0:
256,192,111475,1,2,0:0:0:0:
256,192,111537,1,0,0:0:0:0:
256,192,111600,1,0,0:0:0:0:
256,192,111662,1,0,0:0:0:0:
256,192,111725,1,2,0:0:0:0:
256,192,111850,1,0,0:0:0:0:
256,192,111975,1,2,0:0:0:0:
256,192,112037,1,2,0:0:0:0:
256,192,112100,1,0,0:0:0:0:
256,192,112162,1,0,0:0:0:0:
256,192,112225,1,2,0:0:0:0:
256,192,112287,1,2,0:0:0:0:
256,192,112350,1,2,0:0:0:0:
256,192,112412,1,2,0:0:0:0:
256,192,112475,1,0,0:0:0:0:
256,192,112537,1,0,0:0:0:0:
256,192,112600,1,0,0:0:0:0:
256,192,112662,1,0,0:0:0:0:
256,192,112725,1,0,0:0:0:0:
256,192,112850,1,0,0:0:0:0:
256,192,112912,1,0,0:0:0:0:
256,192,112975,1,2,0:0:0:0:
256,192,113037,1,2,0:0:0:0:
256,192,113100,1,0,0:0:0:0:
256,192,113162,1,0,0:0:0:0:
256,192,113225,1,0,0:0:0:0:
256,192,113350,1,0,0:0:0:0:
256,192,113412,1,0,0:0:0:0:
256,192,113475,1,2,0:0:0:0:
256,192,113537,1,2,0:0:0:0:
256,192,113600,1,0,0:0:0:0:
256,192,113662,1,0,0:0:0:0:
256,192,113725,1,0,0:0:0:0:
256,192,113787,1,0,0:0:0:0:
256,192,113850,1,0,0:0:0:0:
256,192,113912,1,0,0:0:0:0:
256,192,113975,1,2,0:0:0:0:
256,192,114037,1,2,0:0:0:0:
256,192,114100,1,0,0:0:0:0:
256,192,114225,1,6,0:0:0:0:
256,192,114350,1,0,0:0:0:0:
256,192,114475,1,2,0:0:0:0:
256,192,114600,1,0,0:0:0:0:
256,192,114663,1,0,0:0:0:0:
256,192,114725,1,2,0:0:0:0:
256,192,114850,1,0,0:0:0:0:
256,192,114912,1,0,0:0:0:0:
256,192,114975,1,2,0:0:0:0:
256,192,115037,1,0,0:0:0:0:
256,192,115100,1,0,0:0:0:0:
256,192,115162,1,0,0:0:0:0:
256,192,115225,1,2,0:0:0:0:
256,192,115350,1,0,0:0:0:0:
256,192,115412,1,0,0:0:0:0:
256,192,115475,1,2,0:0:0:0:
256,192,115600,1,0,0:0:0:0:
256,192,115725,1,2,0:0:0:0:
256,192,115850,1,0,0:0:0:0:
256,192,115912,1,0,0:0:0:0:
256,192,115975,1,2,0:0:0:0:
256,192,116037,1,2,0:0:0:0:
256,192,116100,1,0,0:0:0:0:
256,192,116162,1,0,0:0:0:0:
256,192,116225,1,2,0:0:0:0:
256,192,116350,1,0,0:0:0:0:
256,192,116475,1,2,0:0:0:0:
256,192,116537,1,0,0:0:0:0:
256,192,116600,1,0,0:0:0:0:
256,192,116662,1,0,0:0:0:0:
256,192,116725,1,2,0:0:0:0:
256,192,116787,1,2,0:0:0:0:
256,192,116850,1,0,0:0:0:0:
256,192,116912,1,0,0:0:0:0:
256,192,116975,1,2,0:0:0:0:
256,192,117037,1,2,0:0:0:0:
256,192,117100,1,0,0:0:0:0:
256,192,117225,1,6,0:0:0:0:
256,192,117350,1,0,0:0:0:0:
256,192,117475,1,2,0:0:0:0:
256,192,117537,1,2,0:0:0:0:
256,192,117600,1,0,0:0:0:0:
256,192,117662,1,0,0:0:0:0:
256,192,117725,1,2,0:0:0:0:
256,192,117787,1,2,0:0:0:0:
256,192,117850,1,0,0:0:0:0:
256,192,117912,1,0,0:0:0:0:
256,192,117975,1,2,0:0:0:0:
256,192,118037,1,0,0:0:0:0:
256,192,118100,1,0,0:0:0:0:
256,192,118225,1,2,0:0:0:0:
256,192,118350,1,0,0:0:0:0:
256,192,118475,1,2,0:0:0:0:
256,192,118600,1,0,0:0:0:0:
256,192,118663,1,0,0:0:0:0:
256,192,118725,1,2,0:0:0:0:
256,192,118850,1,0,0:0:0:0:
256,192,118912,1,0,0:0:0:0:
256,192,118975,1,2,0:0:0:0:
256,192,119037,1,2,0:0:0:0:
256,192,119100,1,0,0:0:0:0:
256,192,119162,1,0,0:0:0:0:
256,192,119225,1,2,0:0:0:0:
256,192,119350,1,0,0:0:0:0:
256,192,119412,1,0,0:0:0:0:
256,192,119475,1,2,0:0:0:0:
256,192,119600,1,0,0:0:0:0:
256,192,119725,1,2,0:0:0:0:
256,192,119850,1,0,0:0:0:0:
256,192,119912,1,0,0:0:0:0:
256,192,119975,1,2,0:0:0:0:
256,192,120037,1,2,0:0:0:0:
256,192,120100,1,0,0:0:0:0:
256,192,120162,1,0,0:0:0:0:
256,192,120225,1,2,0:0:0:0:
256,192,120308,1,0,0:0:0:0:
256,192,120392,1,0,0:0:0:0:
256,192,120475,1,0,0:0:0:0:
256,192,120558,1,0,0:0:0:0:
256,192,120642,1,0,0:0:0:0:
256,192,120725,1,2,0:0:0:0:
256,192,120808,1,0,0:0:0:0:
256,192,120891,1,0,0:0:0:0:
256,192,120975,1,0,0:0:0:0:
256,192,121058,1,0,0:0:0:0:
256,192,121141,1,0,0:0:0:0:
256,192,121225,1,0,0:0:0:0:
256,192,121725,1,4,0:0:0:0:
256,192,122225,1,4,0:0:0:0:
256,192,122475,1,2,0:0:0:0:
256,192,122600,1,2,0:0:0:0:
256,192,122662,1,2,0:0:0:0:
256,192,122725,1,2,0:0:0:0:
256,192,122787,1,2,0:0:0:0:
256,192,122850,1,0,0:0:0:0:
256,192,122912,1,0,0:0:0:0:
256,192,122975,1,2,0:0:0:0:
256,192,123037,1,2,0:0:0:0:
256,192,123100,1,2,0:0:0:0:
256,192,123162,1,2,0:0:0:0:
256,192,123225,1,0,0:0:0:0:
256,192,123287,1,0,0:0:0:0:
256,192,123350,1,0,0:0:0:0:
256,192,123412,1,2,0:0:0:0:
256,192,123475,1,2,0:0:0:0:
256,192,123537,1,2,0:0:0:0:
256,192,123600,1,0,0:0:0:0:
256,192,123662,1,0,0:0:0:0:
256,192,123725,1,0,0:0:0:0:
256,192,123787,1,0,0:0:0:0:
256,192,123850,1,0,0:0:0:0:
256,192,123912,1,0,0:0:0:0:
256,192,123975,1,2,0:0:0:0:
256,192,124225,1,6,0:0:0:0:
256,192,124350,1,0,0:0:0:0:
256,192,124475,1,0,0:0:0:0:
256,192,124600,1,0,0:0:0:0:
256,192,124725,1,4,0:0:0:0:
256,192,124850,1,0,0:0:0:0:
256,192,124975,1,0,0:0:0:0:
256,192,125100,1,0,0:0:0:0:
256,192,125225,1,6,0:0:0:0:
256,192,125350,1,0,0:0:0:0:
256,192,125475,1,0,0:0:0:0:
256,192,125600,1,0,0:0:0:0:
256,192,125725,1,4,0:0:0:0:
256,192,125850,1,0,0:0:0:0:
256,192,125975,1,0,0:0:0:0:
256,192,126037,1,0,0:0:0:0:
256,192,126100,1,0,0:0:0:0:
256,192,126162,1,0,0:0:0:0:
256,192,126225,1,2,0:0:0:0:
256,192,126350,1,0,0:0:0:0:
256,192,126475,1,0,0:0:0:0:
256,192,126600,1,0,0:0:0:0:
256,192,126725,1,4,0:0:0:0:
256,192,126850,1,0,0:0:0:0:
256,192,126975,1,0,0:0:0:0:
256,192,127037,1,0,0:0:0:0:
256,192,127100,1,0,0:0:0:0:
256,192,127162,1,0,0:0:0:0:
256,192,127225,1,2,0:0:0:0:
256,192,127350,1,0,0:0:0:0:
256,192,127475,1,0,0:0:0:0:
256,192,127600,1,0,0:0:0:0:
256,192,127725,1,2,0:0:0:0:
256,192,127808,1,0,0:0:0:0:
256,192,127891,1,0,0:0:0:0:
256,192,127975,1,0,0:0:0:0:
256,192,128058,1,0,0:0:0:0:
256,192,128141,1,0,0:0:0:0:
256,192,128224,1,2,0:0:0:0:
256,192,128350,1,0,0:0:0:0:
256,192,128475,1,0,0:0:0:0:
256,192,128600,1,0,0:0:0:0:
256,192,128725,1,4,0:0:0:0:
256,192,128850,1,0,0:0:0:0:
256,192,128975,1,0,0:0:0:0:
256,192,129037,1,0,0:0:0:0:
256,192,129100,1,0,0:0:0:0:
256,192,129162,1,0,0:0:0:0:
256,192,129225,1,2,0:0:0:0:
256,192,129350,1,0,0:0:0:0:
256,192,129475,1,0,0:0:0:0:
256,192,129600,1,0,0:0:0:0:
256,192,129725,1,4,0:0:0:0:
256,192,129850,1,0,0:0:0:0:
256,192,129975,1,0,0:0:0:0:
256,192,130100,1,0,0:0:0:0:
256,192,130225,1,6,0:0:0:0:
256,192,130350,1,0,0:0:0:0:
256,192,130412,1,0,0:0:0:0:
256,192,130475,1,2,0:0:0:0:
256,192,130537,1,2,0:0:0:0:
256,192,130600,1,2,0:0:0:0:
256,192,130662,1,2,0:0:0:0:
256,192,130725,1,0,0:0:0:0:
256,192,130787,1,0,0:0:0:0:
256,192,130850,1,0,0:0:0:0:
256,192,130912,1,0,0:0:0:0:
256,192,130975,1,2,0:0:0:0:
256,192,131037,1,0,0:0:0:0:
256,192,131100,1,0,0:0:0:0:
256,192,131225,1,0,0:0:0:0:
256,192,131288,1,0,0:0:0:0:
256,192,131350,1,0,0:0:0:0:
256,192,131413,1,0,0:0:0:0:
256,192,131475,1,2,0:0:0:0:
256,192,131538,1,2,0:0:0:0:
256,192,131600,1,2,0:0:0:0:
256,192,131663,1,2,0:0:0:0:
256,192,131725,1,0,0:0:0:0:
256,192,131787,1,0,0:0:0:0:
256,192,131850,1,0,0:0:0:0:
256,192,131912,1,0,0:0:0:0:
256,192,131975,1,2,0:0:0:0:
256,192,132037,1,2,0:0:0:0:
256,192,132100,1,0,0:0:0:0:
256,192,132162,1,0,0:0:0:0:
256,192,132225,1,0,0:0:0:0:
256,192,132725,1,4,0:0:0:0:
256,192,133225,1,6,0:0:0:0:
256,192,133725,1,4,0:0:0:0:
256,192,133975,1,0,0:0:0:0:
256,192,134037,1,0,0:0:0:0:
256,192,134100,1,0,0:0:0:0:
256,192,134162,1,0,0:0:0:0:
256,192,134725,1,4,0:0:0:0:
256,192,135225,1,6,0:0:0:0:
256,192,135475,1,0,0:0:0:0:
256,192,135558,1,0,0:0:0:0:
256,192,135641,1,0,0:0:0:0:
256,192,135725,1,2,0:0:0:0:
256,192,135808,1,2,0:0:0:0:
256,192,135891,1,2,0:0:0:0:
256,192,135975,1,0,0:0:0:0:
256,192,136058,1,0,0:0:0:0:
256,192,136141,1,0,0:0:0:0:
256,192,136225,1,0,0:0:0:0:
256,192,136725,1,4,0:0:0:0:
256,192,136975,1,0,0:0:0:0:
256,192,137058,1,0,0:0:0:0:
256,192,137141,1,0,0:0:0:0:
256,192,137225,1,2,0:0:0:0:
256,192,137725,1,0,0:0:0:0:
256,192,137850,1,2,0:0:0:0:
256,192,137975,1,0,0:0:0:0:
256,192,138225,1,2,0:0:0:0:
256,192,138350,1,0,0:0:0:0:
256,192,138475,1,0,0:0:0:0:
256,192,138600,1,2,0:0:0:0:
256,192,138725,1,0,0:0:0:0:
256,192,138850,1,0,0:0:0:0:
256,192,138975,1,2,0:0:0:0:
256,192,139100,1,0,0:0:0:0:
256,192,139225,1,2,0:0:0:0:
256,192,139475,1,0,0:0:0:0:
256,192,139537,1,0,0:0:0:0:
256,192,139600,1,0,0:0:0:0:
256,192,139662,1,0,0:0:0:0:
256,192,139725,1,0,0:0:0:0:
256,192,139975,1,2,0:0:0:0:
256,192,140037,1,2,0:0:0:0:
256,192,140100,1,2,0:0:0:0:
256,192,140162,1,2,0:0:0:0:
256,192,140225,1,0,0:0:0:0:
256,192,140350,1,2,0:0:0:0:
256,192,140475,1,0,0:0:0:0:
256,192,140537,1,0,0:0:0:0:
256,192,140600,1,2,0:0:0:0:
256,192,140725,1,0,0:0:0:0:
256,192,140787,1,0,0:0:0:0:
256,192,140850,1,2,0:0:0:0:
256,192,140912,1,2,0:0:0:0:
256,192,140975,1,0,0:0:0:0:
256,192,141037,1,2,0:0:0:0:
256,192,141100,1,0,0:0:0:0:
256,192,141162,1,2,0:0:0:0:
256,192,141225,1,0,0:0:0:0:
256,192,141350,1,2,0:0:0:0:
256,192,141412,1,2,0:0:0:0:
256,192,141475,1,0,0:0:0:0:
256,192,141600,1,2,0:0:0:0:
256,192,141725,1,0,0:0:0:0:
256,192,141850,1,0,0:0:0:0:
256,192,141912,1,0,0:0:0:0:
256,192,141975,1,0,0:0:0:0:
256,192,142037,1,0,0:0:0:0:
256,192,142100,1,2,0:0:0:0:
256,192,142225,1,4,0:0:0:0:
256,192,142350,1,2,0:0:0:0:
256,192,142475,1,0,0:0:0:0:
256,192,142537,1,0,0:0:0:0:
256,192,142600,1,2,0:0:0:0:
256,192,142725,1,0,0:0:0:0:
256,192,142850,1,2,0:0:0:0:
256,192,142975,1,0,0:0:0:0:
256,192,143037,1,0,0:0:0:0:
256,192,143100,1,2,0:0:0:0:
256,192,143225,1,0,0:0:0:0:
256,192,143287,1,0,0:0:0:0:
256,192,143350,1,2,0:0:0:0:
256,192,143475,1,0,0:0:0:0:
256,192,143537,1,0,0:0:0:0:
256,192,143600,1,2,0:0:0:0:
256,192,143725,1,0,0:0:0:0:
256,192,143787,1,0,0:0:0:0:
256,192,143850,1,2,0:0:0:0:
256,192,143912,1,0,0:0:0:0:
256,192,143975,1,0,0:0:0:0:
256,192,144037,1,0,0:0:0:0:
256,192,144100,1,2,0:0:0:0:
256,192,144225,1,4,0:0:0:0:
256,192,144350,1,0,0:0:0:0:
256,192,144475,1,0,0:0:0:0:
256,192,144537,1,0,0:0:0:0:
256,192,144600,1,2,0:0:0:0:
256,192,144725,1,0,0:0:0:0:
256,192,144787,1,0,0:0:0:0:
256,192,144850,1,0,0:0:0:0:
256,192,144912,1,0,0:0:0:0:
256,192,144975,1,2,0:0:0:0:
256,192,145037,1,2,0:0:0:0:
256,192,145100,1,2,0:0:0:0:
256,192,145162,1,2,0:0:0:0:
256,192,145225,1,0,0:0:0:0:
256,192,145350,1,2,0:0:0:0:
256,192,145412,1,2,0:0:0:0:
256,192,145475,1,0,0:0:0:0:
256,192,145600,1,2,0:0:0:0:
256,192,145725,1,0,0:0:0:0:
256,192,145787,1,0,0:0:0:0:
256,192,145850,1,2,0:0:0:0:
256,192,145912,1,2,0:0:0:0:
256,192,145975,1,0,0:0:0:0:
256,192,146037,1,0,0:0:0:0:
256,192,146100,1,2,0:0:0:0:
256,192,146225,1,4,0:0:0:0:
256,192,146350,1,2,0:0:0:0:
256,192,146412,1,2,0:0:0:0:
256,192,146475,1,2,0:0:0:0:
256,192,146537,1,2,0:0:0:0:
256,192,146600,1,0,0:0:0:0:
256,192,146662,1,0,0:0:0:0:
256,192,146725,1,2,0:0:0:0:
256,192,146787,1,2,0:0:0:0:
256,192,146850,1,2,0:0:0:0:
256,192,146912,1,2,0:0:0:0:
256,192,146975,1,0,0:0:0:0:
256,192,147037,1,0,0:0:0:0:
256,192,147100,1,2,0:0:0:0:
256,192,147162,1,2,0:0:0:0:
256,192,147225,1,0,0:0:0:0:
256,192,147350,1,6,0:0:0:0:
256,192,147475,1,0,0:0:0:0:
256,192,147537,1,0,0:0:0:0:
256,192,147600,1,0,0:0:0:0:
256,192,147725,1,0,0:0:0:0:
256,192,147850,1,0,0:0:0:0:
256,192,147912,1,0,0:0:0:0:
256,192,147975,1,2,0:0:0:0:
256,192,148225,1,4,0:0:0:0:
256,192,148350,1,2,0:0:0:0:
256,192,148475,1,0,0:0:0:0:
256,192,148537,1,0,0:0:0:0:
256,192,148600,1,2,0:0:0:0:
256,192,148725,1,0,0:0:0:0:
256,192,148787,1,0,0:0:0:0:
256,192,148850,1,2,0:0:0:0:
256,192,148912,1,2,0:0:0:0:
256,192,148975,1,0,0:0:0:0:
256,192,149037,1,0,0:0:0:0:
256,192,149100,1,2,0:0:0:0:
256,192,149162,1,2,0:0:0:0:
256,192,149225,1,0,0:0:0:0:
256,192,149287,1,0,0:0:0:0:
256,192,149350,1,2,0:0:0:0:
256,192,149475,1,0,0:0:0:0:
256,192,149600,1,2,0:0:0:0:
256,192,149725,1,0,0:0:0:0:
256,192,149787,1,0,0:0:0:0:
256,192,149850,1,2,0:0:0:0:
256,192,149975,1,0,0:0:0:0:
256,192,150037,1,0,0:0:0:0:
256,192,150100,1,2,0:0:0:0:
256,192,150162,1,2,0:0:0:0:
256,192,150225,1,0,0:0:0:0:
256,192,150350,1,2,0:0:0:0:
256,192,150475,1,0,0:0:0:0:
256,192,150600,1,2,0:0:0:0:
256,192,150662,1,2,0:0:0:0:
256,192,150725,1,0,0:0:0:0:
256,192,150787,1,0,0:0:0:0:
256,192,150849,1,2,0:0:0:0:
256,192,150912,1,0,0:0:0:0:
256,192,150974,1,0,0:0:0:0:
256,192,151037,1,0,0:0:0:0:
256,192,151099,1,2,0:0:0:0:
256,192,151162,1,0,0:0:0:0:
256,192,151224,1,0,0:0:0:0:
256,192,151350,1,0,0:0:0:0:
256,192,151475,1,0,0:0:0:0:
256,192,151537,1,0,0:0:0:0:
256,192,151600,1,2,0:0:0:0:
256,192,151662,1,2,0:0:0:0:
256,192,151725,1,0,0:0:0:0:
256,192,151787,1,0,0:0:0:0:
256,192,151850,1,2,0:0:0:0:
256,192,151912,1,0,0:0:0:0:
256,192,151975,1,0,0:0:0:0:
256,192,152037,1,0,0:0:0:0:
256,192,152100,1,2,0:0:0:0:
256,192,152162,1,0,0:0:0:0:
256,192,152225,1,2,0:0:0:0:
256,192,152350,1,2,0:0:0:0:
256,192,152475,1,0,0:0:0:0:
256,192,152537,1,0,0:0:0:0:
256,192,152600,1,2,0:0:0:0:
256,192,152725,1,0,0:0:0:0:
256,192,152787,1,0,0:0:0:0:
256,192,152850,1,2,0:0:0:0:
256,192,152912,1,2,0:0:0:0:
256,192,152975,1,0,0:0:0:0:
256,192,153037,1,0,0:0:0:0:
256,192,153100,1,2,0:0:0:0:
256,192,153162,1,0,0:0:0:0:
256,192,153225,1,2,0:0:0:0:
256,192,153350,1,2,0:0:0:0:
256,192,153475,1,0,0:0:0:0:
256,192,153537,1,0,0:0:0:0:
256,192,153600,1,2,0:0:0:0:
256,192,153725,1,0,0:0:0:0:
256,192,153787,1,0,0:0:0:0:
256,192,153850,1,0,0:0:0:0:
256,192,153912,1,0,0:0:0:0:
256,192,153975,1,2,0:0:0:0:
256,192,154100,1,0,0:0:0:0:
256,192,154225,1,6,0:0:0:0:
256,192,154350,1,0,0:0:0:0:
256,192,154475,1,0,0:0:0:0:
256,192,154600,1,6,0:0:0:0:
256,192,154725,1,0,0:0:0:0:
256,192,154850,1,2,0:0:0:0:
256,192,154912,1,2,0:0:0:0:
256,192,154975,1,0,0:0:0:0:
256,192,155037,1,0,0:0:0:0:
256,192,155100,1,0,0:0:0:0:
256,192,155225,1,2,0:0:0:0:
256,192,155287,1,2,0:0:0:0:
256,192,155350,1,0,0:0:0:0:
256,192,155412,1,0,0:0:0:0:
256,192,155475,1,0,0:0:0:0:
256,192,155537,1,0,0:0:0:0:
256,192,155600,1,2,0:0:0:0:
256,192,155662,1,2,0:0:0:0:
256,192,155725,1,0,0:0:0:0:
256,192,155787,1,0,0:0:0:0:
256,192,155850,1,0,0:0:0:0:
256,192,155912,1,0,0:0:0:0:
256,192,155975,1,2,0:0:0:0:
256,192,156225,1,6,0:0:0:0:
256,192,156350,1,0,0:0:0:0:
256,192,156475,1,2,0:0:0:0:
256,192,156537,1,2,0:0:0:0:
256,192,156600,1,2,0:0:0:0:
256,192,156662,1,2,0:0:0:0:
256,192,156725,1,2,0:0:0:0:
256,192,156787,1,2,0:0:0:0:
256,192,156850,1,0,0:0:0:0:
256,192,156912,1,0,0:0:0:0:
256,192,156975,1,2,0:0:0:0:
256,192,157037,1,2,0:0:0:0:
256,192,157100,1,2,0:0:0:0:
256,192,157162,1,2,0:0:0:0:
256,192,157225,1,2,0:0:0:0:
256,192,157350,1,0,0:0:0:0:
256,192,157475,1,2,0:0:0:0:
256,192,157537,1,2,0:0:0:0:
256,192,157600,1,0,0:0:0:0:
256,192,157725,1,0,0:0:0:0:
256,192,157787,1,0,0:0:0:0:
256,192,157850,1,0,0:0:0:0:
256,192,157912,1,0,0:0:0:0:
256,192,157975,1,2,0:0:0:0:
256,192,158225,1,6,0:0:0:0:
256,192,158350,1,0,0:0:0:0:
256,192,158475,1,0,0:0:0:0:
256,192,158600,1,0,0:0:0:0:
256,192,158725,1,4,0:0:0:0:
256,192,158850,1,0,0:0:0:0:
256,192,158975,1,0,0:0:0:0:
256,192,159100,1,0,0:0:0:0:
256,192,159225,1,6,0:0:0:0:
256,192,159350,1,0,0:0:0:0:
256,192,159475,1,0,0:0:0:0:
256,192,159600,1,0,0:0:0:0:
256,192,159725,1,4,0:0:0:0:
256,192,159850,1,0,0:0:0:0:
256,192,159975,1,0,0:0:0:0:
256,192,160100,1,0,0:0:0:0:
256,192,160225,1,6,0:0:0:0:
256,192,160350,1,0,0:0:0:0:
256,192,160475,1,0,0:0:0:0:
256,192,160600,1,0,0:0:0:0:
256,192,160725,1,4,0:0:0:0:
256,192,160850,1,0,0:0:0:0:
256,192,160975,1,0,0:0:0:0:
256,192,161037,1,0,0:0:0:0:
256,192,161100,1,0,0:0:0:0:
256,192,161162,1,0,0:0:0:0:
256,192,161225,1,2,0:0:0:0:
256,192,161287,1,2,0:0:0:0:
256,192,161350,1,2,0:0:0:0:
256,192,161412,1,2,0:0:0:0:
256,192,161475,1,0,0:0:0:0:
256,192,161537,1,0,0:0:0:0:
256,192,161600,1,0,0:0:0:0:
256,192,161662,1,0,0:0:0:0:
256,192,161725,1,2,0:0:0:0:
256,192,161850,1,0,0:0:0:0:
256,192,161912,1,0,0:0:0:0:
256,192,161975,1,2,0:0:0:0:
256,192,162225,1,6,0:0:0:0:
256,192,162350,1,0,0:0:0:0:
256,192,162475,1,2,0:0:0:0:
256,192,162600,1,0,0:0:0:0:
256,192,162662,1,0,0:0:0:0:
256,192,162725,1,2,0:0:0:0:
256,192,162850,1,0,0:0:0:0:
256,192,162975,1,2,0:0:0:0:
256,192,163100,1,0,0:0:0:0:
256,192,163162,1,0,0:0:0:0:
256,192,163225,1,2,0:0:0:0:
256,192,163287,1,2,0:0:0:0:
256,192,163350,1,0,0:0:0:0:
256,192,163412,1,0,0:0:0:0:
256,192,163475,1,2,0:0:0:0:
256,192,163537,1,2,0:0:0:0:
256,192,163600,1,0,0:0:0:0:
256,192,163662,1,0,0:0:0:0:
256,192,163725,1,2,0:0:0:0:
256,192,163850,1,2,0:0:0:0:
256,192,163975,1,2,0:0:0:0:
256,192,164225,1,6,0:0:0:0:
256,192,164350,1,0,0:0:0:0:
256,192,164475,1,2,0:0:0:0:
256,192,164537,1,0,0:0:0:0:
256,192,164600,1,2,0:0:0:0:
256,192,164662,1,0,0:0:0:0:
256,192,164725,1,2,0:0:0:0:
256,192,164787,1,0,0:0:0:0:
256,192,164850,1,0,0:0:0:0:
256,192,164912,1,0,0:0:0:0:
256,192,164975,1,2,0:0:0:0:
256,192,165037,1,0,0:0:0:0:
256,192,165100,1,2,0:0:0:0:
256,192,165162,1,0,0:0:0:0:
256,192,165225,1,2,0:0:0:0:
256,192,165287,1,0,0:0:0:0:
256,192,165350,1,0,0:0:0:0:
256,192,165412,1,0,0:0:0:0:
256,192,165475,1,2,0:0:0:0:
256,192,165537,1,0,0:0:0:0:
256,192,165600,1,2,0:0:0:0:
256,192,165662,1,0,0:0:0:0:
256,192,165725,1,2,0:0:0:0:
256,192,165787,1,0,0:0:0:0:
256,192,165850,1,0,0:0:0:0:
256,192,165912,1,0,0:0:0:0:
256,192,165975,1,2,0:0:0:0:
256,192,166225,1,6,0:0:0:0:
256,192,166350,1,0,0:0:0:0:
256,192,166475,1,6,0:0:0:0:
256,192,166600,1,0,0:0:0:0:
256,192,166725,1,6,0:0:0:0:
256,192,166850,1,0,0:0:0:0:
256,192,166975,1,6,0:0:0:0:
256,192,167100,1,0,0:0:0:0:
256,192,167225,1,6,0:0:0:0:
256,192,167725,1,2,0:0:0:0:
256,192,167787,1,2,0:0:0:0:
256,192,167850,1,2,0:0:0:0:
256,192,167912,1,2,0:0:0:0:
256,192,167975,1,0,0:0:0:0:
256,192,168037,1,0,0:0:0:0:
256,192,168100,1,0,0:0:0:0:
256,192,168162,1,0,0:0:0:0:
256,192,168225,1,2,0:0:0:0:
256,192,168350,1,0,0:0:0:0:
256,192,168475,1,2,0:0:0:0:
256,192,168600,1,0,0:0:0:0:
256,192,168662,1,0,0:0:0:0:
256,192,168725,1,2,0:0:0:0:
256,192,168850,1,0,0:0:0:0:
256,192,168912,1,0,0:0:0:0:
256,192,168975,1,2,0:0:0:0:
256,192,169100,1,0,0:0:0:0:
256,192,169225,1,6,0:0:0:0:
256,192,169350,1,0,0:0:0:0:
256,192,169475,1,2,0:0:0:0:
256,192,169600,1,0,0:0:0:0:
256,192,169662,1,0,0:0:0:0:
256,192,169725,1,2,0:0:0:0:
256,192,169787,1,2,0:0:0:0:
256,192,169850,1,0,0:0:0:0:
256,192,169912,1,0,0:0:0:0:
256,192,169975,1,2,0:0:0:0:
256,192,170037,1,0,0:0:0:0:
256,192,170100,1,2,0:0:0:0:
256,192,170162,1,0,0:0:0:0:
256,192,170225,1,2,0:0:0:0:
256,192,170350,1,0,0:0:0:0:
256,192,170475,1,2,0:0:0:0:
256,192,170600,1,0,0:0:0:0:
256,192,170725,1,2,0:0:0:0:
256,192,170787,1,2,0:0:0:0:
256,192,170850,1,0,0:0:0:0:
256,192,170912,1,0,0:0:0:0:
256,192,170975,1,2,0:0:0:0:
256,192,171037,1,2,0:0:0:0:
256,192,171100,1,0,0:0:0:0:
256,192,171162,1,0,0:0:0:0:
256,192,171225,1,2,0:0:0:0:
256,192,171350,1,0,0:0:0:0:
256,192,171475,1,2,0:0:0:0:
256,192,171600,1,0,0:0:0:0:
256,192,171725,1,2,0:0:0:0:
256,192,171787,1,0,0:0:0:0:
256,192,171850,1,0,0:0:0:0:
256,192,171912,1,0,0:0:0:0:
256,192,171975,1,2,0:0:0:0:
256,192,172037,1,2,0:0:0:0:
256,192,172100,1,0,0:0:0:0:
256,192,172162,1,0,0:0:0:0:
256,192,172225,1,2,0:0:0:0:
256,192,172350,1,0,0:0:0:0:
256,192,172475,1,2,0:0:0:0:
256,192,172600,1,0,0:0:0:0:
256,192,172725,1,2,0:0:0:0:
256,192,172787,1,0,0:0:0:0:
256,192,172850,1,0,0:0:0:0:
256,192,172912,1,0,0:0:0:0:
256,192,172975,1,2,0:0:0:0:
256,192,173037,1,0,0:0:0:0:
256,192,173100,1,0,0:0:0:0:
256,192,173162,1,0,0:0:0:0:
256,192,173225,1,2,0:0:0:0:
256,192,173350,1,0,0:0:0:0:
256,192,173475,1,2,0:0:0:0:
256,192,173600,1,0,0:0:0:0:
256,192,173725,1,2,0:0:0:0:
256,192,173787,1,2,0:0:0:0:
256,192,173850,1,0,0:0:0:0:
256,192,173912,1,0,0:0:0:0:
256,192,173975,1,2,0:0:0:0:
256,192,174037,1,2,0:0:0:0:
256,192,174100,1,0,0:0:0:0:
256,192,174162,1,0,0:0:0:0:
256,192,174225,1,2,0:0:0:0:
256,192,174287,1,2,0:0:0:0:
256,192,174350,1,2,0:0:0:0:
256,192,174412,1,2,0:0:0:0:
256,192,174475,1,0,0:0:0:0:
256,192,174537,1,0,0:0:0:0:
256,192,174600,1,0,0:0:0:0:
256,192,174662,1,0,0:0:0:0:
256,192,174725,1,0,0:0:0:0:
256,192,174850,1,0,0:0:0:0:
256,192,174912,1,0,0:0:0:0:
256,192,174975,1,2,0:0:0:0:
256,192,175037,1,2,0:0:0:0:
256,192,175100,1,2,0:0:0:0:
256,192,175162,1,2,0:0:0:0:
256,192,175225,1,0,0:0:0:0:
256,192,175287,1,0,0:0:0:0:
256,192,175350,1,0,0:0:0:0:
256,192,175412,1,0,0:0:0:0:
256,192,175475,1,0,0:0:0:0:
256,192,175537,1,0,0:0:0:0:
256,192,175600,1,0,0:0:0:0:
256,192,175662,1,0,0:0:0:0:
256,192,175725,1,0,0:0:0:0:
256,192,175787,1,0,0:0:0:0:
256,192,175850,1,0,0:0:0:0:
256,192,175912,1,0,0:0:0:0:
256,192,175975,1,2,0:0:0:0:
256,192,176225,1,6,0:0:0:0:
256,192,176350,1,0,0:0:0:0:
256,192,176412,1,0,0:0:0:0:
256,192,176475,1,2,0:0:0:0:
256,192,176600,1,0,0:0:0:0:
256,192,176662,1,0,0:0:0:0:
256,192,176725,1,2,0:0:0:0:
256,192,176787,1,2,0:0:0:0:
256,192,176850,1,0,0:0:0:0:
256,192,176912,1,0,0:0:0:0:
256,192,176975,1,2,0:0:0:0:
256,192,177037,1,2,0:0:0:0:
256,192,177100,1,0,0:0:0:0:
256,192,177162,1,0,0:0:0:0:
256,192,177225,1,2,0:0:0:0:
256,192,177350,1,0,0:0:0:0:
256,192,177412,1,0,0:0:0:0:
256,192,177475,1,2,0:0:0:0:
256,192,177600,1,0,0:0:0:0:
256,192,177725,1,2,0:0:0:0:
256,192,177787,1,2,0:0:0:0:
256,192,177850,1,0,0:0:0:0:
256,192,177912,1,0,0:0:0:0:
256,192,177975,1,2,0:0:0:0:
256,192,178037,1,0,0:0:0:0:
256,192,178100,1,2,0:0:0:0:
256,192,178162,1,0,0:0:0:0:
256,192,178225,1,2,0:0:0:0:
256,192,178350,1,0,0:0:0:0:
256,192,178412,1,0,0:0:0:0:
256,192,178475,1,2,0:0:0:0:
256,192,178600,1,0,0:0:0:0:
256,192,178725,1,2,0:0:0:0:
256,192,178787,1,2,0:0:0:0:
256,192,178850,1,0,0:0:0:0:
256,192,178912,1,0,0:0:0:0:
256,192,178975,1,2,0:0:0:0:
256,192,179037,1,2,0:0:0:0:
256,192,179100,1,0,0:0:0:0:
256,192,179162,1,0,0:0:0:0:
256,192,179225,1,2,0:0:0:0:
256,192,179350,1,0,0:0:0:0:
256,192,179475,1,2,0:0:0:0:
256,192,179600,1,0,0:0:0:0:
256,192,179663,1,0,0:0:0:0:
256,192,179725,1,2,0:0:0:0:
256,192,179788,1,0,0:0:0:0:
256,192,179850,1,0,0:0:0:0:
256,192,179912,1,0,0:0:0:0:
256,192,179975,1,2,0:0:0:0:
256,192,180100,1,0,0:0:0:0:
256,192,180225,1,6,0:0:0:0:
256,192,180350,1,0,0:0:0:0:
256,192,180412,1,0,0:0:0:0:
256,192,180475,1,2,0:0:0:0:
256,192,180600,1,0,0:0:0:0:
256,192,180662,1,0,0:0:0:0:
256,192,180725,1,2,0:0:0:0:
256,192,180787,1,2,0:0:0:0:
256,192,180850,1,0,0:0:0:0:
256,192,180912,1,0,0:0:0:0:
256,192,180975,1,2,0:0:0:0:
256,192,181037,1,0,0:0:0:0:
256,192,181100,1,0,0:0:0:0:
256,192,181162,1,0,0:0:0:0:
256,192,181225,1,2,0:0:0:0:
256,192,181350,1,0,0:0:0:0:
256,192,181475,1,2,0:0:0:0:
256,192,181537,1,0,0:0:0:0:
256,192,181600,1,0,0:0:0:0:
256,192,181662,1,0,0:0:0:0:
256,192,181725,1,2,0:0:0:0:
256,192,181850,1,0,0:0:0:0:
256,192,181975,1,2,0:0:0:0:
256,192,182100,1,0,0:0:0:0:
256,192,182225,1,2,0:0:0:0:
256,192,182287,1,2,0:0:0:0:
256,192,182350,1,0,0:0:0:0:
256,192,182412,1,0,0:0:0:0:
256,192,182475,1,2,0:0:0:0:
256,192,182537,1,2,0:0:0:0:
256,192,182600,1,0,0:0:0:0:
256,192,182662,1,0,0:0:0:0:
256,192,182725,1,0,0:0:0:0:
256,192,182787,1,0,0:0:0:0:
256,192,182850,1,2,0:0:0:0:
256,192,182912,1,2,0:0:0:0:
256,192,182975,1,0,0:0:0:0:
256,192,183037,1,0,0:0:0:0:
256,192,183100,1,0,0:0:0:0:
256,192,183162,1,0,0:0:0:0:
256,192,183225,1,2,0:0:0:0:
256,192,183725,1,6,0:0:0:0:
256,192,184225,1,6,0:0:0:0:
256,192,184350,1,0,0:0:0:0:
256,192,184412,1,0,0:0:0:0:
256,192,184475,1,2,0:0:0:0:
256,192,184537,1,0,0:0:0:0:
256,192,184600,1,2,0:0:0:0:
256,192,184662,1,0,0:0:0:0:
256,192,184725,1,2,0:0:0:0:
256,192,184850,1,0,0:0:0:0:
256,192,184975,1,2,0:0:0:0:
256,192,185100,1,0,0:0:0:0:
256,192,185162,1,0,0:0:0:0:
256,192,185225,1,2,0:0:0:0:
256,192,185350,1,0,0:0:0:0:
256,192,185412,1,0,0:0:0:0:
256,192,185475,1,2,0:0:0:0:
256,192,185537,1,0,0:0:0:0:
256,192,185600,1,2,0:0:0:0:
256,192,185662,1,0,0:0:0:0:
256,192,185725,1,2,0:0:0:0:
256,192,185787,1,0,0:0:0:0:
256,192,185850,1,0,0:0:0:0:
256,192,185912,1,0,0:0:0:0:
256,192,185975,1,2,0:0:0:0:
256,192,186037,1,0,0:0:0:0:
256,192,186100,1,2,0:0:0:0:
256,192,186162,1,0,0:0:0:0:
256,192,186225,1,2,0:0:0:0:
256,192,186350,1,0,0:0:0:0:
256,192,186412,1,0,0:0:0:0:
256,192,186475,1,2,0:0:0:0:
256,192,186537,1,2,0:0:0:0:
256,192,186600,1,0,0:0:0:0:
256,192,186662,1,0,0:0:0:0:
256,192,186725,1,2,0:0:0:0:
256,192,186850,1,0,0:0:0:0:
256,192,186975,1,2,0:0:0:0:
256,192,187037,1,2,0:0:0:0:
256,192,187100,1,0,0:0:0:0:
256,192,187162,1,0,0:0:0:0:
256,192,187225,1,2,0:0:0:0:
256,192,187350,1,0,0:0:0:0:
256,192,187412,1,0,0:0:0:0:
256,192,187475,1,2,0:0:0:0:
256,192,187537,1,0,0:0:0:0:
256,192,187600,1,2,0:0:0:0:
256,192,187662,1,0,0:0:0:0:
256,192,187725,1,2,0:0:0:0:
256,192,187850,1,0,0:0:0:0:
256,192,187975,1,2,0:0:0:0:
256,192,188037,1,0,0:0:0:0:
256,192,188100,1,0,0:0:0:0:
256,192,188162,1,0,0:0:0:0:
256,192,188225,1,2,0:0:0:0:
256,192,188350,1,0,0:0:0:0:
256,192,188475,1,2,0:0:0:0:
256,192,188600,1,0,0:0:0:0:
256,192,188662,1,0,0:0:0:0:
256,192,188725,1,2,0:0:0:0:
256,192,188787,1,0,0:0:0:0:
256,192,188850,1,2,0:0:0:0:
256,192,188912,1,0,0:0:0:0:
256,192,188975,1,2,0:0:0:0:
256,192,189100,1,0,0:0:0:0:
256,192,189162,1,0,0:0:0:0:
256,192,189225,1,2,0:0:0:0:
256,192,189287,1,0,0:0:0:0:
256,192,189350,1,0,0:0:0:0:
256,192,189412,1,0,0:0:0:0:
256,192,189475,1,2,0:0:0:0:
256,192,189600,1,0,0:0:0:0:
256,192,189662,1,0,0:0:0:0:
256,192,189725,1,2,0:0:0:0:
256,192,189850,1,0,0:0:0:0:
256,192,189912,1,0,0:0:0:0:
256,192,189975,1,2,0:0:0:0:
256,192,190100,1,0,0:0:0:0:
256,192,190225,1,6,0:0:0:0:
256,192,190350,1,0,0:0:0:0:
256,192,190475,1,0,0:0:0:0:
256,192,190537,1,0,0:0:0:0:
256,192,190600,1,2,0:0:0:0:
256,192,190725,1,0,0:0:0:0:
256,192,190787,1,0,0:0:0:0:
256,192,190850,1,0,0:0:0:0:
256,192,190912,1,0,0:0:0:0:
256,192,190975,1,2,0:0:0:0:
256,192,191100,1,0,0:0:0:0:
256,192,191225,1,2,0:0:0:0:
256,192,191350,1,2,0:0:0:0:
256,192,191475,1,2,0:0:0:0:
256,192,191600,1,2,0:0:0:0:
256,192,191725,1,0,0:0:0:0:
256,192,191787,1,0,0:0:0:0:
256,192,191850,1,0,0:0:0:0:
256,192,191912,1,0,0:0:0:0:
256,192,191975,1,2,0:0:0:0:
256,192,192100,1,0,0:0:0:0:
256,192,192162,1,0,0:0:0:0:
256,192,192225,1,0,0:0:0:0:
256,192,192287,1,0,0:0:0:0:
256,192,192350,1,2,0:0:0:0:
256,192,192475,1,0,0:0:0:0:
256,192,192537,1,0,0:0:0:0:
256,192,192600,1,0,0:0:0:0:
256,192,192662,1,0,0:0:0:0:
256,192,192725,1,2,0:0:0:0:
256,192,192787,1,2,0:0:0:0:
256,192,192850,1,0,0:0:0:0:
256,192,192912,1,0,0:0:0:0:
256,192,192975,1,2,0:0:0:0:
256,192,193037,1,2,0:0:0:0:
256,192,193100,1,2,0:0:0:0:
256,192,193162,1,2,0:0:0:0:
256,192,193225,1,0,0:0:0:0:
