osu file format v14

[General]
AudioFilename: 12 - Everything will freeze.mp3
AudioLeadIn: 1500
PreviewTime: 50225
Countdown: 0
SampleSet: Normal
StackLeniency: 0.7
Mode: 0
LetterboxInBreaks: 0
EpilepsyWarning: 1
WidescreenStoryboard: 1

[Editor]
Bookmarks: 41725,65225,124225,130225,167725,184225
DistanceSpacing: 1.2
BeatDivisor: 4
GridSize: 4
TimelineZoom: 1.1

[Metadata]
Title:Everything will freeze
TitleUnicode:Everything will freeze
Artist:UNDEAD CORPORATION
ArtistUnicode:UNDEAD CORPORATION
Creator:Ekoro
Version:Insane
Source:東方Project
Tags:izayoi sakuya flowering night pinetree tyrant boukun instrumental KOUTA C84 comiket 84 jyvii touhou
BeatmapID:554519
BeatmapSetID:158023

[Difficulty]
HPDrainRate:4.5
CircleSize:4
OverallDifficulty:6.5
ApproachRate:8.5
SliderMultiplier:1.2
SliderTickRate:1

[Events]
//Background and Video events
0,0,"bg.jpg",0,0
//Break Periods
2,66425,73550
2,124425,129550
//Storyboard Layer 0 (Background)
//Storyboard Layer 1 (Fail)
//Storyboard Layer 2 (Pass)
//Storyboard Layer 3 (Foreground)
//Storyboard Sound Samples

[TimingPoints]
225,250,4,1,1,65,1,0
3475,-100,4,1,1,50,0,0
4225,-100,4,1,1,65,0,0
50225,-90.9090909090909,4,1,1,80,0,1
66225,-100,4,1,1,65,0,0
106225,-90.9090909090909,4,1,1,80,0,1
122225,-100,4,1,1,65,0,0
168225,-83.3333333333333,4,1,1,80,0,1
184225,-100,4,1,1,65,0,0

[Colours]
Combo1 : 255,0,0
Combo2 : 95,95,95
Combo3 : 223,223,223
Combo4 : 128,0,0

[HitObjects]
176,24,225,6,0,L|236:28,2,60,6|8|8,0:0|0:0|0:0,0:0:0:0:
108,44,600,5,0,0:0:0:0:
108,44,662,1,0,0:0:0:0:
108,44,725,2,0,P|96:104|64:152,1,120,8|0,0:0|0:0,0:0:0:0:
4,192,1100,2,0,L|12:316,1,120,8|0,0:0|0:0,0:0:0:0:
76,348,1475,2,0,P|132:332|192:340,1,120,8|8,0:0|0:0,0:0:0:0:
260,368,1850,1,0,0:0:0:0:
324,336,1975,1,8,0:0:0:0:
396,212,2225,37,4,0:0:0:0:
396,212,3100,5,0,0:0:0:0:
396,212,3162,1,0,0:0:0:0:
396,212,3225,2,0,P|388:152|404:92,1,120,4|0,0:0|0:0,0:0:0:0:
448,40,3600,1,0,0:0:0:0:
376,28,3725,2,0,L|316:36,1,60
252,64,3975,2,0,L|192:56,1,60
132,16,4225,1,4,0:0:0:0:
132,16,5225,38,0,P|156:72|164:132,1,120,4|8,0:0|0:0,0:0:0:0:
100,164,5600,1,8,0:0:0:0:
100,164,5662,1,8,0:0:0:0:
100,164,5725,2,0,P|76:220|68:280,1,120,0|8,0:0|0:0,0:0:0:0:
108,340,6100,1,8,0:0:0:0:
108,340,6225,6,0,L|228:344,1,120,0|8,0:0|0:0,0:0:0:0:
296,316,6600,1,0,0:0:0:0:
364,288,6725,2,0,L|484:292,1,120,0|8,0:0|0:0,0:0:0:0:
448,152,7225,2,0,L|328:148,1,120,0|8,0:0|0:0,0:0:0:0:
260,176,7600,1,0,0:0:0:0:
192,204,7725,2,0,L|72:200,1,120,0|8,0:0|0:0,0:0:0:0:
52,56,8225,38,0,P|108:36|168:44,1,120,12|0,0:0|0:0,0:0:0:0:
212,100,8600,2,0,P|201:158|164:206,1,120,12|0,0:0|0:0,0:0:0:0:
92,216,8975,2,0,P|46:177|23:121,2,120,12|12|8,0:0|0:0|0:0,0:0:0:0:
136,276,9600,2,0,L|128:336,1,60,8|0,0:0|0:0,0:0:0:0:
264,284,9975,2,0,L|256:224,1,60,8|8,0:0|0:0,0:0:0:0:
312,176,10225,6,0,P|368:192|432:188,1,120,4|8,0:0|0:0,0:0:0:0:
484,140,10600,1,0,0:0:0:0:
484,140,10725,2,0,L|488:80,1,60,0|0,0:0|0:0,0:0:0:0:
440,24,10975,2,0,P|412:16|380:16,1,60,8|0,0:0|0:0,0:0:0:0:
328,64,11225,38,0,P|280:104|224:112,1,120,0|8,0:0|0:0,0:0:0:0:
156,88,11600,1,0,0:0:0:0:
156,88,11725,2,0,L|148:28,1,60
80,52,11975,2,0,L|88:112,1,60,8|0,0:0|0:0,0:0:0:0:
144,160,12225,6,0,P|202:169|247:208,1,120,0|8,0:0|0:0,0:0:0:0:
252,280,12600,1,0,0:0:0:0:
192,320,12725,2,0,P|133:310|88:271,1,120,0|8,0:0|0:0,0:0:0:0:
16,148,13225,37,4,0:0:0:0:
32,76,13350,1,8,0:0:0:0:
32,76,13412,1,8,0:0:0:0:
32,76,13475,2,0,P|52:52|76:36,1,60,8|8,0:0|0:0,0:0:0:0:
104,104,13725,2,0,P|132:90|160:86,1,60,0|8,0:0|0:0,0:0:0:0:
156,160,13975,2,0,P|187:159|214:167,1,60,0|8,0:0|0:0,0:0:0:0:
180,232,14225,6,0,P|228:264|244:328,1,120,4|8,0:0|0:0,0:0:0:0:
308,364,14600,1,0,0:0:0:0:
308,364,14725,2,0,L|432:356,1,120,0|8,0:0|0:0,0:0:0:0:
496,228,15225,38,0,P|448:196|432:132,1,120,0|8,0:0|0:0,0:0:0:0:
372,100,15600,1,0,0:0:0:0:
372,100,15725,2,0,L|248:108,1,120,0|8,0:0|0:0,0:0:0:0:
120,44,16225,6,0,L|60:52,3,60,8|0|8|0,0:0|0:0|0:0|0:0,0:0:0:0:
56,124,16725,2,0,L|116:116,3,60,8|0|8|0,0:0|0:0|0:0|0:0,0:0:0:0:
140,184,17225,2,0,P|100:228|40:240,1,120,12|8,0:0|0:0,0:0:0:0:
24,312,17600,1,8,0:0:0:0:
88,344,17725,2,0,P|128:300|188:288,1,120,4|8,0:0|0:0,0:0:0:0:
328,312,18225,38,0,P|368:356|428:368,1,120,4|8,0:0|0:0,0:0:0:0:
488,332,18600,1,0,0:0:0:0:
488,332,18725,2,0,L|496:212,1,120,0|8,0:0|0:0,0:0:0:0:
360,164,19225,6,0,P|320:208|260:220,1,120,0|8,0:0|0:0,0:0:0:0:
200,184,19600,1,0,0:0:0:0:
200,184,19725,2,0,L|192:64,1,120,0|8,0:0|0:0,0:0:0:0:
328,24,20225,38,0,P|388:20|448:32,1,120,0|8,0:0|0:0,0:0:0:0:
476,100,20600,1,0,0:0:0:0:
436,160,20725,2,0,P|376:164|316:152,1,120,0|8,0:0|0:0,0:0:0:0:
184,96,21225,5,4,0:0:0:0:
120,68,21350,2,0,L|112:8,2,60,8|8|8,0:0|0:0|0:0,0:0:0:0:
56,104,21725,2,0,P|40:132|32:160,1,60,0|8,0:0|0:0,0:0:0:0:
104,164,21975,2,0,P|101:196|105:224,1,60,0|8,0:0|0:0,0:0:0:0:
172,200,22225,38,0,P|183:230|256:276,1,120,4|8,0:0|0:0,0:0:0:0:
316,240,22600,1,0,0:0:0:0:
316,240,22725,2,0,L|324:180,1,60
268,136,22975,2,0,L|260:76,1,60,8|0,0:0|0:0,0:0:0:0:
312,24,23225,6,0,P|365:48|394:99,1,120,0|8,0:0|0:0,0:0:0:0:
432,160,23600,1,0,0:0:0:0:
432,160,23725,2,0,L|496:156,1,60
480,228,23975,2,0,L|416:232,1,60,8|0,0:0|0:0,0:0:0:0:
348,244,24225,38,0,P|292:276|260:324,1,120,12|0,0:0|0:0,0:0:0:0:
192,296,24600,2,0,P|192:231|166:179,1,120,12|0,0:0|0:0,0:0:0:0:
224,136,24975,2,0,P|279:168|337:172,2,120,12|12|8,0:0|0:0|0:0,0:0:0:0:
196,68,25600,1,8,0:0:0:0:
196,68,25662,1,8,0:0:0:0:
196,68,25725,2,0,P|140:35|82:31,1,120,0|8,0:0|0:0,0:0:0:0:
12,156,26225,5,0,0:0:0:0:
12,156,26350,2,0,L|20:280,1,120,8|8,0:0|0:0,0:0:0:0:
60,336,26725,1,0,0:0:0:0:
124,364,26850,2,0,P|184:368|240:348,1,120,8|8,0:0|0:0,0:0:0:0:
288,296,27225,38,0,L|408:304,1,120,8|8,0:0|0:0,0:0:0:0:
468,172,27725,2,0,L|348:164,1,120,8|8,0:0|0:0,0:0:0:0:
204,184,28225,5,4,0:0:0:0:
204,184,28350,2,0,P|184:128|192:68,1,120,8|8,0:0|0:0,0:0:0:0:
240,16,28725,1,0,0:0:0:0:
168,0,28850,2,0,L|48:12,1,120,8|8,0:0|0:0,0:0:0:0:
0,68,29225,38,0,L|8:192,1,120,8|8,0:0|0:0,0:0:0:0:
144,236,29725,2,0,L|136:116,1,120,8|8,0:0|0:0,0:0:0:0:
240,16,30225,5,4,0:0:0:0:
296,60,30350,2,0,P|356:76|416:68,1,120,8|8,0:0|0:0,0:0:0:0:
472,28,30725,1,0,0:0:0:0:
480,100,30850,2,0,L|496:224,1,120,8|8,0:0|0:0,0:0:0:0:
440,268,31225,38,0,P|380:252|320:260,1,120,8|8,0:0|0:0,0:0:0:0:
260,296,31600,1,0,0:0:0:0:
256,224,31725,2,0,L|260:164,2,60,0|0|8,0:0|0:0|0:0,0:0:0:0:
128,292,32225,6,0,P|132:324|128:356,2,60,8|0|0,0:0|0:0|0:0,0:0:0:0:
76,240,32600,2,0,P|72:208|76:176,2,60,8|0|0,0:0|0:0|0:0,0:0:0:0:
144,220,32975,38,0,L|204:228,2,60,8|0|0,0:0|0:0|0:0,0:0:0:0:
60,312,33350,2,0,L|0:304,2,60,8|0|0,0:0|0:0|0:0,0:0:0:0:
200,364,33725,6,0,L|260:356,1,60,12|0,0:0|0:0,0:0:0:0:
320,316,33975,2,0,L|380:324,1,60,12|0,0:0|0:0,0:0:0:0:
440,364,34225,37,4,0:0:0:0:
448,292,34350,2,0,P|440:264|440:232,1,60,8|0,0:0|0:0,0:0:0:0:
472,168,34600,2,0,P|420:196|360:192,2,120,8|8|8,0:0|0:0|0:0,0:0:0:0:
492,100,35225,6,0,P|488:68|476:40,1,60,8|0,0:0|0:0,0:0:0:0:
412,76,35475,2,0,P|394:48|372:28,1,60,8|0,0:0|0:0,0:0:0:0:
324,80,35725,2,0,P|296:62|208:56,1,120,8|8,0:0|0:0,0:0:0:0:
72,100,36225,37,4,0:0:0:0:
20,148,36350,2,0,L|24:208,1,60,8|0,0:0|0:0,0:0:0:0:
84,248,36600,2,0,P|144:252|204:228,2,120,8|8|8,0:0|0:0|0:0,0:0:0:0:
20,284,37225,6,0,P|28:316|40:340,1,60,8|0,0:0|0:0,0:0:0:0:
112,328,37475,2,0,P|136:349|160:362,1,60,8|0,0:0|0:0,0:0:0:0:
212,312,37725,2,0,P|244:315|328:288,1,120,8|8,0:0|0:0,0:0:0:0:
380,156,38225,37,4,0:0:0:0:
340,96,38350,2,0,L|280:76,1,60,8|0,0:0|0:0,0:0:0:0:
216,100,38600,2,0,P|160:116|96:108,2,120,8|8|8,0:0|0:0|0:0,0:0:0:0:
264,152,39225,6,0,P|276:180|280:212,1,60,8|0,0:0|0:0,0:0:0:0:
208,204,39475,2,0,P|201:233|186:262,1,60,8|0,0:0|0:0,0:0:0:0:
132,212,39725,2,0,P|120:224|104:232,4,30,0|0|0|0|8,0:0|0:0|0:0|0:0|0:0,0:0:0:0:
32,112,40225,38,0,L|28:52,1,60,4|8,0:0|0:0,0:0:0:0:
92,20,40475,1,0,0:0:0:0:
152,60,40600,2,0,P|208:84|272:80,1,120,12|0,0:0|0:0,0:0:0:0:
336,60,40975,1,12,0:0:0:0:
396,16,41100,1,0,0:0:0:0:
440,72,41225,6,0,L|476:76,2,30,0|0|8,0:0|0:0|0:0,0:0:0:0:
384,116,41475,1,0,0:0:0:0:
332,164,41600,2,0,L|296:168,2,30,0|0|8,0:0|0:0|0:0,0:0:0:0:
388,208,41850,1,0,0:0:0:0:
448,248,41975,1,8,0:0:0:0:
352,360,42225,38,0,P|296:340|236:344,1,120,4|8,0:0|0:0,0:0:0:0:
168,368,42600,1,8,0:0:0:0:
168,368,42662,1,8,0:0:0:0:
168,368,42725,2,0,P|108:371|52:351,1,120,0|8,0:0|0:0,0:0:0:0:
12,212,43225,6,0,P|12:180|20:152,1,60
88,124,43475,2,0,P|115:140|135:160,1,60,0|0,0:0|0:0,0:0:0:0:
128,232,43725,2,0,P|100:248|72:255,2,60,2|0|10,0:0|0:0|0:0,0:0:0:0:
228,128,44225,38,0,L|232:68,7,60,4|0|0|0|8|0|0|0,0:0|0:0|0:0|0:0|0:0|0:0|0:0|0:0,0:0:0:0:
304,56,45225,2,0,L|300:116,7,60,0|0|0|0|8|0|0|0,0:0|0:0|0:0|0:0|0:0|0:0|0:0|0:0,0:0:0:0:
280,184,46225,6,0,P|308:192|340:192,3,60,4|0|0|0,0:0|0:0|0:0|0:0,0:0:0:0:
372,128,46725,2,0,P|400:120|432:120,3,60,8|0|0|0,0:0|0:0|0:0|0:0,0:0:0:0:
484,168,47225,38,0,L|492:228,1,60
436,276,47475,2,0,L|428:336,1,60,0|0,0:0|0:0,0:0:0:0:
360,360,47725,2,0,P|300:352|240:372,1,120,8|0,0:0|0:0,0:0:0:0:
248,224,48225,6,0,P|266:197|276:168,1,60,8|0,0:0|0:0,0:0:0:0:
283,99,48475,2,0,P|313:108|344:108,1,60,8|0,0:0|0:0,0:0:0:0:
412,92,48725,2,0,P|412:123|421:153,1,60,8|0,0:0|0:0,0:0:0:0:
457,212,48975,2,0,P|426:222|401:238,1,60,8|0,0:0|0:0,0:0:0:0:
356,292,49225,1,4,0:0:0:0:
356,292,50225,6,0,P|288:292|228:312,2,132.00000402832,6|10|2,0:0|0:0|0:0,0:0:0:0:
432,312,50850,1,0,0:0:0:0:
412,236,50975,2,0,P|416:200|424:172,1,66.0000020141602,10|0,0:0|0:0,0:0:0:0:
476,112,51225,6,0,P|413:132|347:132,1,132.00000402832,2|10,0:0|0:0,0:0:0:0:
212,52,51725,2,0,L|144:44,1,66.0000020141602,2|0,0:0|0:0,0:0:0:0:
120,120,51975,2,0,L|188:128,1,66.0000020141602,10|0,0:0|0:0,0:0:0:0:
264,112,52225,38,0,P|260:180|280:244,2,132.00000402832,6|10|2,0:0|0:0|0:0,0:0:0:0:
292,36,52850,1,0,0:0:0:0:
372,24,52975,2,0,P|404:36|432:56,1,66.0000020141602,10|0,0:0|0:0,0:0:0:0:
480,116,53225,6,0,P|488:180|472:248,1,132.00000402832,2|10,0:0|0:0,0:0:0:0:
420,304,53600,1,0,0:0:0:0:
420,304,53725,2,2,B|384:308|352:324|352:324|324:272|324:272|292:288|256:292,1,198.000006042481,2|0,0:0|0:0,0:0:0:0:
228,220,54225,38,0,P|276:212|344:164,2,132.00000402832,6|10|2,0:0|0:0|0:0,0:0:0:0:
156,188,54850,2,0,L|148:120,2,66.0000020141602,0|10|0,0:0|0:0|0:0,0:0:0:0:
124,260,55225,6,0,P|76:268|8:316,2,132.00000402832,2|10|2,0:0|0:0|0:0,0:0:0:0:
196,292,55850,2,0,L|204:360,2,66.0000020141602,0|10|0,0:0|0:0|0:0,0:0:0:0:
276,280,56225,38,0,L|344:276,1,66.0000020141602,2|0,0:0|0:0,0:0:0:0:
412,312,56475,2,0,L|480:308,1,66.0000020141602,10|0,0:0|0:0,0:0:0:0:
492,228,56725,2,0,L|424:232,1,66.0000020141602,2|0,0:0|0:0,0:0:0:0:
356,196,56975,2,0,L|288:200,1,66.0000020141602,10|0,0:0|0:0,0:0:0:0:
228,152,57225,6,0,L|236:116,4,33.0000010070801,14|10|10|10|0,0:0|0:0|0:0|0:0|0:0,0:0:0:0:
96,244,57725,2,0,L|104:280,4,33.0000010070801,14|10|10|10|0,0:0|0:0|0:0|0:0|0:0,0:0:0:0:
72,88,58225,38,0,P|140:92|204:76,1,132.00000402832,14|10,0:0|0:0,0:0:0:0:
268,32,58600,1,0,0:0:0:0:
268,32,58725,2,0,L|336:36,1,66.0000020141602,10|0,0:0|0:0,0:0:0:0:
400,80,58975,2,0,L|468:76,1,66.0000020141602,10|0,0:0|0:0,0:0:0:0:
464,156,59225,6,0,P|396:160|332:144,1,132.00000402832,10|10,0:0|0:0,0:0:0:0:
268,100,59600,1,0,0:0:0:0:
268,100,59725,2,0,L|200:104,1,66.0000020141602,10|0,0:0|0:0,0:0:0:0:
136,148,59975,2,0,L|68:144,1,66.0000020141602,10|0,0:0|0:0,0:0:0:0:
12,200,60225,38,0,P|36:244|32:324,1,132.00000402832,14|10,0:0|0:0,0:0:0:0:
100,368,60600,1,0,0:0:0:0:
160,316,60725,2,0,L|168:248,1,66.0000020141602,10|0,0:0|0:0,0:0:0:0:
112,196,60975,2,0,L|104:128,1,66.0000020141602,10|0,0:0|0:0,0:0:0:0:
156,72,61225,5,10,0:0:0:0:
232,96,61350,1,0,0:0:0:0:
296,48,61475,1,10,0:0:0:0:
372,72,61600,1,0,0:0:0:0:
436,28,61725,2,0,P|460:72|456:152,1,132.00000402832,10|0,0:0|0:0,0:0:0:0:
320,232,62225,38,0,L|188:224,1,132.00000402832,14|10,0:0|0:0,0:0:0:0:
112,196,62600,1,0,0:0:0:0:
48,240,62725,2,0,L|52:308,2,66.0000020141602,10|0|10,0:0|0:0|0:0,0:0:0:0:
40,160,63100,1,0,0:0:0:0:
108,116,63225,6,0,P|176:124|232:96,1,132.00000402832,10|10,0:0|0:0,0:0:0:0:
292,44,63600,1,0,0:0:0:0:
308,120,63725,2,0,L|300:188,1,66.0000020141602,10|0,0:0|0:0,0:0:0:0:
256,252,63975,2,0,L|264:320,1,66.0000020141602,10|0,0:0|0:0,0:0:0:0:
328,364,64225,37,2,0:0:0:0:
404,344,64350,2,0,L|436:368,2,33.0000010070801,8|8|10,0:0|0:0|0:0,0:0:0:0:
348,288,64600,1,0,0:0:0:0:
368,212,64725,1,10,0:0:0:0:
444,192,64850,1,0,0:0:0:0:
500,248,64975,1,10,0:0:0:0:
480,324,65100,1,0,0:0:0:0:
424,268,65225,5,6,0:0:0:0:
237,8,65725,1,6,0:0:0:0:
106,299,66225,5,6,0:0:0:0:
136,188,74225,53,4,0:0:0:0:
136,188,75225,6,0,L|200:196,1,60,4|0,0:0|0:0,0:0:0:0:
240,252,75475,2,0,L|232:316,1,60,8|0,0:0|0:0,0:0:0:0:
176,356,75725,2,0,L|112:348,1,60,8|0,0:0|0:0,0:0:0:0:
72,292,75975,2,0,L|80:228,1,60,8|0,0:0|0:0,0:0:0:0:
136,188,76225,38,0,P|196:192|256:176,1,120,0|8,0:0|0:0,0:0:0:0:
308,128,76600,1,0,0:0:0:0:
308,128,76725,2,0,P|368:124|428:140,1,120,0|8,0:0|0:0,0:0:0:0:
472,276,77225,5,4,0:0:0:0:
408,308,77350,2,0,L|412:368,2,60,8|8|8,0:0|0:0|0:0,0:0:0:0:
336,292,77725,1,0,0:0:0:0:
264,276,77850,2,0,L|268:216,2,60,8|0|8,0:0|0:0|0:0,0:0:0:0:
200,308,78225,38,0,P|144:328|80:320,1,120,4|8,0:0|0:0,0:0:0:0:
28,276,78600,1,0,0:0:0:0:
28,276,78725,2,0,L|20:156,1,120,0|8,0:0|0:0,0:0:0:0:
120,52,79225,6,0,P|176:32|240:40,1,120,0|8,0:0|0:0,0:0:0:0:
292,84,79600,1,0,0:0:0:0:
292,84,79725,2,0,L|300:204,1,120,0|8,0:0|0:0,0:0:0:0:
396,312,80225,38,0,P|428:316|456:316,2,60,12|0|0,0:0|0:0|0:0,0:0:0:0:
332,276,80600,2,0,P|312:301|298:325,2,60,12|0|0,0:0|0:0|0:0,0:0:0:0:
396,240,80975,2,0,P|383:210|369:186,1,60,12|0,0:0|0:0,0:0:0:0:
304,160,81225,6,0,P|240:160|192:188,1,120,12|8,0:0|0:0,0:0:0:0:
164,256,81600,1,8,0:0:0:0:
164,256,81662,1,8,0:0:0:0:
164,256,81725,2,0,P|112:284|52:283,1,120,0|8,0:0|0:0,0:0:0:0:
20,144,82225,38,0,L|24:80,1,60,4|8,0:0|0:0,0:0:0:0:
68,28,82475,1,0,0:0:0:0:
132,60,82600,2,0,P|188:76|252:68,1,120,8|8,0:0|0:0,0:0:0:0:
316,40,82975,2,0,L|324:104,1,60
344,168,83225,6,0,P|403:174|460:158,2,120,8|8|8,0:0|0:0|0:0,0:0:0:0:
272,152,83850,1,0,0:0:0:0:
272,152,83975,2,0,L|268:212,1,60,8|0,0:0|0:0,0:0:0:0:
296,280,84225,38,0,P|320:296|340:320,2,60,4|8|0,0:0|0:0|0:0,0:0:0:0:
224,268,84600,2,0,P|164:276|116:312,1,120,8|8,0:0|0:0,0:0:0:0:
92,380,84975,1,0,0:0:0:0:
24,356,85100,1,8,0:0:0:0:
44,288,85225,6,0,P|52:228|44:164,1,120,8|8,0:0|0:0,0:0:0:0:
172,100,85725,2,0,P|164:160|172:224,1,120,8|8,0:0|0:0,0:0:0:0:
224,268,86100,1,0,0:0:0:0:
296,280,86225,38,0,L|300:344,2,60,4|8|0,0:0|0:0|0:0,0:0:0:0:
360,248,86600,2,0,P|408:244|472:280,2,120,8|8|8,0:0|0:0|0:0,0:0:0:0:
300,208,87225,6,0,P|284:152|292:92,1,120,8|8,0:0|0:0,0:0:0:0:
240,40,87600,1,0,0:0:0:0:
240,40,87725,2,0,L|180:36,2,60,8|0|8,0:0|0:0|0:0,0:0:0:0:
384,60,88225,38,0,L|396:0,2,60,8|0|0,0:0|0:0|0:0,0:0:0:0:
448,96,88600,2,8,L|508:108,2,60,8|0|0,0:0|0:0|0:0,0:0:0:0:
412,160,88975,2,0,L|400:220,2,60,8|0|0,0:0|0:0|0:0,0:0:0:0:
348,124,89350,2,8,L|288:112,2,60,8|0|0,0:0|0:0|0:0,0:0:0:0:
384,60,89725,6,0,L|396:0,1,60,8|8,0:0|0:0,0:0:0:0:
448,96,89975,2,0,L|508:108,1,60
412,160,90225,37,4,0:0:0:0:
412,160,90350,2,0,L|388:280,1,120,8|8,0:0|0:0,0:0:0:0:
328,316,90725,1,0,0:0:0:0:
260,292,90850,2,0,P|204:300|156:352,1,120,8|8,0:0|0:0,0:0:0:0:
92,320,91225,6,0,L|36:300,1,60,8|0,0:0|0:0,0:0:0:0:
68,236,91475,2,0,L|25:194,1,60,8|0,0:0|0:0,0:0:0:0:
80,148,91725,2,0,L|59:92,2,60,8|0|8,0:0|0:0|0:0,0:0:0:0:
216,196,92225,37,4,0:0:0:0:
216,196,92350,2,0,P|232:136|224:80,1,120,8|8,0:0|0:0,0:0:0:0:
172,28,92725,1,0,0:0:0:0:
240,8,92850,2,0,L|360:16,1,120,8|8,0:0|0:0,0:0:0:0:
424,48,93225,6,0,P|444:72|456:100,1,60,8|0,0:0|0:0,0:0:0:0:
424,164,93475,2,0,P|393:169|362:165,1,60,8|0,0:0|0:0,0:0:0:0:
324,108,93725,2,0,P|334:78|353:54,2,60,8|0|8,0:0|0:0|0:0,0:0:0:0:
252,232,94225,38,0,L|260:296,1,60,4|8,0:0|0:0,0:0:0:0:
236,360,94475,1,0,0:0:0:0:
236,360,94600,2,0,P|176:364|116:352,2,120,8|8|8,0:0|0:0|0:0,0:0:0:0:
308,348,95225,6,0,P|368:344|428:356,1,120,8|8,0:0|0:0,0:0:0:0:
476,300,95600,1,0,0:0:0:0:
476,300,95662,1,0,0:0:0:0:
476,300,95725,2,0,L|468:240,2,60,8|0|8,0:0|0:0|0:0,0:0:0:0:
348,236,96225,38,0,L|356:176,2,60,4|8|0,0:0|0:0|0:0,0:0:0:0:
288,276,96600,2,0,P|232:288|164:284,1,120,12|0,0:0|0:0,0:0:0:0:
100,260,96975,1,12,0:0:0:0:
76,192,97100,1,0,0:0:0:0:
116,132,97225,6,0,L|120:100,2,30,0|0|8,0:0|0:0|0:0,0:0:0:0:
188,140,97475,1,0,0:0:0:0:
260,148,97600,2,0,L|264:180,2,30,0|0|8,0:0|0:0|0:0,0:0:0:0:
328,124,97850,1,0,0:0:0:0:
328,124,97912,1,0,0:0:0:0:
328,124,97975,1,8,0:0:0:0:
448,44,98225,38,0,P|472:100|468:160,1,120,8|8,0:0|0:0,0:0:0:0:
428,216,98600,1,0,0:0:0:0:
364,248,98725,2,0,L|240:240,1,120,8|8,0:0|0:0,0:0:0:0:
132,148,99225,6,0,P|108:92|112:32,2,120,8|8|8,0:0|0:0|0:0,0:0:0:0:
200,176,99850,2,0,L|260:172,2,60
156,240,100225,37,4,0:0:0:0:
156,240,100350,1,0,0:0:0:0:
156,240,100475,1,0,0:0:0:0:
156,240,100600,1,0,0:0:0:0:
156,240,100725,2,0,L|164:300,1,60,8|0,0:0|0:0,0:0:0:0:
88,272,100975,2,0,L|96:332,1,60
28,228,101225,5,0,0:0:0:0:
28,228,101350,1,0,0:0:0:0:
28,228,101475,1,0,0:0:0:0:
28,228,101600,1,0,0:0:0:0:
28,228,101725,2,0,L|20:168,1,60,8|0,0:0|0:0,0:0:0:0:
96,196,101975,2,0,L|88:136,1,60
120,72,102225,37,4,0:0:0:0:
120,72,102350,1,0,0:0:0:0:
120,72,102475,1,0,0:0:0:0:
120,72,102600,1,0,0:0:0:0:
120,72,102725,2,0,L|180:64,1,60,8|0,0:0|0:0,0:0:0:0:
232,112,102975,2,0,L|292:120,1,60
352,80,103225,6,0,P|368:52|392:36,1,60,8|0,0:0|0:0,0:0:0:0:
460,52,103475,2,0,P|476:79|478:108,1,60
432,164,103725,2,0,P|399:164|373:151,2,60,8|0|12,0:0|0:0|0:0,0:0:0:0:
324,260,104225,38,0,L|200:252,1,120,12|8,0:0|0:0,0:0:0:0:
156,200,104600,1,0,0:0:0:0:
156,200,104725,2,0,P|140:140|148:80,1,120,8|8,0:0|0:0,0:0:0:0:
20,148,105225,6,0,L|28:208,1,60
92,260,105475,1,2,0:2:0:0:
92,260,105537,1,2,0:2:0:0:
92,260,105600,1,2,0:2:0:0:
100,180,105725,2,0,P|132:176|164:176,2,60,8|0|8,0:0|0:0|0:0,0:0:0:0:
148,332,106225,6,0,P|216:328|276:352,1,132.00000402832,6|10,0:0|0:0,0:0:0:0:
348,324,106600,1,0,0:0:0:0:
288,272,106725,2,0,P|280:240|280:208,1,66.0000020141602,2|0,0:0|0:0,0:0:0:0:
356,180,106975,2,0,P|364:212|364:244,1,66.0000020141602,10|0,0:0|0:0,0:0:0:0:
348,324,107225,6,0,P|412:308|480:320,2,132.00000402832,2|10|2,0:0|0:0|0:0,0:0:0:0:
272,352,107850,1,0,0:0:0:0:
263,271,107975,2,0,P|244:245|220:224,1,66.0000020141602,10|0,0:0|0:0,0:0:0:0:
148,192,108225,38,0,P|84:180|16:188,2,132.00000402832,6|10|2,0:0|0:0|0:0,0:0:0:0:
220,224,108850,2,0,L|228:156,1,66.0000020141602,0|10,0:0|0:0,0:0:0:0:
272,92,109100,1,0,0:0:0:0:
344,56,109225,6,0,L|412:48,1,66.0000020141602,2|0,0:0|0:0,0:0:0:0:
444,120,109475,2,0,L|376:128,1,66.0000020141602,10|0,0:0|0:0,0:0:0:0:
308,164,109725,2,2,B|300:200|300:200|320:220|320:220|316:260|344:288|388:292|420:256,1,198.000006042481,2|2,0:0|0:0,0:0:0:0:
452,332,110225,38,0,P|392:359|328:353,1,132.00000402832,6|10,0:0|0:0,0:0:0:0:
260,312,110600,1,0,0:0:0:0:
260,312,110725,2,0,L|192:320,1,66.0000020141602,2|0,0:0|0:0,0:0:0:0:
124,360,110975,2,0,L|56:352,1,66.0000020141602,10|0,0:0|0:0,0:0:0:0:
20,284,111225,6,0,P|60:232|64:168,1,132.00000402832,2|10,0:0|0:0,0:0:0:0:
16,104,111600,1,0,0:0:0:0:
96,92,111725,2,0,L|160:112,1,66.0000020141602,2|0,0:0|0:0,0:0:0:0:
220,60,111975,2,0,L|284:40,1,66.0000020141602,10|0,0:0|0:0,0:0:0:0:
352,80,112225,38,0,P|344:112|340:144,1,66.0000020141602,2|0,0:0|0:0,0:0:0:0:
420,132,112475,2,0,P|426:164|436:195,1,66.0000020141602,10|0,0:0|0:0,0:0:0:0:
492,252,112725,1,2,0:0:0:0:
416,272,112850,1,0,0:0:0:0:
340,292,112975,1,10,0:0:0:0:
264,312,113100,1,0,0:0:0:0:
288,236,113225,6,0,L|296:200,4,33.0000010070801,14|10|10|10|0,0:0|0:0|0:0|0:0|0:0,0:0:0:0:
152,316,113725,2,0,L|160:352,4,33.0000010070801,14|10|10|10|0,0:0|0:0|0:0|0:0|0:0,0:0:0:0:
68,180,114225,38,0,P|88:116|76:52,1,132.00000402832,14|10,0:0|0:0,0:0:0:0:
148,24,114600,1,0,0:0:0:0:
148,24,114662,1,0,0:0:0:0:
148,24,114725,2,0,L|216:28,1,66.0000020141602,10|0,0:0|0:0,0:0:0:0:
180,100,114975,2,0,L|233:142,1,66.0000020141602,10|0,0:0|0:0,0:0:0:0:
164,180,115225,6,0,L|196:312,1,132.00000402832,10|10,0:0|0:0,0:0:0:0:
264,348,115600,1,0,0:0:0:0:
344,356,115725,2,0,L|412:352,1,66.0000020141602,10|0,0:0|0:0,0:0:0:0:
424,272,115975,2,0,L|356:276,1,66.0000020141602,10|0,0:0|0:0,0:0:0:0:
280,268,116225,38,0,P|304:216|372:200,1,132.00000402832,14|10,0:0|0:0,0:0:0:0:
448,168,116600,1,0,0:0:0:0:
448,168,116662,1,0,0:0:0:0:
448,168,116725,2,0,L|456:100,1,66.0000020141602,2|0,0:0|0:0,0:0:0:0:
376,108,116975,2,0,L|368:42,1,66.0000020141602,10|0,0:0|0:0,0:0:0:0:
292,16,117225,6,0,L|224:24,1,66.0000020141602,10|0,0:0|0:0,0:0:0:0:
152,52,117475,2,0,L|84:60,1,66.0000020141602,10|0,0:0|0:0,0:0:0:0:
16,96,117725,1,10,0:0:0:0:
84,140,117850,1,0,0:0:0:0:
12,176,117975,2,0,P|8:208|8:244,1,66.0000020141602,0|0,0:0|0:0,0:0:0:0:
44,312,118225,38,0,P|92:340|172:332,1,132.00000402832,14|10,0:0|0:0,0:0:0:0:
232,292,118600,1,0,0:0:0:0:
232,292,118662,1,0,0:0:0:0:
232,292,118725,2,0,P|228:260|232:224,1,66.0000020141602,10|0,0:0|0:0,0:0:0:0:
308,208,118975,2,0,P|312:240|308:276,1,66.0000020141602,10|0,0:0|0:0,0:0:0:0:
284,348,119225,6,0,P|352:340|416:352,1,132.00000402832,10|10,0:0|0:0,0:0:0:0:
492,368,119600,1,0,0:0:0:0:
464,292,119725,2,0,P|456:260|452:228,1,66.0000020141602,10|0,0:0|0:0,0:0:0:0:
488,156,119975,2,0,P|496:124|500:92,1,66.0000020141602,10|0,0:0|0:0,0:0:0:0:
452,28,120225,37,2,0:0:0:0:
376,12,120350,1,0,0:0:0:0:
300,32,120475,1,10,0:0:0:0:
208,164,120725,2,0,L|212:208,5,44.0000013427735,2|0|0|2|0|0,0:0|0:0|0:0|0:0|0:0|0:0,0:0:0:0:
244,252,121225,6,0,B|312:232|376:252|360:308|424:328|488:308,1,264.000008056641,6|6,0:0|0:0,0:0:0:0:
496,20,122225,5,10,0:0:0:0:
496,20,122287,1,8,0:0:0:0:
496,20,122350,2,0,L|436:24,1,60,8|0,0:0|0:0,0:0:0:0:
384,72,122600,1,0,0:0:0:0:
384,72,122662,1,0,0:0:0:0:
384,72,122725,2,0,L|324:68,2,60,8|0|0,0:0|0:0|0:0,0:0:0:0:
452,96,123100,1,8,0:0:0:0:
488,160,123225,6,0,P|488:192|484:220,1,60
448,280,123475,2,0,P|420:296|394:306,1,60,8|0,0:0|0:0,0:0:0:0:
324,292,123725,2,0,L|308:264,4,30,0|0|0|0|8,0:0|0:0|0:0|0:0|0:0,0:0:0:0:
192,352,124225,21,4,0:0:0:0:
32,284,130225,6,0,P|64:280|96:280,1,60,4|0,0:0|0:0,0:0:0:0:
160,316,130475,1,8,0:0:0:0:
160,316,130537,1,8,0:0:0:0:
160,316,130600,1,8,0:0:0:0:
220,356,130725,2,0,P|252:360|284:360,1,60,0|0,0:0|0:0,0:0:0:0:
344,328,130975,2,0,P|358:299|369:269,1,60,0|0,0:0|0:0,0:0:0:0:
340,208,131225,6,0,L|308:204,2,30,0|0|0,0:0|0:0|0:0,0:0:0:0:
392,156,131475,2,0,L|424:152,2,30,8|8|8,0:0|0:0|0:0,0:0:0:0:
356,92,131725,2,0,L|296:80,1,60
240,36,131975,2,0,L|180:48,1,60
128,96,132225,37,4,0:0:0:0:
104,88,132725,1,0,0:0:0:0:
80,80,133225,1,4,0:0:0:0:
56,72,133725,1,0,0:0:0:0:
32,64,133975,2,0,L|36:124,1,60
68,188,134225,5,4,0:0:0:0:
92,180,134725,1,0,0:0:0:0:
116,172,135225,1,4,0:0:0:0:
140,164,135475,38,0,L|136:220,2,40,2|0|2,0:0|0:0|0:0,0:0:0:0:
176,128,135725,2,0,L|172:72,2,40,0|2|0,0:0|0:0|0:0,0:0:0:0:
220,152,135975,2,0,L|216:208,2,40,2|0|0,0:0|0:0|0:0,0:0:0:0:
252,116,136225,5,4,0:0:0:0:
256,92,136725,1,0,0:0:0:0:
260,68,136975,2,0,L|320:56,1,60
388,40,137225,38,0,L|448:56,1,60,4|0,0:0|0:0,0:0:0:0:
500,104,137475,1,0,0:0:0:0:
404,212,137725,2,0,L|344:196,1,60,0|0,0:0|0:0,0:0:0:0:
292,148,137975,1,0,0:0:0:0:
240,16,138225,6,0,L|120:24,1,120,6|0,0:0|0:0,0:0:0:0:
48,40,138600,2,0,P|20:92|28:156,1,120,6|0,0:0|0:0,0:0:0:0:
84,196,138975,2,0,L|204:204,1,120,6|6,0:0|0:0,0:0:0:0:
328,136,139475,37,8,0:0:0:0:
328,136,139537,1,8,0:0:0:0:
328,136,139600,1,8,0:0:0:0:
348,64,139725,1,2,0:0:0:0:
484,116,139975,1,8,0:0:0:0:
484,116,140037,1,8,0:0:0:0:
484,116,140100,1,8,0:0:0:0:
464,184,140225,6,0,P|460:216|464:244,1,60,4|2,0:0|0:0,0:0:0:0:
484,312,140475,2,0,L|424:320,1,60,0|2,0:0|0:0,0:0:0:0:
372,268,140725,2,0,P|376:236|372:208,1,60,0|2,0:0|0:0,0:0:0:0:
352,140,140975,2,0,L|412:132,1,60,0|2,0:0|0:0,0:0:0:0:
484,116,141225,38,0,P|488:84|488:56,1,60,0|2,0:0|0:0,0:0:0:0:
416,60,141475,2,0,P|400:31|384:8,1,60,0|2,0:0|0:0,0:0:0:0:
328,52,141725,2,0,P|299:37|272:27,1,60,0|2,0:0|0:0,0:0:0:0:
252,96,141975,2,0,P|220:100|193:107,1,60,0|2,0:0|0:0,0:0:0:0:
212,176,142225,6,0,P|188:197|170:219,3,60,4|2|0|2,0:0|0:0|0:0|0:0,0:0:0:0:
164,292,142725,2,0,P|181:319|199:340,3,60,0|2|0|2,0:0|0:0|0:0|0:0,0:0:0:0:
272,352,143225,38,2,B|324:328|324:328|376:366|440:348,1,180,2|0,0:0|0:0,0:0:0:0:
428,276,143725,2,2,B|392:292|336:276|320:208|368:168,1,180,2|0,0:0|0:0,0:0:0:0:
436,152,144225,6,0,P|456:96|452:36,1,120,4|0,0:0|0:0,0:0:0:0:
384,8,144600,2,0,L|264:20,1,120,2|0,0:0|0:0,0:0:0:0:
140,88,145100,1,2,0:0:0:0:
140,88,145225,38,0,L|76:80,2,60,0|2|0,0:0|0:0|0:0,0:0:0:0:
196,136,145600,1,2,0:0:0:0:
252,180,145725,2,0,L|316:172,2,60,0|2|0,0:0|0:0|0:0,0:0:0:0:
200,232,146100,1,2,0:0:0:0:
148,284,146225,6,0,P|88:292|28:292,1,120,6|0,0:0|0:0,0:0:0:0:
36,364,146600,2,0,P|95:363|155:355,1,120,6|0,0:0|0:0,0:0:0:0:
220,324,146975,38,0,P|280:316|340:316,1,120,6|0,0:0|0:0,0:0:0:0:
332,244,147350,2,0,P|273:245|213:253,1,120,6|0,0:0|0:0,0:0:0:0:
148,284,147725,2,0,P|116:284|88:280,1,60,6|0,0:0|0:0,0:0:0:0:
28,240,147975,1,2,0:0:0:0:
4,100,148225,6,0,P|60:84|120:92,1,120,6|0,0:0|0:0,0:0:0:0:
180,132,148600,2,0,P|239:140|296:124,1,120,2|0,0:0|0:0,0:0:0:0:
356,80,148975,1,2,0:0:0:0:
356,80,149100,1,0,0:0:0:0:
388,16,149225,37,0,0:0:0:0:
428,76,149350,2,0,P|424:136|440:200,1,120,2|2,0:0|0:0,0:0:0:0:
500,324,149850,2,0,L|440:332,1,60,0|2,0:0|0:0,0:0:0:0:
376,368,150100,1,0,0:0:0:0:
376,296,150225,6,0,P|380:264|380:236,1,60,6|2,0:0|0:0,0:0:0:0:
336,180,150475,1,0,0:0:0:0:
264,168,150600,1,0,0:0:0:0:
204,208,150725,38,0,P|208:240|208:268,1,60,2|2,0:0|0:0,0:0:0:0:
164,324,150975,1,0,0:0:0:0:
92,336,151100,1,0,0:0:0:0:
32,296,151225,6,0,L|24:236,1,60,2|2,0:0|0:0,0:0:0:0:
76,184,151475,2,0,L|84:124,1,60,0|0,0:0|0:0,0:0:0:0:
44,64,151725,2,0,B|80:84|128:76|152:40|152:40|220:48,1,180,2|0,0:0|0:0,0:0:0:0:
264,92,152225,38,0,B|300:112|348:104|372:68,1,120,6|0,0:0|0:0,0:0:0:0:
436,36,152600,2,0,P|444:64|456:96,1,60,2|0,0:0|0:0,0:0:0:0:
508,144,152850,2,0,P|500:172|488:204,1,60,2|0,0:0|0:0,0:0:0:0:
428,244,153100,1,2,0:0:0:0:
360,260,153225,6,0,L|300:256,3,60,0|2|0|2,0:0|0:0|0:0|0:0,0:0:0:0:
232,228,153725,2,0,L|172:232,3,60,0|2|0|2,0:0|0:0|0:0|0:0,0:0:0:0:
108,268,154225,38,0,P|64:232|32:176,1,120,2|0,0:0|0:0,0:0:0:0:
104,160,154600,2,0,P|88:105|94:41,1,120,2|0,0:0|0:0,0:0:0:0:
164,64,154975,1,2,0:0:0:0:
264,168,155225,5,2,0:0:0:0:
264,168,155350,2,0,L|384:176,1,120,0|2,0:0|0:0,0:0:0:0:
388,104,155725,2,0,L|268:96,1,120,0|2,0:0|0:0,0:0:0:0:
168,200,156225,38,0,P|192:248|252:276,1,120,4|2,0:0|0:0,0:0:0:0:
224,344,156600,1,2,0:0:0:0:
156,372,156725,2,0,P|132:324|72:296,1,120
48,156,157225,6,0,L|108:164,1,60,2|0,0:0|0:0,0:0:0:0:
168,124,157475,2,0,L|228:116,1,60,0|0,0:0|0:0,0:0:0:0:
292,148,157725,2,0,B|344:164|344:164|392:144|436:168|448:216,1,180,2|0,0:0|0:0,0:0:0:0:
376,232,158225,38,0,P|344:240|316:232,1,60,4|0,0:0|0:0,0:0:0:0:
252,208,158475,2,0,P|220:200|192:208,1,60,0|0,0:0|0:0,0:0:0:0:
128,232,158725,2,0,L|120:292,2,60,8|0|0,0:0|0:0|0:0,0:0:0:0:
140,160,159100,1,0,0:0:0:0:
192,112,159225,6,0,P|224:104|252:112,1,60
316,136,159475,2,0,P|348:144|376:136,1,60,0|0,0:0|0:0,0:0:0:0:
440,112,159725,2,0,L|448:52,2,60,8|0|0,0:0|0:0|0:0,0:0:0:0:
428,184,160100,1,0,0:0:0:0:
416,256,160225,38,0,L|404:324,1,60,4|0,0:0|0:0,0:0:0:0:
336,292,160475,2,0,L|287:340,1,60,0|0,0:0|0:0,0:0:0:0:
248,276,160725,2,0,L|179:287,1,60,8|0,0:0|0:0,0:0:0:0:
186,213,160975,2,0,L|123:183,1,60,0|0,0:0|0:0,0:0:0:0:
168,124,161225,6,0,L|133:64,2,60,8|0|0,0:0|0:0|0:0,0:0:0:0:
240,108,161600,1,0,0:0:0:0:
312,92,161725,2,0,L|346:151,2,60,8|0|8,0:0|0:0|0:0,0:0:0:0:
452,52,162225,38,0,P|484:104|492:168,1,120,8|8,0:0|0:0,0:0:0:0:
464,228,162600,1,0,0:0:0:0:
396,256,162725,2,0,L|272:248,1,120,8|8,0:0|0:0,0:0:0:0:
192,132,163225,6,0,P|184:100|180:72,1,60,8|0,0:0|0:0,0:0:0:0:
112,48,163475,2,0,P|88:70|66:88,1,60,8|0,0:0|0:0,0:0:0:0:
80,160,163725,2,0,P|111:169|137:179,2,60,0|8|8,0:0|0:0|0:0,0:0:0:0:
8,284,164225,38,0,P|44:332|100:352,1,120,4|0,0:0|0:0,0:0:0:0:
164,316,164600,1,2,0:0:0:0:
200,252,164725,2,0,L|204:192,1,60,2|2,0:0|0:0,0:0:0:0:
164,132,164975,2,0,L|160:72,1,60,2|2,0:0|0:0,0:0:0:0:
208,20,165225,5,2,0:0:0:0:
276,48,165350,1,2,0:0:0:0:
344,32,165475,1,2,0:0:0:0:
412,60,165600,1,2,0:0:0:0:
484,44,165725,38,0,P|488:76|488:104,1,60,8|0,0:0|0:0,0:0:0:0:
456,168,165975,2,0,P|427:182|400:192,1,60,8|0,0:0|0:0,0:0:0:0:
332,168,166225,6,0,L|328:136,2,30,12|0|0,0:0|0:0|0:0,0:0:0:0:
264,196,166475,2,0,L|260:228,2,30,12|0|0,0:0|0:0|0:0,0:0:0:0:
204,156,166725,2,0,L|200:124,2,30,12|0|0,0:0|0:0|0:0,0:0:0:0:
136,184,166975,2,0,L|132:216,2,30,12|0|0,0:0|0:0|0:0,0:0:0:0:
76,144,167225,1,12,0:0:0:0:
76,144,167725,37,8,0:0:0:0:
76,144,167787,1,0,0:0:0:0:
76,144,167850,2,0,L|64:76,1,60,0|0,0:0|0:0,0:0:0:0:
104,24,168100,1,0,0:0:0:0:
172,8,168225,22,0,P|236:40|308:36,1,143.999995605469,6|10,0:0|0:0,0:0:0:0:
392,12,168600,1,0,0:0:0:0:
364,96,168725,2,0,P|360:136|364:168,1,71.9999978027344,2|0,0:0|0:0,0:0:0:0:
400,248,168975,2,0,L|328:256,1,71.9999978027344,10|0,0:0|0:0,0:0:0:0:
256,300,169225,6,0,P|192:268|120:272,1,143.999995605469,2|10,0:0|0:0,0:0:0:0:
36,296,169600,1,0,0:0:0:0:
64,212,169725,2,0,P|68:172|64:140,1,71.9999978027344,2|0,0:0|0:0,0:0:0:0:
28,60,169975,2,0,L|100:52,1,71.9999978027344,10|0,0:0|0:0,0:0:0:0:
180,84,170225,38,0,P|176:152|196:224,2,143.999995605469,6|10|2,0:0|0:0|0:0,0:0:0:0:
232,12,170850,1,0,0:0:0:0:
304,60,170975,2,0,P|332:84|364:100,1,71.9999978027344,10|0,0:0|0:0,0:0:0:0:
448,116,171225,6,0,P|456:80|460:44,2,71.9999978027344,2|0|10,0:0|0:0|0:0,0:0:0:0:
388,180,171600,1,0,0:0:0:0:
388,180,171725,2,2,B|352:192|352:192|328:168|328:168|264:176|244:232|284:272,1,215.999993408203,2|0,0:0|0:0,0:0:0:0:
204,308,172225,38,0,P|180:240|192:168,2,143.999995605469,6|10|2,0:0|0:0|0:0,0:0:0:0:
276,356,172850,1,0,0:0:0:0:
360,344,172975,2,0,L|432:336,1,71.9999978027344,10|0,0:0|0:0,0:0:0:0:
488,272,173225,6,0,P|452:208|460:136,1,143.999995605469,2|10,0:0|0:0,0:0:0:0:
508,68,173600,1,0,0:0:0:0:
432,28,173725,2,0,L|360:48,1,71.9999978027344,2|0,0:0|0:0,0:0:0:0:
284,12,173975,2,0,L|236:69,1,71.9999978027344,10|0,0:0|0:0,0:0:0:0:
152,72,174225,38,0,L|146:146,2,71.9999978027344,2|0|10,0:0|0:0|0:0,0:0:0:0:
72,40,174600,1,0,0:0:0:0:
24,112,174725,2,0,P|20:148|32:184,1,71.9999978027344,2|0,0:0|0:0,0:0:0:0:
108,220,174975,2,0,P|112:256|100:292,1,71.9999978027344,10|0,0:0|0:0,0:0:0:0:
28,336,175225,6,0,P|100:324|164:356,1,143.999995605469,2|0,0:0|0:0,0:0:0:0:
240,316,175600,1,0,0:0:0:0:
240,316,175662,1,0,0:0:0:0:
240,316,175725,2,0,L|228:172,1,143.999995605469,2|8,0:0|0:0,0:0:0:0:
344,44,176225,38,0,P|380:52|416:52,1,71.9999978027344,14|0,0:0|0:0,0:0:0:0:
500,32,176475,2,0,L|496:104,1,71.9999978027344,10|0,0:0|0:0,0:0:0:0:
452,180,176725,2,0,P|416:188|380:188,1,71.9999978027344,10|0,0:0|0:0,0:0:0:0:
296,168,176975,2,0,L|300:240,1,71.9999978027344,10|0,0:0|0:0,0:0:0:0:
248,308,177225,6,0,P|212:300|176:300,1,71.9999978027344,10|0,0:0|0:0,0:0:0:0:
96,272,177475,2,0,P|120:244|138:213,1,71.9999978027344,10|0,0:0|0:0,0:0:0:0:
200,156,177725,2,0,P|211:191|229:222,2,71.9999978027344,10|0|10,0:0|0:0|0:0,0:0:0:0:
208,68,178100,1,0,0:0:0:0:
284,32,178225,38,0,L|360:40,1,71.9999978027344,14|0,0:0|0:0,0:0:0:0:
440,16,178475,2,0,L|516:24,1,71.9999978027344,10|0,0:0|0:0,0:0:0:0:
508,108,178725,2,0,L|432:100,1,71.9999978027344,10|0,0:0|0:0,0:0:0:0:
352,124,178975,2,0,L|276:116,1,71.9999978027344,10|0,0:0|0:0,0:0:0:0:
208,68,179225,6,0,P|176:48|140:40,1,71.9999978027344,10|0,0:0|0:0,0:0:0:0:
60,60,179475,2,0,P|30:83|10:114,1,71.9999978027344,10|0,0:0|0:0,0:0:0:0:
4,200,179725,2,0,P|15:235|38:265,2,71.9999978027344,10|0|0,0:0|0:0|0:0,0:0:0:0:
84,164,180100,1,0,0:0:0:0:
168,148,180225,38,0,L|176:220,1,71.9999978027344,14|0,0:0|0:0,0:0:0:0:
236,280,180475,2,0,L|244:352,1,71.9999978027344,10|0,0:0|0:0,0:0:0:0:
328,324,180725,2,0,L|320:252,1,71.9999978027344,10|0,0:0|0:0,0:0:0:0:
260,192,180975,2,0,L|252:120,1,71.9999978027344,10|0,0:0|0:0,0:0:0:0:
292,44,181225,6,0,P|328:32|364:28,1,71.9999978027344,10|0,0:0|0:0,0:0:0:0:
448,36,181475,2,0,P|460:72|464:108,1,71.9999978027344,10|0,0:0|0:0,0:0:0:0:
456,192,181725,2,0,P|420:204|384:208,1,71.9999978027344,10|0,0:0|0:0,0:0:0:0:
300,200,181975,2,0,P|288:164|284:128,1,71.9999978027344,10|0,0:0|0:0,0:0:0:0:
292,44,182225,38,0,L|328:36,2,35.9999989013672,10|10|0,0:0|0:0|0:0,0:0:0:0:
208,68,182475,1,10,0:0:0:0:
208,68,182537,1,10,0:0:0:0:
208,68,182600,2,0,P|172:72|136:72,1,71.9999978027344
52,60,182850,2,0,L|0:52,2,35.9999989013672,10|10|0,0:0|0:0|0:0,0:0:0:0:
76,144,183100,1,0,0:0:0:0:
24,216,183225,6,0,P|16:280|192:336,1,287.999991210938,6|6,0:0|0:0,0:0:0:0:
364,108,184225,38,0,P|368:76|368:48,1,60,4|0,0:0|0:0,0:0:0:0:
296,60,184475,2,0,P|292:92|292:120,1,60,2|0,0:0|0:0,0:0:0:0:
332,180,184725,2,0,L|396:188,1,60,2|0,0:0|0:0,0:0:0:0:
404,260,184975,2,0,L|340:252,1,60,2|0,0:0|0:0,0:0:0:0:
276,228,185225,6,0,L|212:236,1,60,0|0,0:0|0:0,0:0:0:0:
152,268,185475,2,0,L|88:276,1,60,2|0,0:0|0:0,0:0:0:0:
64,208,185725,2,0,L|128:200,1,60,2|0,0:0|0:0,0:0:0:0:
188,168,185975,2,0,L|252:160,1,60,2|0,0:0|0:0,0:0:0:0:
304,116,186225,38,0,L|292:56,2,60,4|2|2,0:0|0:0|0:0,0:0:0:0:
372,136,186600,1,2,0:0:0:0:
440,156,186725,2,0,L|428:216,2,60,0|2|2,0:0|0:0|0:0,0:0:0:0:
472,92,187100,1,2,0:0:0:0:
504,28,187225,6,0,P|476:20|444:16,1,60,4|2,0:0|0:0,0:0:0:0:
384,52,187475,2,0,P|356:60|324:64,1,60,2|2,0:0|0:0,0:0:0:0:
260,32,187725,1,0,0:0:0:0:
188,20,187850,1,2,0:0:0:0:
120,44,187975,2,0,P|124:76|120:104,1,60
76,160,188225,38,0,L|16:156,1,60,4|0,0:0|0:0,0:0:0:0:
0,236,188475,5,2,0:0:0:0:
0,236,188537,1,0,0:0:0:0:
0,236,188600,1,0,0:0:0:0:
72,240,188725,2,0,P|100:252|124:268,1,60,2|0,0:0|0:0,0:0:0:0:
176,336,188975,1,2,0:0:0:0:
176,336,189037,1,0,0:0:0:0:
176,336,189100,1,0,0:0:0:0:
248,324,189225,38,0,P|276:312|300:296,1,60,2|0,0:0|0:0,0:0:0:0:
340,236,189475,2,0,L|344:204,2,30,2|0|0,0:0|0:0|0:0,0:0:0:0:
268,228,189725,2,0,P|240:216|216:200,1,60,2|0,0:0|0:0,0:0:0:0:
176,140,189975,2,0,L|172:108,2,30,2|0|0,0:0|0:0|0:0,0:0:0:0:
248,132,190225,6,0,P|296:104|328:48,1,120,2|0,0:0|0:0,0:0:0:0:
400,64,190600,2,0,P|400:119|432:175,1,120,2|0,0:0|0:0,0:0:0:0:
384,228,190975,1,2,0:0:0:0:
384,228,191225,38,0,P|356:212|328:204,2,60
420,292,191600,2,0,P|392:340|332:368,1,120,6|0,0:0|0:0,0:0:0:0:
264,376,191975,2,0,P|209:366|162:319,1,120,6|0,0:0|0:0,0:0:0:0:
148,252,192350,2,0,P|120:204|60:176,1,120,6|0,0:0|0:0,0:0:0:0:
24,236,192725,5,2,0:0:0:0:
24,236,192787,1,2,0:0:0:0:
24,236,192850,1,0,0:0:0:0:
84,276,192975,2,0,P|88:308|88:340,1,60,2|2,0:0|0:0,0:0:0:0:
32,380,193225,1,4,0:0:0:0:
