osu file format v14

[General]
AudioFilename: Metalcore - Adore Your Pain -.mp3
AudioLeadIn: 0
PreviewTime: 59000
Countdown: 0
SampleSet: Normal
StackLeniency: 0.7
Mode: 0
LetterboxInBreaks: 1
WidescreenStoryboard: 0

[Editor]
DistanceSpacing: 2
BeatDivisor: 4
GridSize: 8
TimelineZoom: 1.9

[Metadata]
Title:Adore Your Pain
TitleUnicode:Adore Your Pain
Artist:UNDEAD CORPORATION
ArtistUnicode:UNDEAD CORPORATION
Creator:The Gem Pirate
Version:Lunatic
Source:Touhou
Tags:
BeatmapID:641841
BeatmapSetID:283961

[Difficulty]
HPDrainRate:5.5
CircleSize:4
OverallDifficulty:7.5
ApproachRate:9.5
SliderMultiplier:2
SliderTickRate:1

[Events]
//Background and Video events
0,0,"Komeiji.Satori.full.934087.jpg",0,0
//Break Periods
2,77700,85046
2,104485,107332
2,133342,140903
2,155200,162475
//Storyboard Layer 0 (Background)
//Storyboard Layer 1 (Fail)
//Storyboard Layer 2 (Pass)
//Storyboard Layer 3 (Foreground)
//Storyboard Sound Samples

[TimingPoints]
1000,285.714285714286,4,1,0,100,1,0
3000,-200,4,2,0,70,0,0
7857,-133.333333333333,4,1,0,80,0,0
11285,-100,4,1,0,100,0,0
34571,-133.333333333333,4,1,0,75,0,0
59000,-100,4,1,0,100,0,1
77428,-100,4,1,0,18,0,1
77571,-133.333333333333,4,1,0,100,0,0
114142,-100,4,1,0,100,0,1
132357,-100,4,1,0,20,0,1
133214,-133.333333333333,4,1,0,75,0,0
179000,-200,4,1,0,50,0,0
183857,-133.333333333333,4,1,0,75,0,0
187571,-100,4,1,0,100,0,1
206571,-100,4,1,0,20,0,1
206714,-133.333333333333,4,1,0,75,0,0

[Colours]
Combo1 : 240,164,249
Combo2 : 0,255,255
Combo3 : 255,45,45
Combo4 : 91,19,225

[HitObjects]
168,52,1000,5,0,0:0:0:0:
184,64,1071,1,0,0:0:0:0:
188,84,1142,1,0,0:0:0:0:
184,100,1214,1,0,0:0:0:0:
172,120,1285,1,0,0:0:0:0:
160,132,1357,1,0,0:0:0:0:
168,152,1428,1,0,0:0:0:0:
184,168,1500,1,0,0:0:0:0:
196,176,1571,1,0,0:0:0:0:
212,180,1642,5,0,0:0:0:0:
232,192,1714,1,0,0:0:0:0:
244,208,1785,1,0,0:0:0:0:
252,224,1857,1,0,0:0:0:0:
156,276,2000,1,0,0:0:0:0:
368,164,2428,1,0,0:0:0:0:
88,256,3000,6,0,P|136:304|184:308,1,100
252,300,3571,1,0,0:0:0:0:
352,184,4142,1,0,0:0:0:0:
352,64,4714,1,0,0:0:0:0:
220,136,5285,1,0,0:0:0:0:
124,176,5571,2,0,B|92:224|112:240|112:240,1,50
244,260,6000,2,0,P|272:296|292:308,1,50
352,188,6428,5,0,0:0:0:0:
352,188,6500,1,0,0:0:0:0:
352,188,6571,1,0,0:0:0:0:
152,252,7000,1,0,0:0:0:0:
208,48,7571,1,0,0:0:0:0:
132,108,7857,6,0,L|92:116,2,25
136,192,8142,2,0,L|96:212,2,25
200,264,8428,2,0,L|176:284,2,25
300,288,8714,1,0,0:0:0:0:
404,260,9000,2,0,P|348:188|272:128,1,187.500007152558
76,264,9500,2,0,P|108:164|200:120,2,187.500007152558
92,276,10285,1,0,0:0:0:0:
120,280,10357,1,0,0:0:0:0:
140,280,10428,1,0,0:0:0:0:
160,276,10500,1,0,0:0:0:0:
180,264,10571,5,0,0:0:0:0:
196,252,10642,1,0,0:0:0:0:
216,236,10714,1,0,0:0:0:0:
228,220,10785,1,0,0:0:0:0:
244,204,10857,1,0,0:0:0:0:
268,188,10928,1,0,0:0:0:0:
292,192,11000,1,0,0:0:0:0:
440,60,11285,5,0,0:0:0:0:
72,312,11571,1,0,0:0:0:0:
352,284,11857,1,0,0:0:0:0:
160,104,12142,1,0,0:0:0:0:
60,156,12428,6,0,P|72:96|92:64,1,100
240,64,12714,2,0,P|268:108|284:188,1,100
168,212,13000,2,0,P|172:264|208:320,1,100
344,304,13285,2,0,B|372:244|372:188|372:196,1,100
372,68,13571,5,0,0:0:0:0:
372,68,13642,1,0,0:0:0:0:
372,68,13714,1,0,0:0:0:0:
412,164,13857,1,0,0:0:0:0:
96,192,14142,2,0,L|32:192,2,50
144,284,14428,1,0,0:0:0:0:
328,152,14714,6,0,L|328:36,1,100
200,152,15000,2,0,L|100:152,1,100
200,224,15285,2,0,L|200:336,1,100
328,224,15571,1,0,0:0:0:0:
472,224,15714,1,0,0:0:0:0:
400,84,15857,5,0,0:0:0:0:
116,292,16142,1,0,0:0:0:0:
400,84,16428,1,0,0:0:0:0:
116,292,16714,1,0,0:0:0:0:
400,192,17000,6,0,L|400:88,1,100
116,192,17285,2,0,L|116:304,1,100
400,192,17571,2,0,L|400:80,1,100
116,192,17857,2,0,L|116:296,1,100
116,292,18142,5,0,0:0:0:0:
116,292,18714,1,0,0:0:0:0:
304,288,19285,5,0,0:0:0:0:
256,112,19428,1,0,0:0:0:0:
212,288,19571,1,0,0:0:0:0:
352,192,19714,1,0,0:0:0:0:
160,192,19857,1,0,0:0:0:0:
304,288,20000,1,0,0:0:0:0:
256,112,20142,1,0,0:0:0:0:
212,288,20285,1,0,0:0:0:0:
256,192,20428,5,0,0:0:0:0:
464,268,20714,2,0,L|400:160,1,100
320,180,21000,2,0,L|272:272,1,100
160,196,21285,2,0,L|48:196,2,100
320,108,21714,6,0,L|420:56,1,100
432,184,22000,2,0,L|352:272,1,100
136,256,22285,1,0,0:0:0:0:
240,100,22428,1,0,0:0:0:0:
340,264,22571,1,0,0:0:0:0:
328,140,22928,6,0,L|384:96,2,50
256,248,23214,2,0,L|256:312,2,50
200,148,23571,2,0,L|156:112,2,50
256,192,23857,1,0,0:0:0:0:
280,184,23928,1,0,0:0:0:0:
296,196,24000,1,0,0:0:0:0:
312,208,24071,1,0,0:0:0:0:
336,228,24142,2,0,P|392:252|468:152,1,200
100,256,24714,1,0,0:0:0:0:
256,192,25000,1,0,0:0:0:0:
400,192,25285,6,0,L|536:192,1,100
256,192,25571,1,0,0:0:0:0:
256,108,25714,2,0,L|256:-12,2,100
256,192,26142,1,0,0:0:0:0:
256,280,26285,2,0,L|256:392,1,100
116,192,26571,1,0,0:0:0:0:
256,192,26714,1,0,0:0:0:0:
396,192,26857,1,0,0:0:0:0:
256,104,27000,6,0,L|256:236,1,100
376,176,27428,1,0,0:0:0:0:
392,192,27500,1,0,0:0:0:0:
408,208,27571,1,0,0:0:0:0:
256,192,27714,1,0,0:0:0:0:
256,208,27785,1,0,0:0:0:0:
256,224,27857,1,0,0:0:0:0:
144,168,28000,1,0,0:0:0:0:
132,176,28071,1,0,0:0:0:0:
120,188,28142,1,0,0:0:0:0:
376,76,28428,5,0,0:0:0:0:
112,280,28714,1,0,0:0:0:0:
116,72,29000,1,0,0:0:0:0:
380,280,29285,1,0,0:0:0:0:
128,108,29571,5,0,0:0:0:0:
80,192,29714,1,0,0:0:0:0:
132,272,29857,1,0,0:0:0:0:
256,192,30000,1,0,0:0:0:0:
400,192,30428,1,0,0:0:0:0:
256,192,31285,5,0,0:0:0:0:
364,104,31857,1,0,0:0:0:0:
420,192,32000,1,0,0:0:0:0:
368,268,32142,1,0,0:0:0:0:
256,192,32285,1,0,0:0:0:0:
100,192,32714,1,0,0:0:0:0:
256,192,33285,5,0,0:0:0:0:
256,192,33857,1,0,0:0:0:0:
344,112,34142,1,0,0:0:0:0:
256,192,34285,1,0,0:0:0:0:
176,116,34428,1,0,0:0:0:0:
116,192,34571,2,0,P|180:280|288:320,1,225.000008583069
376,236,35857,1,0,0:0:0:0:
304,120,36428,5,0,0:0:0:0:
472,168,36571,1,0,0:0:0:0:
352,264,36714,1,0,0:0:0:0:
224,312,36857,1,0,0:0:0:0:
224,312,36928,1,0,0:0:0:0:
224,312,37000,1,0,0:0:0:0:
248,80,37285,5,0,0:0:0:0:
152,184,37571,1,0,0:0:0:0:
160,200,37642,1,0,0:0:0:0:
172,216,37714,1,0,0:0:0:0:
360,112,38000,2,0,L|432:80,1,75.0000028610231
364,208,38285,2,0,L|424:256,1,75.0000028610231
188,96,38714,5,0,0:0:0:0:
316,128,38857,1,0,0:0:0:0:
216,232,39000,1,0,0:0:0:0:
188,96,39142,1,0,0:0:0:0:
368,268,39428,1,0,0:0:0:0:
368,268,39500,1,0,0:0:0:0:
368,268,39571,2,0,P|448:220|492:164,1,150.000005722046
256,192,40428,1,0,0:0:0:0:
256,192,40714,1,0,0:0:0:0:
168,96,41000,5,0,0:0:0:0:
296,168,41142,1,0,0:0:0:0:
168,252,41285,1,0,0:0:0:0:
300,312,41428,1,0,0:0:0:0:
296,168,41857,1,0,0:0:0:0:
140,252,42428,5,0,0:0:0:0:
140,252,43000,1,0,0:0:0:0:
260,256,43285,2,0,P|312:280|352:272,1,75.0000028610231
424,184,43571,2,0,P|460:160|460:120,1,75.0000028610231
312,64,44142,1,0,0:0:0:0:
80,204,44714,1,0,0:0:0:0:
296,288,45000,1,0,0:0:0:0:
180,184,45285,5,0,0:0:0:0:
180,184,45357,1,0,0:0:0:0:
180,184,45428,2,0,P|224:236|256:236,1,75.0000028610231
296,112,45857,1,0,0:0:0:0:
308,128,45928,1,0,0:0:0:0:
316,144,46000,1,0,0:0:0:0:
316,160,46071,1,0,0:0:0:0:
304,172,46142,1,0,0:0:0:0:
64,68,46428,1,0,0:0:0:0:
96,272,46714,1,0,0:0:0:0:
116,292,46785,1,0,0:0:0:0:
144,304,46857,1,0,0:0:0:0:
368,316,47142,5,0,0:0:0:0:
384,308,47214,1,0,0:0:0:0:
400,284,47285,1,0,0:0:0:0:
408,260,47357,1,0,0:0:0:0:
408,232,47428,2,0,L|344:148,1,75.0000028610231
236,64,47857,1,0,0:0:0:0:
64,224,48285,5,0,0:0:0:0:
156,288,48428,2,0,P|224:316|292:316,1,112.500004291535
404,260,49000,1,0,0:0:0:0:
408,224,49071,1,0,0:0:0:0:
404,180,49142,2,0,P|348:216|264:240,1,150.000005722046
156,168,49571,1,0,0:0:0:0:
156,168,49857,1,0,0:0:0:0:
300,52,50142,5,0,0:0:0:0:
320,152,50428,1,0,0:0:0:0:
340,152,50500,1,0,0:0:0:0:
368,152,50571,1,0,0:0:0:0:
296,264,50857,1,0,0:0:0:0:
144,284,51000,1,0,0:0:0:0:
104,112,51285,1,0,0:0:0:0:
104,112,51357,1,0,0:0:0:0:
104,112,51428,1,0,0:0:0:0:
236,88,51714,1,0,0:0:0:0:
128,236,51857,5,0,0:0:0:0:
236,88,52000,1,0,0:0:0:0:
128,236,52142,1,0,0:0:0:0:
312,240,52285,1,0,0:0:0:0:
128,236,52428,2,0,L|256:328,1,150.000005722046
336,144,53000,6,0,L|404:208,1,75.0000028610231
248,252,53285,2,0,L|212:172,1,75.0000028610231
88,172,53571,2,0,L|48:248,1,75.0000028610231
168,56,53857,2,0,L|256:56,1,75.0000028610231
248,296,54142,6,0,L|152:296|144:296,1,75.0000028610231
68,220,54428,2,0,L|88:124,1,75.0000028610231
320,136,54714,2,0,L|328:232,1,75.0000028610231
184,172,55142,1,0,0:0:0:0:
232,108,55428,1,0,0:0:0:0:
304,72,55857,1,0,0:0:0:0:
380,56,56285,1,0,0:0:0:0:
352,188,56428,1,0,0:0:0:0:
168,184,57000,1,4,0:0:0:0:
456,60,57857,6,0,L|396:128,1,75.0000028610231
384,132,58071,1,0,0:0:0:0:
356,160,58142,1,0,0:0:0:0:
320,176,58214,1,0,0:0:0:0:
280,172,58285,1,0,0:0:0:0:
244,176,58357,1,0,0:0:0:0:
212,180,58428,1,0,0:0:0:0:
176,172,58500,1,0,0:0:0:0:
136,176,58571,1,0,0:0:0:0:
100,184,58642,1,0,0:0:0:0:
60,196,58714,2,0,L|8:224,2,37.5000014305115
184,304,59000,5,0,0:0:0:0:
364,268,59142,2,0,L|456:200,1,100
400,72,59428,2,0,L|304:44,1,100
224,104,59714,2,0,L|236:240,1,100
116,280,60000,5,0,0:0:0:0:
28,112,60142,1,0,0:0:0:0:
116,280,60285,1,0,0:0:0:0:
224,104,60428,1,0,0:0:0:0:
116,280,60571,1,0,0:0:0:0:
292,280,60714,1,0,0:0:0:0:
116,280,60857,1,0,0:0:0:0:
116,280,61000,6,0,L|80:156,1,100
176,92,61285,2,0,L|232:196,1,100
223,180,61500,1,0,0:0:0:0:
223,180,61571,1,0,0:0:0:0:
336,220,61714,2,0,L|396:140,1,100
396,140,61928,1,0,0:0:0:0:
396,140,62000,1,0,0:0:0:0:
216,56,62142,5,0,0:0:0:0:
96,200,62285,1,0,0:0:0:0:
260,304,62428,1,0,0:0:0:0:
440,300,62571,2,0,L|480:188,1,100
344,124,62857,6,0,L|240:184,1,100
84,212,63142,2,0,L|184:280,1,100
356,308,63428,2,0,L|456:256,1,100
192,64,63714,2,0,L|96:116,1,100
160,264,64000,5,0,0:0:0:0:
176,112,64142,1,0,0:0:0:0:
328,124,64285,1,0,0:0:0:0:
316,268,64428,1,0,0:0:0:0:
328,132,64571,2,0,P|208:116|196:124,1,100
220,252,64857,1,0,0:0:0:0:
392,296,65000,1,0,0:0:0:0:
348,180,65142,1,0,0:0:0:0:
232,96,65285,1,0,0:0:0:0:
112,48,65428,5,0,0:0:0:0:
124,88,65500,1,0,0:0:0:0:
140,120,65571,1,0,0:0:0:0:
76,200,65714,1,0,0:0:0:0:
176,140,65857,1,0,0:0:0:0:
192,164,65928,1,0,0:0:0:0:
208,192,66000,1,0,0:0:0:0:
308,136,66142,1,0,0:0:0:0:
324,164,66214,1,0,0:0:0:0:
336,192,66285,2,0,L|440:212,1,100
288,296,66571,5,0,0:0:0:0:
128,240,66714,1,0,0:0:0:0:
272,128,66857,1,0,0:0:0:0:
288,296,67000,1,0,0:0:0:0:
120,248,67142,1,0,0:0:0:0:
448,84,68000,6,0,P|424:148|384:180,1,100
296,112,68285,2,0,P|236:132|200:172,1,100
272,248,68571,2,0,P|232:288|164:284,1,100
144,168,68857,2,0,P|84:180|44:216,1,100
164,320,69142,5,0,0:0:0:0:
369,239,69285,1,0,0:0:0:0:
167,197,69428,1,0,0:0:0:0:
361,121,69571,1,0,0:0:0:0:
334,310,69714,1,0,0:0:0:0:
155,283,69857,1,0,0:0:0:0:
177,103,70000,1,0,0:0:0:0:
344,110,70142,6,0,L|420:42,1,100
256,192,70428,1,0,0:0:0:0:
180,112,70571,2,0,L|96:48,1,100
256,192,70857,1,0,0:0:0:0:
160,272,71000,2,0,L|72:328,1,100
256,192,71285,1,0,0:0:0:0:
332,280,71428,2,0,L|400:360,1,100
416,168,71714,5,0,0:0:0:0:
220,212,71857,1,0,0:0:0:0:
416,168,72000,1,0,0:0:0:0:
220,212,72142,1,0,0:0:0:0:
104,80,72285,6,0,L|164:176,1,100
224,68,72571,2,0,L|284:168,1,100
68,312,72857,2,0,L|132:220,1,100
200,332,73142,2,0,L|264:240,1,100
328,192,73428,1,0,0:0:0:0:
136,192,73571,1,0,0:0:0:0:
328,96,73857,5,0,0:0:0:0:
392,192,74000,1,0,0:0:0:0:
404,216,74071,1,0,0:0:0:0:
408,236,74142,1,0,0:0:0:0:
292,192,74285,1,0,0:0:0:0:
288,216,74357,1,0,0:0:0:0:
280,236,74428,1,0,0:0:0:0:
196,176,74571,1,0,0:0:0:0:
180,192,74642,1,0,0:0:0:0:
164,208,74714,1,0,0:0:0:0:
108,128,74857,1,0,0:0:0:0:
41,283,75000,1,0,0:0:0:0:
185,343,75142,1,0,0:0:0:0:
288,288,75285,5,0,0:0:0:0:
304,276,75357,1,0,0:0:0:0:
316,252,75428,1,0,0:0:0:0:
312,232,75500,1,0,0:0:0:0:
300,220,75571,1,0,0:0:0:0:
284,200,75642,1,0,0:0:0:0:
284,176,75714,1,0,0:0:0:0:
296,160,75785,1,0,0:0:0:0:
312,144,75857,1,0,0:0:0:0:
336,144,75928,1,0,0:0:0:0:
356,156,76000,1,0,0:0:0:0:
376,168,76071,1,0,0:0:0:0:
256,192,76142,12,0,77500,0:0:0:0:
256,192,85571,5,0,0:0:0:0:
256,192,86000,1,0,0:0:0:0:
229,95,86142,1,0,0:0:0:0:
328,136,86285,2,0,L|376:232,1,75.0000028610231
176,232,86571,2,0,L|144:144,1,75.0000028610231
256,68,87285,5,0,0:0:0:0:
256,68,87714,1,0,0:0:0:0:
176,176,87857,1,0,0:0:0:0:
256,68,88000,1,0,0:0:0:0:
176,176,88142,1,0,0:0:0:0:
264,280,88285,2,0,L|368:284,1,75.0000028610231
432,256,88571,2,0,L|452:176,1,75.0000028610231
256,124,89142,5,0,0:0:0:0:
256,124,89571,1,0,0:0:0:0:
256,124,90000,1,0,0:0:0:0:
112,200,90142,2,0,P|132:256|164:292,1,75.0000028610231
304,200,90428,2,0,P|288:248|260:272,1,75.0000028610231
424,296,90714,5,0,0:0:0:0:
440,280,90785,1,0,0:0:0:0:
448,256,90857,2,0,L|448:176,1,75.0000028610231
364,68,91142,2,0,L|272:76,1,75.0000028610231
148,136,91428,1,0,0:0:0:0:
40,256,91571,1,0,0:0:0:0:
244,244,91857,5,0,0:0:0:0:
260,248,91928,1,0,0:0:0:0:
276,252,92000,1,0,0:0:0:0:
296,260,92071,1,0,0:0:0:0:
320,264,92142,1,0,0:0:0:0:
336,264,92214,1,0,0:0:0:0:
352,256,92285,1,0,0:0:0:0:
368,248,92357,1,0,0:0:0:0:
384,228,92428,6,0,L|416:180,3,37.5000014305115
416,172,92714,5,0,0:0:0:0:
412,152,92785,1,0,0:0:0:0:
404,132,92857,1,0,0:0:0:0:
388,120,92928,1,0,0:0:0:0:
376,112,93000,6,0,L|336:88,1,37.5000014305115
272,104,93142,2,0,L|216:124,1,37.5000014305115
208,200,93285,2,0,L|236:244,1,37.5000014305115
332,240,93428,6,0,L|376:228,1,37.5000014305115
326,146,93571,2,0,L|286:154,1,37.5000014305115
236,264,93714,2,0,L|288:252,1,37.5000014305115
213,165,93857,2,0,L|161:177,1,37.5000014305115
296,208,94142,5,0,0:0:0:0:
380,248,94285,1,0,0:0:0:0:
464,184,94428,1,0,0:0:0:0:
380,248,94571,1,0,0:0:0:0:
296,208,94714,1,0,0:0:0:0:
200,100,94857,6,0,L|284:88,1,75.0000028610231
184,244,95142,1,0,0:0:0:0:
320,136,95571,1,0,0:0:0:0:
320,136,96428,5,0,0:0:0:0:
212,180,96571,2,0,P|168:200|148:220,1,75.0000028610231
272,324,96857,2,0,P|312:336|356:320,1,75.0000028610231
440,204,97142,1,0,0:0:0:0:
320,136,97285,2,0,P|248:128|216:124,1,75.0000028610231
268,316,97571,2,0,P|300:340|360:320,1,75.0000028610231
172,296,97857,1,0,0:0:0:0:
256,188,98428,5,0,0:0:0:0:
256,188,99000,1,0,0:0:0:0:
408,76,99285,5,0,0:0:0:0:
240,72,99428,1,0,0:0:0:0:
324,208,99571,1,0,0:0:0:0:
240,72,99714,2,0,P|176:76|144:84,1,75.0000028610231
20,132,100000,1,0,0:0:0:0:
152,224,100142,1,0,0:0:0:0:
152,224,100714,1,0,0:0:0:0:
408,104,101000,1,0,0:0:0:0:
312,184,101142,1,0,0:0:0:0:
408,104,101285,1,0,0:0:0:0:
264,76,101428,5,0,0:0:0:0:
264,96,101500,1,0,0:0:0:0:
264,120,101571,1,0,0:0:0:0:
256,144,101642,1,0,0:0:0:0:
232,160,101714,1,0,0:0:0:0:
212,168,101785,1,0,0:0:0:0:
192,168,101857,1,0,0:0:0:0:
176,176,101928,1,0,0:0:0:0:
168,192,102000,1,0,0:0:0:0:
156,208,102071,1,0,0:0:0:0:
152,232,102142,2,0,L|152:280,5,37.5000014305115
264,288,102571,6,0,L|312:288,1,37.5000014305115
328,192,102714,2,0,L|368:232,1,37.5000014305115
440,184,102857,2,0,L|456:224,1,37.5000014305115
324,64,103142,5,0,0:0:0:0:
252,172,103285,1,0,0:0:0:0:
316,288,103428,1,0,0:0:0:0:
396,176,103571,1,0,0:0:0:0:
228,88,103714,1,0,0:0:0:0:
396,176,103857,1,0,0:0:0:0:
232,204,104285,1,0,0:0:0:0:
256,192,107857,5,0,0:0:0:0:
432,160,108000,1,0,0:0:0:0:
256,192,108142,1,0,0:0:0:0:
432,160,108285,1,0,0:0:0:0:
368,64,108428,2,0,P|320:64|288:80,1,75.0000028610231
296,208,108714,2,0,P|248:224|208:224,1,75.0000028610231
184,96,109000,2,0,P|144:112|104:136,1,75.0000028610231
160,264,109285,2,0,P|120:288|88:296,1,75.0000028610231
96,144,109571,2,0,P|144:120|184:112,1,75.0000028610231
216,240,109857,2,0,P|176:264|144:272,1,75.0000028610231
144,112,110142,2,0,P|192:88|232:80,1,75.0000028610231
304,88,110571,5,0,0:0:0:0:
312,104,110642,1,0,0:0:0:0:
312,120,110714,1,0,0:0:0:0:
272,240,110857,1,0,0:0:0:0:
160,256,111142,1,0,0:0:0:0:
96,160,111428,1,0,0:0:0:0:
176,80,111857,1,0,0:0:0:0:
160,256,112285,2,0,L|216:256,3,37.5000014305115
232,248,112571,5,0,0:0:0:0:
256,240,112642,1,0,0:0:0:0:
280,232,112714,1,0,0:0:0:0:
296,216,112785,1,0,0:0:0:0:
304,192,112857,1,0,0:0:0:0:
304,168,112928,1,0,0:0:0:0:
304,144,113000,1,0,0:0:0:0:
296,128,113071,1,0,0:0:0:0:
288,112,113142,1,0,0:0:0:0:
272,96,113214,1,0,0:0:0:0:
256,88,113285,1,0,0:0:0:0:
240,80,113357,6,0,L|112:40,1,112.500004291535
96,224,113714,1,0,0:0:0:0:
240,312,113857,2,0,L|328:296,1,75.0000028610231
424,144,114142,6,0,L|344:72,1,100
232,144,114428,2,0,L|232:264,1,100
32,192,114714,2,0,L|112:288,1,100
207,256,115000,1,0,0:0:0:0:
261,80,115142,1,0,0:0:0:0:
430,144,115285,1,0,0:0:0:0:
370,309,115428,1,0,0:0:0:0:
240,144,115571,1,0,0:0:0:0:
384,216,115714,1,0,0:0:0:0:
304,344,115857,1,0,0:0:0:0:
160,280,116000,1,0,0:0:0:0:
200,304,116142,5,0,0:0:0:0:
40,232,116285,1,0,0:0:0:0:
224,176,116428,1,0,0:0:0:0:
72,96,116571,1,0,0:0:0:0:
112,264,116714,1,0,0:0:0:0:
72,96,116857,1,0,0:0:0:0:
240,152,117000,1,0,0:0:0:0:
72,96,117142,1,0,0:0:0:0:
240,16,117285,1,0,0:0:0:0:
72,96,117428,2,0,L|112:192,1,100
240,320,117714,2,0,L|328:240,1,100
344,96,118000,2,0,L|240:72,1,100
136,184,118285,6,0,L|80:200,2,50
248,272,118571,1,0,0:0:0:0:
400,48,119000,1,0,0:0:0:0:
80,48,119571,1,0,0:0:0:0:
136,200,119714,5,0,0:0:0:0:
264,248,119857,1,0,0:0:0:0:
352,336,120000,1,0,0:0:0:0:
432,184,120142,1,0,0:0:0:0:
304,168,120285,1,0,0:0:0:0:
208,64,120428,1,0,0:0:0:0:
64,168,120571,2,0,L|144:248,1,100
256,128,120857,5,0,0:0:0:0:
264,144,120928,1,0,0:0:0:0:
272,160,121000,1,0,0:0:0:0:
136,256,121142,1,0,0:0:0:0:
288,240,121285,1,0,0:0:0:0:
296,256,121357,1,0,0:0:0:0:
304,272,121428,1,0,0:0:0:0:
400,216,121571,1,0,0:0:0:0:
307,51,121714,1,0,0:0:0:0:
144,104,121857,1,0,0:0:0:0:
136,128,121928,1,0,0:0:0:0:
120,152,122000,1,0,0:0:0:0:
208,272,122142,5,0,0:0:0:0:
360,192,122285,1,0,0:0:0:0:
216,96,122428,1,0,0:0:0:0:
240,272,122571,1,0,0:0:0:0:
360,160,122714,1,0,0:0:0:0:
216,120,122857,1,0,0:0:0:0:
112,248,123000,1,0,0:0:0:0:
248,336,123142,1,0,0:0:0:0:
96,56,123571,5,0,0:0:0:0:
288,96,123714,1,0,0:0:0:0:
96,56,123857,1,0,0:0:0:0:
288,96,124000,1,0,0:0:0:0:
96,56,124142,1,0,0:0:0:0:
80,200,124285,6,0,L|152:296,1,100
240,80,124571,2,0,L|344:112,1,100
88,224,124857,2,0,L|168:320,1,100
248,112,125142,2,0,L|352:144,1,100
104,248,125428,2,0,L|184:344,1,100
280,296,125714,1,0,0:0:0:0:
400,176,125857,1,0,0:0:0:0:
272,48,126000,5,0,0:0:0:0:
240,56,126071,1,0,0:0:0:0:
216,64,126142,1,0,0:0:0:0:
152,184,126285,1,0,0:0:0:0:
208,304,126428,1,0,0:0:0:0:
224,320,126500,1,0,0:0:0:0:
240,336,126571,1,0,0:0:0:0:
352,200,126714,5,0,0:0:0:0:
176,80,126857,1,0,0:0:0:0:
352,200,127000,1,0,0:0:0:0:
152,184,127142,1,0,0:0:0:0:
352,200,127285,1,0,0:0:0:0:
192,288,127428,1,0,0:0:0:0:
352,200,127571,1,0,0:0:0:0:
280,344,127714,1,0,0:0:0:0:
352,200,127857,5,0,0:0:0:0:
80,64,128142,1,0,0:0:0:0:
376,56,128714,1,0,0:0:0:0:
360,72,128785,1,0,0:0:0:0:
344,88,128857,1,0,0:0:0:0:
448,232,129000,1,0,0:0:0:0:
256,184,129142,1,0,0:0:0:0:
320,352,129285,1,0,0:0:0:0:
424,224,129428,5,0,0:0:0:0:
336,96,129571,1,0,0:0:0:0:
224,184,129714,1,0,0:0:0:0:
296,304,129857,1,0,0:0:0:0:
128,280,130000,6,0,L|72:272,2,50
192,128,130285,2,0,L|144:96,2,50
368,120,130571,2,0,L|384:64,2,50
304,256,130857,1,0,0:0:0:0:
136,216,131000,1,0,0:0:0:0:
64,72,131142,1,0,0:0:0:0:
240,88,131285,5,0,0:0:0:0:
240,112,131357,1,0,0:0:0:0:
248,136,131428,1,0,0:0:0:0:
264,144,131500,1,0,0:0:0:0:
288,160,131571,1,0,0:0:0:0:
304,176,131642,1,0,0:0:0:0:
312,200,131714,1,0,0:0:0:0:
320,216,131785,1,0,0:0:0:0:
328,232,131857,1,0,0:0:0:0:
336,256,131928,1,0,0:0:0:0:
328,272,132000,1,0,0:0:0:0:
184,264,132142,1,0,0:0:0:0:
416,192,132285,1,0,0:0:0:0:
256,192,132357,12,0,133142,0:0:0:0:
344,80,141428,5,0,0:0:0:0:
392,216,141571,1,0,0:0:0:0:
248,256,141714,1,0,0:0:0:0:
200,112,141857,1,0,0:0:0:0:
216,320,142000,6,0,L|312:320,1,75.0000028610231
400,240,142285,2,0,L|400:136,1,75.0000028610231
288,72,142571,2,0,L|200:72,1,75.0000028610231
128,160,142857,2,0,L|128:248,1,75.0000028610231
240,208,143142,5,0,0:0:0:0:
256,224,143214,1,0,0:0:0:0:
280,232,143285,1,0,0:0:0:0:
304,224,143357,1,0,0:0:0:0:
320,208,143428,1,0,0:0:0:0:
336,192,143500,1,0,0:0:0:0:
352,184,143571,1,0,0:0:0:0:
376,176,143642,1,0,0:0:0:0:
400,184,143714,1,0,0:0:0:0:
392,64,143857,1,0,0:0:0:0:
80,112,144142,6,0,L|144:168,1,75.0000028610231
240,248,144428,2,0,L|320:208,1,75.0000028610231
240,48,144714,2,0,L|160:120,1,75.0000028610231
424,96,145000,2,0,L|344:40,1,75.0000028610231
320,224,145285,6,0,L|280:160,1,75.0000028610231
96,248,145571,2,0,L|136:160,1,75.0000028610231
184,304,145857,1,0,0:0:0:0:
320,248,146000,1,0,0:0:0:0:
320,88,146142,6,0,L|216:96,1,75.0000028610231
245,93,146357,1,0,0:0:0:0:
245,93,146428,1,0,0:0:0:0:
104,128,146571,1,0,0:0:0:0:
112,144,146642,1,0,0:0:0:0:
120,160,146714,2,0,L|208:184,1,75.0000028610231
376,216,147000,1,0,0:0:0:0:
368,232,147071,1,0,0:0:0:0:
360,248,147142,2,0,L|288:280,1,75.0000028610231
176,232,147428,5,0,0:0:0:0:
352,128,147571,1,0,0:0:0:0:
176,80,147714,1,0,0:0:0:0:
192,72,147785,1,0,0:0:0:0:
208,64,147857,2,0,L|264:136,1,75.0000028610231
312,288,148142,1,0,0:0:0:0:
56,80,148428,6,0,P|64:152|80:176,1,75.0000028610231
200,200,148714,2,0,P|208:256|200:304,1,75.0000028610231
64,288,149000,2,0,P|128:320|160:320,1,75.0000028610231
176,160,149285,2,0,P|224:144|264:152,1,75.0000028610231
272,304,149571,2,0,P|328:312|376:304,1,75.0000028610231
384,160,149857,2,0,P|432:152|480:152,1,75.0000028610231
352,272,150142,5,0,0:0:0:0:
256,112,150285,1,0,0:0:0:0:
160,272,150428,1,0,0:0:0:0:
72,120,150571,1,0,0:0:0:0:
272,232,150857,6,0,L|272:280,2,37.5000014305115
408,176,151142,1,0,0:0:0:0:
272,104,151285,2,0,L|272:64,2,37.5000014305115
144,176,151571,2,0,L|104:176,2,37.5000014305115
272,232,151857,5,0,0:0:0:0:
272,248,151928,1,0,0:0:0:0:
272,264,152000,1,0,0:0:0:0:
416,232,152142,1,0,0:0:0:0:
344,72,152285,1,0,0:0:0:0:
160,176,152428,2,0,P|224:264|280:296,1,150.000005722046
416,232,153000,5,0,0:0:0:0:
264,152,153142,1,0,0:0:0:0:
128,80,153285,1,0,0:0:0:0:
160,240,153428,2,0,L|264:240,1,75.0000028610231
280,80,153714,2,0,L|184:80,1,75.0000028610231
296,280,154000,2,0,L|392:280,1,75.0000028610231
392,128,154285,2,0,L|296:128,1,75.0000028610231
160,128,154571,5,0,0:0:0:0:
128,288,154714,1,0,0:0:0:0:
296,328,154857,1,0,0:0:0:0:
328,160,155000,1,0,0:0:0:0:
168,232,163000,5,0,0:0:0:0:
344,248,163142,2,0,L|424:216,1,75.0000028610231
424,72,163428,2,0,L|336:112,1,75.0000028610231
184,176,163714,1,0,0:0:0:0:
360,104,163857,1,0,0:0:0:0:
184,176,164000,1,0,0:0:0:0:
368,248,164142,1,0,0:0:0:0:
448,112,164285,1,0,0:0:0:0:
256,128,164428,6,0,L|288:152,1,37.5000014305115
400,136,164571,2,0,L|368:176,1,37.5000014305115
264,256,164714,2,0,L|304:232,1,37.5000014305115
400,264,164857,2,0,L|360:232,1,37.5000014305115
376,256,165000,1,0,0:0:0:0:
360,240,165071,1,0,0:0:0:0:
344,232,165142,1,0,0:0:0:0:
320,224,165214,5,0,0:0:0:0:
304,216,165285,1,0,0:0:0:0:
288,200,165357,1,0,0:0:0:0:
280,184,165428,1,0,0:0:0:0:
264,168,165500,1,0,0:0:0:0:
248,152,165571,1,0,0:0:0:0:
232,136,165642,6,0,L|192:120,1,37.5000014305115
152,240,165785,2,0,L|128:192,1,37.5000014305115
24,224,165928,2,0,L|48:176,1,37.5000014305115
96,80,166071,2,0,L|120:120,1,37.5000014305115
224,248,166285,2,0,L|304:264,1,75.0000028610231
352,104,166571,2,0,L|440:80,1,75.0000028610231
256,128,167285,5,0,0:0:0:0:
256,128,167571,1,0,0:0:0:0:
256,128,167857,1,0,0:0:0:0:
248,144,167928,1,0,0:0:0:0:
240,160,168000,1,0,0:0:0:0:
240,184,168071,1,0,0:0:0:0:
248,208,168142,1,0,0:0:0:0:
264,224,168214,1,0,0:0:0:0:
288,224,168285,1,0,0:0:0:0:
312,224,168357,1,0,0:0:0:0:
352,224,168428,6,0,L|336:168,1,37.5000014305115
272,72,168571,2,0,L|256:112,1,37.5000014305115
176,224,168714,2,0,L|200:184,1,37.5000014305115
112,72,168857,2,0,L|136:104,1,37.5000014305115
168,232,169000,6,0,L|248:224,1,75.0000028610231
336,80,169285,2,0,L|240:96,1,75.0000028610231
104,96,169571,1,0,0:0:0:0:
128,264,169714,6,0,L|216:256,1,75.0000028610231
240,264,169928,1,0,0:0:0:0:
288,256,169999,2,0,L|368:248,1,75.0000028610231
400,232,170214,1,0,0:0:0:0:
416,192,170285,2,0,L|408:88,1,75.0000028610231
232,72,170714,5,0,0:0:0:0:
232,72,171000,1,0,0:0:0:0:
128,168,171142,2,0,L|192:248,1,75.0000028610231
304,232,171428,2,0,L|352:144,1,75.0000028610231
288,56,171714,2,0,L|208:120,1,75.0000028610231
88,208,172000,5,0,0:0:0:0:
256,264,172142,1,0,0:0:0:0:
416,184,172285,1,0,0:0:0:0:
248,120,172428,1,0,0:0:0:0:
320,80,172571,6,0,L|224:80,1,75.0000028610231
208,264,172857,2,0,L|304:264,1,75.0000028610231
288,80,173142,2,0,L|208:80,1,75.0000028610231
240,264,173428,2,0,L|328:264,1,75.0000028610231
328,80,173714,1,0,0:0:0:0:
176,216,173857,1,0,0:0:0:0:
208,248,174142,5,0,0:0:0:0:
248,272,174714,1,0,0:0:0:0:
288,296,175000,1,0,0:0:0:0:
336,320,175285,1,0,0:0:0:0:
400,72,175857,2,0,L|296:96,1,75.0000028610231
232,240,176142,2,0,L|312:216,1,75.0000028610231
104,96,177571,5,0,0:0:0:0:
96,128,177642,1,0,0:0:0:0:
104,152,177714,1,0,0:0:0:0:
128,176,177785,1,0,0:0:0:0:
160,192,177857,1,0,0:0:0:0:
192,200,177928,1,0,0:0:0:0:
232,216,178000,1,0,0:0:0:0:
264,232,178071,1,0,0:0:0:0:
288,264,178142,2,0,L|424:176,1,150.000005722046
320,96,179000,5,0,0:0:0:0:
320,96,179285,1,0,0:0:0:0:
120,160,179571,2,0,L|160:128,1,50
192,304,179857,2,0,L|240:320,1,50
136,224,180142,1,0,0:0:0:0:
232,200,180285,2,0,L|296:176,1,50
400,136,180714,5,0,0:0:0:0:
384,192,181000,1,0,0:0:0:0:
352,240,181285,1,0,0:0:0:0:
304,272,181571,6,0,L|232:272,1,50
144,192,181857,2,0,L|200:192,1,50
104,280,182142,2,0,L|48:280,1,50
56,112,182428,2,0,L|120:112,1,50
200,224,182714,2,0,P|296:216|312:208,2,100
160,192,183571,1,0,0:0:0:0:
344,152,183857,5,0,0:0:0:0:
360,184,183928,1,0,0:0:0:0:
376,216,184000,1,0,0:0:0:0:
232,200,184142,1,0,0:0:0:0:
232,232,184214,1,0,0:0:0:0:
232,264,184285,1,0,0:0:0:0:
120,160,184428,1,0,0:0:0:0:
96,184,184500,1,0,0:0:0:0:
80,208,184571,1,0,0:0:0:0:
240,240,184857,6,0,P|272:136|328:96,1,150.000005722046
208,80,185285,2,0,L|112:80,1,75.0000028610231
48,176,185571,2,0,L|56:272,1,75.0000028610231
152,320,185857,2,0,L|248:312,1,75.0000028610231
320,224,186142,2,0,L|312:136,1,75.0000028610231
304,128,186357,5,0,0:0:0:0:
288,112,186428,1,0,0:0:0:0:
256,104,186500,1,0,0:0:0:0:
232,112,186571,1,0,0:0:0:0:
208,128,186642,1,0,0:0:0:0:
192,144,186714,1,0,0:0:0:0:
168,152,186785,1,0,0:0:0:0:
144,152,186857,2,0,L|64:96,1,75.0000028610231
184,104,187571,5,0,0:0:0:0:
120,304,187714,2,0,L|208:232,1,100
376,64,188000,2,0,L|296:152,1,100
120,72,188285,2,0,L|200:136,1,100
384,304,188571,2,0,L|280:224,1,100
168,64,188857,5,0,0:0:0:0:
304,200,189000,1,0,0:0:0:0:
120,256,189142,1,0,0:0:0:0:
216,88,189285,1,0,0:0:0:0:
304,256,189428,1,0,0:0:0:0:
120,256,189571,1,0,0:0:0:0:
168,64,189714,6,0,L|272:64,1,100
268,64,189928,1,0,0:0:0:0:
268,64,190000,1,0,0:0:0:0:
272,248,190142,2,0,L|160:248,1,100
172,248,190357,1,0,0:0:0:0:
172,248,190428,1,0,0:0:0:0:
320,112,190571,5,0,0:0:0:0:
120,120,190714,2,0,L|136:224,1,100
320,112,191000,1,0,0:0:0:0:
112,176,191142,2,0,L|184:256,1,100
320,112,191428,5,0,0:0:0:0:
144,160,191571,1,0,0:0:0:0:
176,336,191714,1,0,0:0:0:0:
48,96,192142,1,0,0:0:0:0:
320,112,192714,1,0,0:0:0:0:
136,48,192857,6,0,L|152:152,1,100
320,144,193142,2,0,L|288:240,1,100
112,120,193428,2,0,L|144:224,1,100
296,208,193714,2,0,L|248:296,1,100
88,176,194000,1,0,0:0:0:0:
288,88,194142,1,0,0:0:0:0:
80,48,194285,1,0,0:0:0:0:
136,216,194428,5,0,0:0:0:0:
152,248,194500,1,0,0:0:0:0:
168,288,194571,1,0,0:0:0:0:
160,112,194714,1,0,0:0:0:0:
256,288,194857,1,0,0:0:0:0:
272,248,194928,1,0,0:0:0:0:
288,208,195000,1,0,0:0:0:0:
344,352,195142,5,0,0:0:0:0:
392,208,195285,1,0,0:0:0:0:
408,240,195357,1,0,0:0:0:0:
432,280,195428,1,0,0:0:0:0:
448,104,195571,1,0,0:0:0:0:
424,112,195642,1,0,0:0:0:0:
400,128,195714,1,0,0:0:0:0:
328,64,195857,5,0,0:0:0:0:
304,80,195928,1,0,0:0:0:0:
280,104,196000,1,0,0:0:0:0:
144,200,196142,1,0,0:0:0:0:
264,304,196285,1,0,0:0:0:0:
392,200,196428,1,0,0:0:0:0:
256,64,197285,5,0,0:0:0:0:
424,72,197428,2,0,L|424:176,1,100
288,304,197714,2,0,L|184:304,1,100
80,176,198000,2,0,L|80:56,1,100
264,208,198285,1,0,0:0:0:0:
392,80,198428,1,0,0:0:0:0:
432,264,198571,1,0,0:0:0:0:
448,80,198714,5,0,0:0:0:0:
376,240,198857,1,0,0:0:0:0:
264,104,199000,1,0,0:0:0:0:
96,208,199142,1,0,0:0:0:0:
264,104,199285,1,0,0:0:0:0:
184,280,199428,1,0,0:0:0:0:
264,104,199571,1,0,0:0:0:0:
320,288,199714,1,0,0:0:0:0:
440,128,199857,1,0,0:0:0:0:
232,200,200000,6,0,L|320:272,1,100
440,128,200285,2,0,L|336:40,1,100
264,224,200571,2,0,L|352:296,1,100
408,104,200857,2,0,L|304:16,1,100
120,160,201285,1,0,0:0:0:0:
432,304,201857,5,0,0:0:0:0:
368,136,202142,2,0,L|272:96,1,100
368,248,202428,2,0,L|256:288,1,100
104,136,202714,1,0,0:0:0:0:
232,64,202857,1,0,0:0:0:0:
248,96,202928,1,0,0:0:0:0:
264,128,203000,1,0,0:0:0:0:
136,248,203142,5,0,0:0:0:0:
296,192,203285,1,0,0:0:0:0:
312,224,203357,1,0,0:0:0:0:
328,264,203428,1,0,0:0:0:0:
480,160,203571,1,0,0:0:0:0:
336,56,203714,1,0,0:0:0:0:
160,112,203857,1,0,0:0:0:0:
80,256,204000,1,0,0:0:0:0:
248,336,204143,5,0,0:0:0:0:
456,200,204285,2,0,L|368:296,1,100
368,288,204500,1,0,0:0:0:0:
336,304,204571,1,0,0:0:0:0:
304,304,204643,1,0,0:0:0:0:
264,304,204714,1,0,0:0:0:0:
224,296,204786,5,0,0:0:0:0:
184,304,204857,1,0,0:0:0:0:
152,304,204928,2,0,L|88:304,1,50
40,200,205071,2,0,L|24:152,1,50
144,240,205214,2,0,L|160:296,1,50
144,144,205357,2,0,L|200:144,1,50
256,192,205500,12,0,206642,0:0:0:0:
112,84,206714,5,0,0:0:0:0:
396,292,206999,1,0,0:0:0:0:
112,84,207285,1,0,0:0:0:0:
396,292,207571,1,0,0:0:0:0:
112,192,207857,2,0,L|112:96,1,75.0000028610231
396,192,208142,2,0,L|400:296,1,75.0000028610231
112,192,208428,2,0,L|112:88,1,75.0000028610231
396,192,208714,2,0,L|400:288,1,75.0000028610231
116,292,209000,5,0,0:0:0:0:
352,104,209285,1,0,0:0:0:0:
116,292,209572,1,0,0:0:0:0:
352,104,209857,1,0,0:0:0:0:
304,288,210143,5,0,0:0:0:0:
256,112,210286,1,0,0:0:0:0:
212,288,210429,1,0,0:0:0:0:
352,192,210572,1,0,0:0:0:0:
160,192,210715,1,0,0:0:0:0:
304,288,210858,1,0,0:0:0:0:
256,112,211000,1,0,0:0:0:0:
212,288,211143,1,0,0:0:0:0:
256,112,211285,5,0,0:0:0:0:
212,288,211428,1,0,0:0:0:0:
376,192,211571,1,0,0:0:0:0:
212,288,211714,1,0,0:0:0:0:
168,224,211857,2,0,L|168:120,1,75.0000028610231
376,144,212142,2,0,L|376:232,1,75.0000028610231
272,200,212428,5,0,0:0:0:0:
264,224,212500,1,0,0:0:0:0:
256,240,212571,1,0,0:0:0:0:
176,104,212714,1,0,0:0:0:0:
152,120,212785,1,0,0:0:0:0:
128,136,212857,1,0,0:0:0:0:
304,56,213000,2,0,L|344:32,2,37.5000014305115
352,168,213285,2,0,L|392:184,2,37.5000014305115
400,216,213571,5,0,0:0:0:0:
392,240,213642,1,0,0:0:0:0:
368,248,213714,1,0,0:0:0:0:
256,136,213857,1,0,0:0:0:0:
272,112,213928,1,0,0:0:0:0:
296,88,214000,1,0,0:0:0:0:
248,232,214142,5,0,0:0:0:0:
224,232,214214,1,0,0:0:0:0:
200,224,214285,1,0,0:0:0:0:
176,208,214357,1,0,0:0:0:0:
160,192,214428,1,0,0:0:0:0:
152,176,214500,1,0,0:0:0:0:
152,152,214571,1,0,0:0:0:0:
160,136,214642,1,0,0:0:0:0:
176,120,214714,1,0,0:0:0:0:
336,280,215000,1,0,0:0:0:0:
256,192,215071,12,0,216357,0:0:0:0:
288,192,216428,5,0,0:0:0:0:
272,192,216571,1,0,0:0:0:0:
272,208,216714,1,0,0:0:0:0:
288,208,216857,1,0,0:0:0:0:
