osu file format v14

[General]
AudioFilename: Metalcore - Adore Your Pain -.mp3
AudioLeadIn: 0
PreviewTime: 59000
Countdown: 0
SampleSet: Normal
StackLeniency: 0.7
Mode: 0
LetterboxInBreaks: 1
WidescreenStoryboard: 1

[Editor]
DistanceSpacing: 1.5
BeatDivisor: 4
GridSize: 8
TimelineZoom: 2.2

[Metadata]
Title:Adore Your Pain
TitleUnicode:Adore Your Pain
Artist:UNDEAD CORPORATION
ArtistUnicode:UNDEAD CORPORATION
Creator:The Gem Pirate
Version:Insane
Source:Touhou
Tags:adore your pain undead corporation insane
BeatmapID:652953
BeatmapSetID:283961

[Difficulty]
HPDrainRate:6.3
CircleSize:4
OverallDifficulty:8
ApproachRate:9
SliderMultiplier:1.4
SliderTickRate:1

[Events]
//Background and Video events
0,0,"Komeiji.Satori.full.934087.jpg",0,0
//Break Periods
2,2557,3685
2,4485,5828
2,133342,134114
2,152914,162400
//Storyboard Layer 0 (Background)
//Storyboard Layer 1 (Fail)
//Storyboard Layer 2 (Pass)
//Storyboard Layer 3 (Foreground)
//Storyboard Sound Samples

[TimingPoints]
1000,285.714285714286,4,1,0,100,1,0
3000,-200,4,2,0,100,0,0
7857,-133.333333333333,4,1,0,100,0,0
11285,-100,4,1,0,100,0,0
59000,-80,4,1,0,100,0,1
67142,-100,4,1,0,50,0,1
67857,-80,4,1,0,100,0,1
77428,-100,4,1,0,18,0,1
77571,-133.333333333333,4,1,0,100,0,0
108428,-100,4,1,0,100,0,0
114139,-80,4,1,0,100,0,1
123142,-100,4,1,0,50,0,1
123857,-80,4,1,0,100,0,1
132357,-100,4,1,0,20,0,1
133214,-133.333333333333,4,2,0,100,0,0
141000,-133.333333333333,4,1,0,100,0,0
179000,-200,4,2,0,50,0,0
183857,-133.333333333333,4,1,0,100,0,0
187571,-80,4,1,0,100,0,1
196142,-100,4,1,0,50,0,1
197000,-80,4,1,0,100,0,1
206571,-100,4,1,0,20,0,1
206714,-133.333333333333,4,1,0,100,0,0
215071,-133.333333333333,4,2,0,100,0,0
216142,-133.333333333333,4,1,0,100,0,0

[Colours]
Combo1 : 240,164,249
Combo2 : 0,255,255
Combo3 : 255,45,45
Combo4 : 91,19,225

[HitObjects]
192,168,1000,6,0,L|240:144,1,35
232,232,1142,2,0,L|264:248,1,35
296,144,1285,2,0,L|336:120,1,35
328,216,1428,2,0,L|376:240,1,35
392,160,1571,5,0,0:0:0:0:
400,160,1642,1,0,0:0:0:0:
408,160,1714,1,0,0:0:0:0:
416,160,1785,1,0,0:0:0:0:
424,160,1857,1,0,0:0:0:0:
432,160,1928,1,0,0:0:0:0:
440,160,2000,6,0,P|400:256|328:320,1,175
256,192,4285,5,4,0:0:0:0:
192,104,6428,6,0,L|224:112,2,17.5
176,216,7000,1,0,0:0:0:0:
176,216,7571,1,0,0:0:0:0:
328,176,7857,6,0,L|320:144,2,26.2500010013581
352,312,8142,2,0,L|360:336,2,26.2500010013581
280,256,8428,2,0,L|232:272,2,26.2500010013581
408,224,8714,2,0,L|456:208,2,26.2500010013581
344,240,9000,1,0,0:0:0:0:
344,240,9285,1,0,0:0:0:0:
344,240,9571,1,0,0:0:0:0:
360,240,9857,6,0,L|248:232,1,105.000004005432
240,232,10214,2,0,L|200:232,7,22.5000008583069
200,232,10714,1,0,0:0:0:0:
192,232,10785,1,0,0:0:0:0:
184,232,10857,1,0,0:0:0:0:
176,232,10928,1,0,0:0:0:0:
168,232,11000,1,0,0:0:0:0:
144,120,11285,5,0,0:0:0:0:
264,144,11428,2,0,P|328:104|392:88,1,140
392,208,11857,1,0,0:0:0:0:
160,264,12142,5,0,0:0:0:0:
192,144,12285,2,0,B|240:104|280:24|280:24,1,140
376,88,12714,1,0,0:0:0:0:
376,192,12857,1,0,0:0:0:0:
288,248,13000,1,0,0:0:0:0:
288,248,13285,1,0,0:0:0:0:
128,96,13571,5,0,0:0:0:0:
232,96,13714,2,0,L|264:240,1,140
152,248,14142,1,0,0:0:0:0:
376,192,14428,5,0,0:0:0:0:
256,208,14571,2,0,P|272:88|288:56,1,140
152,96,15000,1,0,0:0:0:0:
64,176,15142,1,0,0:0:0:0:
136,272,15285,1,0,0:0:0:0:
360,192,15571,1,0,0:0:0:0:
264,112,15857,6,0,L|208:192,1,70
368,232,16142,2,0,L|408:160,1,70
272,240,16428,1,0,0:0:0:0:
272,240,16714,1,0,0:0:0:0:
376,152,17000,5,0,0:0:0:0:
248,104,17142,2,0,L|112:168,1,140
272,240,17571,2,0,L|304:280,2,35
272,96,17857,2,0,L|304:72,2,35
144,144,18142,5,0,0:0:0:0:
112,280,18285,2,0,L|264:320,1,140
376,248,18714,1,0,0:0:0:0:
384,112,19000,1,0,0:0:0:0:
256,112,19142,6,0,L|256:72,2,35
256,240,19428,2,0,L|256:280,2,35
256,240,19714,5,0,0:0:0:0:
141,175,19857,1,0,0:0:0:0:
201,297,20000,1,0,0:0:0:0:
217,177,20142,1,0,0:0:0:0:
132,253,20285,1,0,0:0:0:0:
256,192,20428,5,8,0:0:0:0:
344,192,20571,2,0,L|424:192,1,70
256,104,20857,2,0,L|256:24,1,70
256,264,21142,2,0,L|256:344,1,70
176,192,21428,2,0,L|88:192,2,70
256,264,21857,2,0,L|256:360,1,70
336,210,22142,5,0,0:0:0:0:
256,88,22285,1,0,0:0:0:0:
241,244,22428,2,0,L|317:246,1,70
443,195,22714,1,0,0:0:0:0:
352,88,22857,6,0,L|376:48,2,35
320,192,23142,2,0,L|304:248,2,35
264,104,23428,2,0,L|248:56,2,35
224,200,23714,2,0,L|208:240,2,35
152,120,24000,5,0,0:0:0:0:
136,136,24071,1,0,0:0:0:0:
128,152,24142,1,0,0:0:0:0:
128,168,24214,1,0,0:0:0:0:
136,184,24285,1,0,0:0:0:0:
144,296,24428,1,0,0:0:0:0:
352,320,24714,1,0,0:0:0:0:
464,144,25000,6,0,L|392:72,1,70
312,72,25285,1,0,0:0:0:0:
208,72,25428,1,0,0:0:0:0:
136,136,25571,6,0,L|80:192,1,70
144,296,25857,1,0,0:0:0:0:
216,216,26000,1,0,0:0:0:0:
312,176,26142,2,0,L|320:272,1,70
400,176,26428,2,0,L|440:240,1,70
368,320,26714,5,0,0:0:0:0:
230,288,26857,1,0,0:0:0:0:
155,170,27000,1,0,0:0:0:0:
230,288,27142,1,0,0:0:0:0:
313,163,27285,1,0,0:0:0:0:
360,88,27428,6,0,L|360:32,2,35
264,136,27714,2,0,L|224:104,2,35
208,224,28000,2,0,L|152:200,2,35
232,325,28285,1,0,0:0:0:0:
344,280,28428,6,0,L|440:152,1,140
267,101,29000,2,0,L|167:216,1,140
256,192,29571,6,0,L|336:160,2,70
160,232,30000,2,0,L|224:312,1,70
296,96,30428,1,4,0:0:0:0:
296,96,31285,5,4,0:0:0:0:
240,144,31857,1,0,0:0:0:0:
152,256,32000,2,0,L|240:296,1,70
352,240,32285,2,0,L|392:160,1,70
256,192,32714,1,4,0:0:0:0:
256,192,33285,5,4,0:0:0:0:
264,200,33857,1,4,0:0:0:0:
368,240,34000,2,0,L|408:168,1,70
320,96,34285,2,0,L|240:88,1,70
152,160,34571,2,0,L|176:248,1,70
312,192,35000,1,4,0:0:0:0:
304,176,35857,5,4,0:0:0:0:
112,208,36142,2,0,L|192:256,1,70
184,248,36357,1,0,0:0:0:0:
200,256,36428,1,0,0:0:0:0:
216,264,36500,1,0,0:0:0:0:
232,272,36571,1,0,0:0:0:0:
248,280,36642,2,0,L|288:288,5,35
384,288,37285,5,4,0:0:0:0:
392,280,37857,1,4,0:0:0:0:
400,272,38285,1,4,0:0:0:0:
400,176,38571,6,0,L|368:96,1,70
264,200,38857,1,0,0:0:0:0:
184,80,39000,2,0,P|136:144|112:208,1,140
104,216,39571,1,4,0:0:0:0:
104,232,40428,5,4,0:0:0:0:
240,280,41000,2,0,L|288:216,1,70
392,224,41285,1,0,0:0:0:0:
320,144,41428,1,0,0:0:0:0:
216,120,41571,1,0,0:0:0:0:
240,280,41857,1,4,0:0:0:0:
240,280,42428,5,4,0:0:0:0:
256,280,43000,1,4,0:0:0:0:
352,272,43285,2,0,L|336:184,1,70
208,128,43571,2,0,L|288:120,1,70
384,128,43857,1,0,0:0:0:0:
144,288,44142,1,4,0:0:0:0:
144,272,44714,5,4,0:0:0:0:
416,208,45000,1,0,0:0:0:0:
272,212,45285,2,0,L|286:287,1,70
276,291,45500,1,0,0:0:0:0:
251,298,45571,1,0,0:0:0:0:
264,299,45642,1,0,0:0:0:0:
242,293,45714,1,0,0:0:0:0:
234,286,45785,1,0,0:0:0:0:
221,275,45857,6,0,L|160:273,6,35
226,258,46357,1,0,0:0:0:0:
231,236,46428,1,0,0:0:0:0:
229,211,46500,1,0,0:0:0:0:
221,192,46571,1,0,0:0:0:0:
317,182,47143,5,0,0:0:0:0:
348,47,47285,1,0,0:0:0:0:
361,217,47428,1,0,0:0:0:0:
368,230,47857,1,4,0:0:0:0:
371,242,48285,1,4,0:0:0:0:
379,264,48428,2,0,P|309:300|209:320,1,175
157,104,49000,5,0,0:0:0:0:
162,127,49142,2,0,L|252:147,2,70
376,93,50142,5,0,0:0:0:0:
301,145,50285,2,0,L|357:200,1,70
267,259,50571,2,0,L|215:185,1,70
168,140,50857,1,0,0:0:0:0:
257,105,51000,2,0,L|348:224,1,140
376,285,51428,1,0,0:0:0:0:
420,149,51571,1,0,0:0:0:0:
313,50,51714,1,0,0:0:0:0:
222,172,51857,5,8,0:0:0:0:
100,122,52000,1,8,0:0:0:0:
243,184,52142,1,8,0:0:0:0:
82,109,52285,1,8,0:0:0:0:
154,276,52714,6,0,L|61:235,1,70
230,180,53000,2,0,L|189:106,1,70
347,166,53285,2,0,L|347:85,1,70
456,179,53571,2,0,L|489:100,1,70
408,283,53857,2,0,L|311:282,1,70
162,66,54714,5,0,0:0:0:0:
320,256,54857,1,0,0:0:0:0:
333,271,55142,1,0,0:0:0:0:
344,288,55428,1,0,0:0:0:0:
353,303,55857,1,0,0:0:0:0:
363,319,56285,1,0,0:0:0:0:
209,127,56428,1,0,0:0:0:0:
258,192,57000,5,4,0:0:0:0:
131,196,57857,6,0,L|213:196,1,70
214,212,58071,2,0,L|232:256,5,35
241,258,58500,1,0,0:0:0:0:
261,265,58571,1,0,0:0:0:0:
288,258,58642,1,0,0:0:0:0:
306,242,58714,1,0,0:0:0:0:
311,222,58785,1,0,0:0:0:0:
304,198,58857,1,0,0:0:0:0:
300,179,58928,1,0,0:0:0:0:
300,151,59000,6,0,L|365:240,1,87.5,8|0,0:0|0:0,0:0:0:0:
385,136,59285,2,0,L|315:50,1,87.5
204,153,59571,2,0,L|269:235,1,87.5,8|0,0:0|0:0,0:0:0:0:
172,278,59857,2,0,L|114:192,1,87.5
241,269,60142,1,8,0:0:0:0:
110,109,60285,1,0,0:0:0:0:
269,262,60428,1,0,0:0:0:0:
272,73,60571,1,0,0:0:0:0:
401,227,60714,6,0,L|295:228,1,87.5,8|0,0:0|0:0,0:0:0:0:
153,162,61000,2,0,L|278:163,1,87.5
411,93,61285,2,0,L|302:93,1,87.5,8|0,0:0|0:0,0:0:0:0:
206,254,61571,2,0,L|208:349,1,87.5
368,256,61857,5,8,0:0:0:0:
432,88,62000,1,0,0:0:0:0:
256,96,62142,2,0,L|128:112,1,87.5
116,279,62428,1,8,0:0:0:0:
269,187,62571,1,4,0:0:0:0:
441,85,62714,2,0,L|337:70,1,87.5
440,166,63000,1,12,0:0:0:0:
269,187,63142,2,0,L|178:155,1,87.5
56,92,63428,1,0,0:0:0:0:
226,61,63571,1,12,0:0:0:0:
126,196,63714,6,0,L|197:253,1,87.5
266,123,64000,2,0,L|308:208,1,87.5,0|8,0:0|0:0,0:0:0:0:
442,113,64285,2,0,L|419:204,1,87.5
306,61,64571,1,0,0:0:0:0:
256,192,64714,5,8,0:0:0:0:
328,288,64857,2,0,L|376:200,1,87.5
176,280,65142,2,0,L|120:192,1,87.5,0|8,0:0|0:0,0:0:0:0:
360,216,65428,2,0,L|416:144,1,87.5
144,224,65714,2,0,L|96:152,1,87.5,0|8,0:0|0:0,0:0:0:0:
256,88,66000,5,4,0:0:0:0:
344,240,66142,1,0,0:0:0:0:
168,232,66285,1,0,0:0:0:0:
264,96,66428,1,8,0:0:0:0:
344,248,66571,2,0,L|384:288,2,43.75
168,232,66857,2,0,L|128:264,2,43.75
173,176,67142,2,0,B|246:276|271:293|325:304|407:313|414:313|256:234,1,350
416,80,68142,6,0,L|304:96,1,87.5,8|0,0:0|0:0,0:0:0:0:
152,120,68428,1,0,0:0:0:0:
312,184,68571,1,0,0:0:0:0:
464,232,68714,2,0,L|368:272,1,87.5,8|0,0:0|0:0,0:0:0:0:
208,320,69000,1,0,0:0:0:0:
56,224,69142,1,0,0:0:0:0:
213,147,69285,6,0,L|287:86,1,87.5,8|0,0:0|0:0,0:0:0:0:
422,197,69571,2,0,L|341:256,1,87.5
186,182,69857,2,0,L|258:276,1,87.5,8|0,0:0|0:0,0:0:0:0:
365,175,70142,2,0,L|289:95,1,87.5
133,78,70428,2,0,L|78:68,2,43.75,8|0|0,0:0|0:0|0:0,0:0:0:0:
242,130,70714,5,0,0:0:0:0:
180,270,70857,1,0,0:0:0:0:
323,325,71000,1,8,0:0:0:0:
380,184,71142,1,0,0:0:0:0:
237,93,71285,1,0,0:0:0:0:
402,200,71428,1,0,0:0:0:0:
216,84,71571,1,8,0:0:0:0:
291,241,71714,1,4,0:0:0:0:
202,142,71857,6,0,L|297:108,1,87.5
361,42,72142,1,12,0:0:0:0:
398,149,72285,2,0,L|371:246,1,87.5
251,293,72571,1,0,0:0:0:0:
202,142,72714,1,12,0:0:0:0:
429,159,72857,2,0,L|383:249,1,87.5
252,307,73142,1,0,0:0:0:0:
211,139,73285,1,8,0:0:0:0:
465,170,73428,2,0,L|413:250,1,87.5
418,82,73714,1,0,0:0:0:0:
255,187,73857,5,8,0:0:0:0:
353,244,74000,2,0,L|388:278,2,43.75
346,100,74285,2,0,L|410:71,2,43.75,0|0|8,0:0|0:0|0:0,0:0:0:0:
177,110,74571,1,4,0:0:0:0:
250,263,74714,1,0,0:0:0:0:
342,114,74857,6,0,L|380:86,2,43.75,0|0|8,0:0|0:0|0:0,0:0:0:0:
179,261,75142,2,0,L|139:301,2,43.75
177,112,75428,1,0,0:0:0:0:
351,123,75571,1,12,0:0:0:0:
434,279,75714,1,0,0:0:0:0:
428,110,75857,1,0,0:0:0:0:
265,165,76000,2,4,L|362:246,1,87.5
256,192,76214,12,0,77500,0:0:0:0:
307,94,77571,6,0,L|345:155,1,52.5000020027161
268,165,77857,2,0,L|237:111,1,52.5000020027161
368,135,78142,1,0,0:0:0:0:
228,219,78285,1,0,0:0:0:0:
422,192,78428,1,0,0:0:0:0:
201,130,78571,1,0,0:0:0:0:
119,204,78714,6,0,L|177:210,1,52.5000020027161
184,214,78928,1,0,0:0:0:0:
203,217,79000,1,0,0:0:0:0:
366,260,79142,2,0,L|299:276,1,52.5000020027161
300,276,79357,1,0,0:0:0:0:
283,281,79428,1,0,0:0:0:0:
133,331,79571,6,0,L|197:305,1,52.5000020027161
195,307,79785,1,0,0:0:0:0:
212,302,79857,1,0,0:0:0:0:
372,259,80000,2,0,L|306:221,1,52.5000020027161
314,225,80214,1,0,0:0:0:0:
298,217,80285,1,0,0:0:0:0:
202,164,80428,1,4,0:0:0:0:
359,133,80714,1,4,0:0:0:0:
175,80,81000,5,0,0:0:0:0:
176,180,81142,2,0,P|186:226|202:249,1,52.5000020027161
285,221,81428,2,0,P|300:257|301:277,1,52.5000020027161
368,190,81714,2,0,P|403:226|420:236,1,52.5000020027161
487,152,82000,2,0,P|469:126|434:104,1,52.5000020027161
365,172,82285,2,0,P|371:213|360:240,1,52.5000020027161
215,231,82571,2,0,P|204:194|213:163,1,52.5000020027161
279,61,82857,1,0,0:0:0:0:
380,218,83000,1,0,0:0:0:0:
186,113,83142,1,0,0:0:0:0:
391,124,83285,6,0,L|407:98,2,26.2500010013581
272,149,83571,2,0,L|253:123,2,26.2500010013581
184,248,83857,2,0,L|159:231,2,26.2500010013581
303,137,84142,2,0,L|255:173,1,52.5000020027161
307,304,84428,2,0,L|397:222,1,105.000004005432
263,132,85000,2,0,L|174:192,1,105.000004005432
256,189,85571,5,0,0:0:0:0:
338,264,85714,2,0,L|385:210,2,52.5000020027161
179,132,86142,1,4,0:0:0:0:
179,132,86428,1,4,0:0:0:0:
179,132,87285,1,4,0:0:0:0:
382,155,87857,6,0,L|351:204,1,52.5000020027161
225,204,88142,2,0,L|181:151,1,52.5000020027161
287,98,88428,1,0,0:0:0:0:
308,266,88714,1,4,0:0:0:0:
312,285,89571,1,8,0:0:0:0:
181,182,90142,6,0,L|224:235,1,52.5000020027161
297,150,90428,2,0,L|335:200,1,52.5000020027161
182,343,90714,2,0,L|223:300,1,52.5000020027161
332,333,91000,2,0,L|368:290,1,52.5000020027161
319,235,91285,2,0,L|251:235,1,52.5000020027161
369,220,91857,6,0,L|399:220,4,26.2500010013581
351,220,92214,1,0,0:0:0:0:
333,216,92286,1,0,0:0:0:0:
313,206,92357,1,0,0:0:0:0:
296,193,92429,1,0,0:0:0:0:
282,174,92500,1,0,0:0:0:0:
272,157,92571,6,0,L|232:158,6,26.2500010013581
285,142,93071,1,0,0:0:0:0:
300,124,93142,1,0,0:0:0:0:
319,105,93214,1,0,0:0:0:0:
320,84,93285,1,0,0:0:0:0:
308,64,93357,1,0,0:0:0:0:
284,58,93428,1,0,0:0:0:0:
264,58,93500,1,0,0:0:0:0:
243,65,93571,1,0,0:0:0:0:
104,190,94142,5,0,0:0:0:0:
104,190,94285,1,0,0:0:0:0:
104,190,94428,1,0,0:0:0:0:
104,190,94571,1,0,0:0:0:0:
114,202,94714,6,0,L|184:208,1,52.5000020027161
231,306,95000,2,0,L|302:295,1,52.5000020027161
353,221,95285,1,0,0:0:0:0:
213,147,95428,1,0,0:0:0:0:
320,168,95571,1,4,0:0:0:0:
414,132,96428,1,8,0:0:0:0:
402,151,97000,5,4,0:0:0:0:
256,209,97142,2,0,L|314:241,1,52.5000020027161
400,272,97428,1,0,0:0:0:0:
344,176,97571,1,0,0:0:0:0:
208,120,97714,2,0,L|277:153,1,52.5000020027161
168,232,98428,5,4,0:0:0:0:
153,242,99000,1,4,0:0:0:0:
320,128,99285,5,0,0:0:0:0:
435,136,99428,1,0,0:0:0:0:
454,234,99571,2,0,L|392:240,1,52.5000020027161
254,251,99857,2,0,L|325:249,1,52.5000020027161
351,146,100142,1,4,0:0:0:0:
250,196,101000,1,4,0:0:0:0:
370,94,101571,6,0,L|403:141,1,52.5000020027161
310,186,101857,2,0,L|272:126,1,52.5000020027161
172,187,102142,2,0,L|192:259,1,52.5000020027161
201,109,102428,1,8,0:0:0:0:
192,97,102571,6,0,L|169:55,2,26.2500010013581
318,70,102857,1,8,0:0:0:0:
329,65,103000,2,0,L|373:50,2,26.2500010013581
312,176,103285,1,8,0:0:0:0:
392,216,103428,1,8,0:0:0:0:
384,304,103571,1,0,0:0:0:0:
312,248,103714,2,4,L|258:264,1,52.5000020027161,12|4,0:0|0:0,0:0:0:0:
91,268,104285,1,4,0:0:0:0:
226,94,105000,6,0,L|311:175,1,105.000004005432
311,204,105428,1,0,0:0:0:0:
283,245,105571,2,0,P|346:277|446:274,1,157.500006008148
416,117,106142,6,0,L|333:200,1,105.000004005432
311,238,106571,2,0,P|238:251|193:245,1,105.000004005432
188,178,107000,2,0,L|311:170,1,105.000004005432
445,168,107428,2,0,L|465:232,2,52.5000020027161
341,108,107857,5,8,0:0:0:0:
181,209,108000,1,8,0:0:0:0:
322,267,108142,1,8,0:0:0:0:
307,58,108285,1,8,0:0:0:0:
421,87,108714,6,0,L|419:172,1,70
309,168,109000,2,0,L|308:257,1,70
205,87,109285,2,0,L|203:171,1,70
92,178,109571,2,0,L|90:257,1,70
273,307,109857,1,0,0:0:0:0:
362,156,110000,1,0,0:0:0:0:
293,87,110714,5,4,0:0:0:0:
223,264,110857,1,0,0:0:0:0:
219,275,111142,1,0,0:0:0:0:
217,284,111428,1,0,0:0:0:0:
216,299,111857,1,0,0:0:0:0:
214,308,112142,1,0,0:0:0:0:
284,86,112285,1,4,0:0:0:0:
155,215,112714,2,0,L|121:214,4,35
165,232,113071,5,0,0:0:0:0:
175,244,113142,1,0,0:0:0:0:
191,256,113214,1,0,0:0:0:0:
203,263,113285,1,0,0:0:0:0:
217,268,113357,1,0,0:0:0:0:
231,268,113428,1,0,0:0:0:0:
241,270,113500,2,0,L|289:260,5,35
390,220,114000,1,0,0:0:0:0:
159,253,114142,6,0,L|74:271,1,87.5,8|0,0:0|0:0,0:0:0:0:
192,163,114428,2,0,L|281:141,1,87.5
451,169,114714,2,0,L|351:199,1,87.5,8|0,0:0|0:0,0:0:0:0:
244,303,115000,2,0,L|353:269,1,87.5
306,100,115285,5,8,0:0:0:0:
134,65,115428,1,0,0:0:0:0:
109,235,115571,2,0,L|201:278,1,87.5
326,160,115857,1,8,0:0:0:0:
190,52,116000,1,0,0:0:0:0:
106,204,116142,2,0,L|183:293,1,87.5
351,221,116428,5,8,0:0:0:0:
267,57,116571,1,0,0:0:0:0:
148,181,116714,2,0,L|187:268,1,87.5
356,287,117000,1,8,0:0:0:0:
221,171,117142,1,0,0:0:0:0:
392,128,117285,1,0,0:0:0:0:
288,272,117428,1,0,0:0:0:0:
208,112,117571,5,8,0:0:0:0:
385,105,117714,1,0,0:0:0:0:
311,264,117857,1,0,0:0:0:0:
264,92,118000,1,0,0:0:0:0:
423,166,118142,1,8,0:0:0:0:
267,252,118285,2,0,L|164:248,1,87.5
150,82,118571,6,0,L|250:89,1,87.5,4|8,0:0|0:0,0:0:0:0:
413,114,118857,1,0,0:0:0:0:
401,289,119000,2,0,L|299:275,1,87.5,4|0,0:0|0:0,0:0:0:0:
145,257,119285,1,8,0:0:0:0:
154,84,119428,1,0,0:0:0:0:
327,110,119571,2,0,L|322:211,1,87.5,4|0,0:0|0:0,0:0:0:0:
418,49,119857,5,8,0:0:0:0:
283,162,120000,2,0,L|385:132,1,87.5
266,282,120285,1,0,0:0:0:0:
411,187,120428,1,8,0:0:0:0:
324,37,120571,2,0,P|258:55|204:78,1,87.5
163,221,120857,1,0,0:0:0:0:
292,84,121000,6,0,L|325:52,2,43.75,8|0|0,0:0|0:0|0:0,0:0:0:0:
364,249,121285,2,0,L|416:250,2,43.75
191,279,121571,1,8,0:0:0:0:
151,156,121714,1,0,0:0:0:0:
204,312,121857,1,0,0:0:0:0:
141,130,122000,1,0,0:0:0:0:
335,122,122142,6,0,L|381:118,2,43.75,8|0|0,0:0|0:0|0:0,0:0:0:0:
341,303,122428,2,0,L|381:331,2,43.75
185,201,122714,1,8,0:0:0:0:
340,119,122857,1,0,0:0:0:0:
169,102,123000,1,0,0:0:0:0:
322,209,123142,2,0,B|249:309|224:326|170:337|88:346|81:346|239:267,1,350
92,70,124142,6,0,L|115:174,1,87.5,8|0,0:0|0:0,0:0:0:0:
292,164,124428,2,0,L|254:248,1,87.5
142,107,124714,2,0,L|165:197,1,87.5,8|0,0:0|0:0,0:0:0:0:
340,212,125000,2,0,L|301:298,1,87.5
124,280,125285,1,8,0:0:0:0:
263,170,125428,1,0,0:0:0:0:
432,116,125571,6,0,P|394:203|388:215,1,87.5
220,162,125857,1,8,0:0:0:0:
400,130,126000,1,0,0:0:0:0:
225,92,126142,1,0,0:0:0:0:
401,62,126285,1,0,0:0:0:0:
241,134,126428,2,0,L|304:244,1,87.5,8|0,0:0|0:0,0:0:0:0:
423,165,126714,6,0,L|376:89,1,87.5
166,164,127000,2,0,L|208:250,1,87.5,8|0,0:0|0:0,0:0:0:0:
356,202,127285,2,0,L|301:111,1,87.5
156,86,127571,1,8,0:0:0:0:
339,117,127714,6,0,L|369:200,1,87.5,4|0,0:0|0:0,0:0:0:0:
194,229,128000,1,0,0:0:0:0:
335,118,128142,2,0,L|372:208,1,87.5,12|0,0:0|0:0,0:0:0:0:
198,248,128428,1,0,0:0:0:0:
168,72,128571,1,0,0:0:0:0:
336,123,128714,2,0,L|368:237,1,87.5,12|0,0:0|0:0,0:0:0:0:
177,140,129000,6,0,L|211:232,1,87.5
381,253,129285,2,0,L|401:292,2,43.75,8|0|0,0:0|0:0|0:0,0:0:0:0:
329,79,129571,1,0,0:0:0:0:
279,239,129714,1,0,0:0:0:0:
312,97,129857,1,8,0:0:0:0:
409,247,130000,1,0,0:0:0:0:
244,188,130142,6,0,L|134:224,1,87.5
215,55,130428,2,0,L|160:67,2,43.75,8|0|0,0:0|0:0|0:0,0:0:0:0:
320,178,130714,2,0,L|361:197,2,43.75
179,285,131000,2,0,L|130:326,2,43.75,8|0|0,0:0|0:0|0:0,0:0:0:0:
351,318,131285,5,0,0:0:0:0:
330,144,131428,2,0,L|397:139,2,43.75
316,149,131642,1,0,0:0:0:0:
304,157,131714,1,0,0:0:0:0:
292,166,131785,1,0,0:0:0:0:
282,175,131857,1,0,0:0:0:0:
274,186,131928,2,0,L|299:234,5,43.75
256,192,132357,12,0,133142,0:0:0:0:
209,122,134714,5,4,0:0:0:0:
311,151,135000,1,0,0:0:0:0:
275,251,135285,1,0,0:0:0:0:
174,220,135571,1,0,0:0:0:0:
210,98,135857,5,8,0:0:0:0:
341,137,136142,1,0,0:0:0:0:
231,256,136428,1,0,0:0:0:0:
240,272,136571,5,0,0:0:0:0:
246,283,136714,1,4,0:0:0:0:
251,292,136857,1,4,0:0:0:0:
372,150,137285,1,0,0:0:0:0:
163,128,137571,1,0,0:0:0:0:
85,310,137857,1,0,0:0:0:0:
265,199,138142,5,8,0:0:0:0:
347,193,138285,2,0,L|386:246,2,52.5000020027161
175,196,138714,2,0,L|135:141,2,52.5000020027161
262,191,139285,5,4,0:0:0:0:
316,199,139571,1,0,0:0:0:0:
197,173,139857,1,0,0:0:0:0:
381,222,140142,1,0,0:0:0:0:
129,151,140428,5,8,0:0:0:0:
233,310,140714,1,0,0:0:0:0:
299,74,141000,1,0,0:0:0:0:
411,132,141142,5,0,0:0:0:0:
407,141,141285,1,0,0:0:0:0:
400,150,141428,2,0,L|326:162,1,52.5000020027161
173,176,141714,1,0,0:0:0:0:
170,188,141857,1,0,0:0:0:0:
166,200,142000,2,0,L|230:226,1,52.5000020027161
370,293,142285,5,0,0:0:0:0:
366,278,142428,1,0,0:0:0:0:
359,259,142571,2,0,L|291:232,1,52.5000020027161
236,79,142857,1,0,0:0:0:0:
236,92,143000,1,0,0:0:0:0:
236,107,143142,2,0,L|296:136,1,52.5000020027161
312,150,143357,6,0,L|347:153,5,26.2500010013581
299,242,143857,1,4,0:0:0:0:
194,250,144000,6,0,L|187:191,1,52.5000020027161
98,206,144285,2,0,L|96:271,1,52.5000020027161
194,135,144571,2,0,P|236:134|258:146,1,52.5000020027161
248,266,144857,2,0,P|290:267|312:255,1,52.5000020027161
245,137,145142,6,0,P|287:136|309:148,1,52.5000020027161
299,263,145428,2,0,P|341:264|363:252,1,52.5000020027161
351,132,145714,1,0,0:0:0:0:
277,228,145857,1,0,0:0:0:0:
144,239,146000,1,0,0:0:0:0:
142,113,146142,6,0,L|128:80,2,26.2500010013581
198,214,146428,2,0,L|215:243,2,26.2500010013581
132,99,146714,2,0,L|104:61,2,26.2500010013581
213,239,147000,2,0,L|227:266,2,26.2500010013581
99,199,147285,6,0,L|55:220,2,26.2500010013581
238,152,147571,2,0,L|268:139,2,26.2500010013581
202,273,147857,1,4,0:0:0:0:
407,227,148142,1,4,0:0:0:0:
256,62,148428,5,12,0:0:0:0:
329,124,148571,2,0,L|397:117,1,52.5000020027161
346,216,148857,2,0,L|289:226,1,52.5000020027161
341,318,149142,2,0,L|403:308,1,52.5000020027161
181,315,149428,6,0,L|127:306,1,52.5000020027161
158,210,149714,2,0,L|211:229,1,52.5000020027161
203,118,149999,2,0,L|140:100,1,52.5000020027161
281,64,150285,1,0,0:0:0:0:
263,252,150428,1,0,0:0:0:0:
326,136,150571,1,0,0:0:0:0:
382,253,150714,5,0,0:0:0:0:
376,262,150785,1,0,0:0:0:0:
369,272,150857,2,0,L|306:239,1,52.5000020027161
130,253,151142,1,0,0:0:0:0:
136,262,151213,1,0,0:0:0:0:
143,272,151285,2,0,L|206:239,1,52.5000020027161
392,227,151571,5,0,0:0:0:0:
386,236,151642,1,0,0:0:0:0:
379,246,151714,2,0,L|316:213,1,52.5000020027161
120,227,152000,1,0,0:0:0:0:
126,236,152071,1,0,0:0:0:0:
133,246,152143,2,0,L|196:213,1,52.5000020027161
127,113,152428,1,4,0:0:0:0:
141,111,152714,1,4,0:0:0:0:
114,137,163000,6,0,L|171:151,1,52.5000020027161
356,216,163285,2,0,L|282:236,1,52.5000020027161
143,290,163571,2,0,L|189:243,1,52.5000020027161
301,96,163857,2,0,L|261:156,1,52.5000020027161
169,183,164142,1,0,0:0:0:0:
321,258,164285,1,0,0:0:0:0:
325,133,164428,6,0,L|353:132,2,26.2500010013581
193,140,164714,2,0,L|166:103,2,26.2500010013581
162,260,165000,2,0,L|126:266,2,26.2500010013581
304,276,165285,2,0,L|316:224,1,52.5000020027161
347,82,165571,5,0,0:0:0:0:
368,238,165714,1,0,0:0:0:0:
426,84,165857,1,0,0:0:0:0:
246,145,166000,1,0,0:0:0:0:
166,277,166142,1,0,0:0:0:0:
307,303,166285,1,0,0:0:0:0:
355,133,166428,1,0,0:0:0:0:
361,305,166571,2,0,P|410:207|413:151,1,157.500006008148
203,118,167285,6,0,L|168:104,4,26.2500010013581
208,126,167642,1,0,0:0:0:0:
211,136,167714,1,0,0:0:0:0:
208,149,167785,1,0,0:0:0:0:
201,160,167857,5,0,0:0:0:0:
192,173,167928,1,0,0:0:0:0:
181,189,168000,1,0,0:0:0:0:
174,203,168071,1,0,0:0:0:0:
181,219,168142,1,0,0:0:0:0:
194,237,168214,2,0,L|176:268,4,26.2500010013581
216,238,168571,1,0,0:0:0:0:
230,236,168642,1,0,0:0:0:0:
256,231,168714,6,0,L|296:147,1,78.7500030040742
286,138,169000,1,0,0:0:0:0:
277,116,169071,2,0,L|211:96,1,52.5000020027161
210,101,169285,1,0,0:0:0:0:
192,103,169357,2,0,L|111:93,1,78.7500030040742
121,233,169714,2,0,L|110:265,2,26.2500010013581
251,221,170000,2,0,L|257:256,2,26.2500010013581
167,141,170285,1,0,0:0:0:0:
191,282,170428,2,0,B|306:301|403:268|255:256,1,210.000008010865
206,142,171285,6,0,L|261:145,1,52.5000020027161
340,159,171571,2,0,P|304:227|211:260,1,157.500006008148
235,305,172142,6,0,L|343:291,1,105.000004005432
398,232,172571,2,0,P|425:165|431:116,1,105.000004005432
420,62,173000,2,0,B|303:88|244:114|211:158|155:147,1,262.500010013581
111,186,173857,6,0,L|159:242,1,52.5000020027161
193,250,174142,2,0,L|282:264,1,78.7500030040742
285,262,174428,1,0,0:0:0:0:
296,262,174500,1,0,0:0:0:0:
310,255,174571,1,0,0:0:0:0:
320,243,174642,1,0,0:0:0:0:
323,225,174714,1,0,0:0:0:0:
322,207,174785,2,0,L|363:203,6,26.2500010013581
313,188,175285,5,0,0:0:0:0:
302,171,175356,1,0,0:0:0:0:
287,155,175428,1,0,0:0:0:0:
268,149,175499,1,0,0:0:0:0:
248,147,175571,1,0,0:0:0:0:
227,151,175642,1,0,0:0:0:0:
204,148,175713,1,0,0:0:0:0:
190,138,175785,1,0,0:0:0:0:
179,124,175857,2,0,L|291:92,1,105.000004005432
385,102,176428,5,0,0:0:0:0:
389,142,177000,1,0,0:0:0:0:
383,190,177571,6,0,L|414:210,3,26.2500010013581
370,202,177857,1,0,0:0:0:0:
358,214,177928,1,0,0:0:0:0:
338,219,178000,1,0,0:0:0:0:
321,217,178071,1,0,0:0:0:0:
299,209,178142,2,0,L|180:195,1,105.000004005432
247,117,179000,6,0,L|191:123,1,52.5
178,125,179285,2,0,P|155:198|158:237,1,105
231,264,179857,2,0,L|270:241,1,35
347,297,180142,2,0,L|364:258,1,35
281,177,180428,2,0,L|262:146,1,35
405,173,180714,2,0,L|430:140,1,35
329,92,181000,2,0,L|304:63,1,35
196,86,181285,6,0,L|201:166,1,70
187,247,181714,2,0,P|221:289|247:303,1,70
273,192,182142,5,0,0:0:0:0:
200,140,182285,1,0,0:0:0:0:
142,92,182428,2,0,L|116:93,2,17.5
262,178,183000,1,8,0:0:0:0:
273,192,183571,1,4,0:0:0:0:
342,88,183857,6,0,L|372:96,2,26.2500010013581
289,195,184142,2,0,L|314:225,2,26.2500010013581
190,81,184428,2,0,L|155:71,2,26.2500010013581
188,175,184714,1,0,0:0:0:0:
317,149,184857,1,0,0:0:0:0:
361,234,185000,6,0,L|248:285,1,105.000004005432
283,91,185571,1,0,0:0:0:0:
137,196,185857,2,0,L|103:203,5,26.2500010013581
153,197,186285,5,0,0:0:0:0:
169,198,186356,1,0,0:0:0:0:
184,197,186427,1,0,0:0:0:0:
199,191,186498,1,0,0:0:0:0:
210,177,186570,1,0,0:0:0:0:
221,163,186641,1,0,0:0:0:0:
240,141,186714,2,0,L|273:144,4,26.2500010013581
378,97,187571,6,0,L|368:194,1,87.5,8|0,0:0|0:0,0:0:0:0:
274,333,187857,1,0,0:0:0:0:
106,278,188000,1,0,0:0:0:0:
118,105,188142,2,0,L|183:183,1,87.5,8|0,0:0|0:0,0:0:0:0:
326,268,188428,1,0,0:0:0:0:
233,121,188571,1,0,0:0:0:0:
361,104,188714,6,0,L|269:176,1,87.5,8|0,0:0|0:0,0:0:0:0:
156,284,189000,2,0,L|233:212,1,87.5
156,98,189285,2,0,L|242:179,1,87.5,8|0,0:0|0:0,0:0:0:0:
360,281,189571,2,0,L|275:210,1,87.5
131,287,189857,1,8,0:0:0:0:
212,135,190000,1,0,0:0:0:0:
385,151,190142,1,0,0:0:0:0:
301,306,190285,1,0,0:0:0:0:
324,132,190428,6,0,L|346:39,1,87.5,8|0,0:0|0:0,0:0:0:0:
208,167,190714,2,0,L|165:88,1,87.5
318,212,191000,2,0,L|397:135,1,87.5,8|0,0:0|0:0,0:0:0:0:
214,231,191285,2,0,L|135:172,1,87.5
259,308,191571,2,0,L|261:210,1,87.5,8|4,0:0|0:0,0:0:0:0:
335,89,191857,5,0,0:0:0:0:
364,262,192000,1,0,0:0:0:0:
217,168,192142,2,0,L|234:271,1,87.5,12|0,0:0|0:0,0:0:0:0:
118,118,192428,1,0,0:0:0:0:
103,293,192571,1,0,0:0:0:0:
239,244,192714,2,0,L|329:216,1,87.5,12|0,0:0|0:0,0:0:0:0:
319,127,193000,5,0,0:0:0:0:
168,82,193142,1,0,0:0:0:0:
350,200,193285,1,8,0:0:0:0:
98,119,193428,1,0,0:0:0:0:
75,196,193571,2,0,L|168:237,1,87.5
310,320,193857,6,0,L|411:288,1,87.5,8|0,0:0|0:0,0:0:0:0:
401,128,194142,2,0,L|453:117,2,43.75
234,199,194428,2,0,L|231:141,2,43.75,8|0|0,0:0|0:0|0:0,0:0:0:0:
97,316,194714,1,0,0:0:0:0:
64,140,194857,1,0,0:0:0:0:
234,199,195000,2,0,L|251:142,2,43.75,8|0|0,0:0|0:0|0:0,0:0:0:0:
362,319,195285,5,0,0:0:0:0:
403,149,195428,1,0,0:0:0:0:
246,209,195571,2,0,L|219:254,2,43.75,8|0|0,0:0|0:0|0:0,0:0:0:0:
327,99,195857,2,0,L|374:89,2,43.75
173,176,196142,2,0,B|246:276|271:293|325:304|442:318|455:299|260:225,1,420
254,100,197285,5,8,0:0:0:0:
196,265,197428,1,0,0:0:0:0:
343,170,197571,1,0,0:0:0:0:
168,167,197714,1,0,0:0:0:0:
309,273,197857,1,8,0:0:0:0:
343,170,198000,6,0,L|434:133,1,87.5
254,117,198285,2,0,L|256:17,1,87.5,0|8,0:0|0:0,0:0:0:0:
176,185,198571,2,0,L|73:133,1,87.5
216,274,198857,1,0,0:0:0:0:
333,140,199000,1,8,0:0:0:0:
158,102,199142,1,0,0:0:0:0:
317,255,199285,1,0,0:0:0:0:
341,90,199428,2,0,L|386:70,2,43.75,0|0|8,0:0|0:0|0:0,0:0:0:0:
127,133,199714,6,0,L|234:185,1,87.5
383,201,200000,2,0,L|282:239,1,87.5,0|8,0:0|0:0,0:0:0:0:
130,287,200285,2,0,L|226:227,1,87.5
320,86,200571,2,0,L|266:169,1,87.5,0|8,0:0|0:0,0:0:0:0:
423,68,200857,1,4,0:0:0:0:
330,183,201000,6,0,L|243:235,1,87.5
423,68,201285,1,12,0:0:0:0:
302,207,201428,2,0,L|212:258,1,87.5
423,68,201714,1,0,0:0:0:0:
267,224,201857,6,0,L|190:282,1,87.5,12|0,0:0|0:0,0:0:0:0:
389,117,202142,1,0,0:0:0:0:
178,117,202285,1,0,0:0:0:0:
273,257,202428,1,8,0:0:0:0:
388,124,202571,1,0,0:0:0:0:
199,104,202714,1,0,0:0:0:0:
273,257,202857,1,0,0:0:0:0:
420,168,203000,1,8,0:0:0:0:
328,99,203142,6,0,L|335:45,2,43.75
356,269,203428,2,0,L|386:314,2,43.75,0|0|8,0:0|0:0|0:0,0:0:0:0:
196,188,203714,1,0,0:0:0:0:
369,192,203857,1,0,0:0:0:0:
282,95,204000,1,0,0:0:0:0:
279,288,204142,1,8,0:0:0:0:
189,117,204285,6,0,L|132:113,2,43.75
150,289,204571,2,0,L|108:313,2,43.75,0|0|8,0:0|0:0|0:0,0:0:0:0:
291,173,204857,1,0,0:0:0:0:
360,332,205000,1,0,0:0:0:0:
350,106,205142,1,0,0:0:0:0:
250,259,205285,1,8,0:0:0:0:
424,182,205428,1,0,0:0:0:0:
256,192,205571,12,0,206642,0:0:0:0:
376,192,206714,5,0,0:0:0:0:
256,208,206857,2,0,P|261:122|267:93,1,105.000004005432
152,96,207285,1,0,0:0:0:0:
146,105,207571,1,0,0:0:0:0:
361,106,207857,5,0,0:0:0:0:
371,214,208000,2,0,P|302:237|247:237,1,105.000004005432
200,154,208428,1,0,0:0:0:0:
191,145,208714,1,0,0:0:0:0:
143,280,209000,5,0,0:0:0:0:
251,288,209142,2,0,P|337:287|375:272,1,105.000004005432
400,200,209571,1,0,0:0:0:0:
400,184,209857,1,0,0:0:0:0:
406,90,210142,5,0,0:0:0:0:
359,184,210285,2,0,P|298:224|262:239,1,105.000004005432
186,162,210714,1,0,0:0:0:0:
177,153,211000,1,0,0:0:0:0:
254,313,211285,5,0,0:0:0:0:
317,227,211428,2,0,P|350:163|363:107,1,105.000004005432
271,74,211857,1,0,0:0:0:0:
176,125,212000,1,0,0:0:0:0:
266,179,212142,1,0,0:0:0:0:
164,226,212285,1,0,0:0:0:0:
320,141,212428,5,0,0:0:0:0:
331,147,212500,1,0,0:0:0:0:
342,155,212571,1,0,0:0:0:0:
279,221,212714,1,0,0:0:0:0:
287,232,212785,1,0,0:0:0:0:
292,244,212857,1,0,0:0:0:0:
176,226,213000,5,0,0:0:0:0:
177,235,213071,1,0,0:0:0:0:
179,248,213142,1,0,0:0:0:0:
93,165,213285,1,0,0:0:0:0:
83,171,213357,1,0,0:0:0:0:
71,179,213428,1,0,0:0:0:0:
192,114,213571,5,0,0:0:0:0:
192,103,213642,1,0,0:0:0:0:
193,91,213714,1,0,0:0:0:0:
299,140,213857,1,0,0:0:0:0:
305,132,213928,1,0,0:0:0:0:
311,125,214000,1,0,0:0:0:0:
318,118,214071,1,0,0:0:0:0:
327,108,214142,2,0,L|358:108,4,26.2500010013581
334,238,214571,1,4,0:0:0:0:
131,236,215000,1,4,0:0:0:0:
226,125,215285,5,0,0:0:0:0:
431,167,215571,1,0,0:0:0:0:
199,268,215857,1,0,0:0:0:0:
377,258,216142,2,0,L|399:276,2,26.2500010013581
287,202,216428,1,0,0:0:0:0:
379,167,216571,1,0,0:0:0:0:
345,90,216714,1,0,0:0:0:0:
258,117,216857,1,0,0:0:0:0:
