osu file format v12

[General]
AudioFilename: Akiyama Mio x Oreki Houtarou love story (Devotion).mp3
AudioLeadIn: 0
PreviewTime: 63227
Countdown: 1
SampleSet: Normal
StackLeniency: 0.7
Mode: 0
LetterboxInBreaks: 1
WidescreenStoryboard: 1

[Editor]
Bookmarks: 3037,3227,15189,27341,51645,63797,88101,100253,124556,136708,161012,173164,197468,200506,224810,230886,258227
DistanceSpacing: 1
BeatDivisor: 4
GridSize: 8
TimelineZoom: 1

[Metadata]
Title:Our Tapes - Akiyama Mio x Oreki Houtarou love story (Devotion)
TitleUnicode:Our Tapes - 秋山澪x折木奉太郎的爱情故事 (Devotion)
Artist:UMIKA, Zevs1993, Hurts
ArtistUnicode:UMIKA, Zevs1993, Hurts
Creator:zinsser
Version:Houtarou
Source:
Tags:K-ON!! Hyouka
BeatmapID:383352
BeatmapSetID:154858

[Difficulty]
HPDrainRate:4
CircleSize:3
OverallDifficulty:4
ApproachRate:5
SliderMultiplier:1.5
SliderTickRate:4

[Events]
//Background and Video events
Video,2310,"Akiyama Mio x Oreki Houtarou love story (Devotion).avi"
//Break Periods
2,91371,99464
2,160864,172566
2,195421,199338
//Storyboard Layer 0 (Background)
//Storyboard Layer 1 (Fail)
//Storyboard Layer 2 (Pass)
//Storyboard Layer 3 (Foreground)
//Storyboard Sound Samples
//Background Colour Transformations
3,100,163,162,255

[TimingPoints]
3070,759.493670886076,4,2,1,90,1,0
15221,-90.9090909090909,4,1,1,55,0,0
51677,-100,4,2,1,100,0,0
61551,-100,4,1,2,70,0,0
63829,-83.3333333333333,4,1,2,100,0,1
88133,-100,4,1,2,100,0,0
91171,-100,4,1,1,5,0,0
100285,-90.9090909090909,4,2,1,90,0,0
106361,-90.9090909090909,4,1,1,55,0,0
124588,-100,4,2,1,100,0,0
134462,-100,4,1,1,100,0,0
136361,-100,4,1,2,100,0,0
136740,-83.3333333333333,4,1,2,100,0,1
161044,-100,4,1,1,100,0,0
173196,-100,4,2,1,100,0,0
198259,-100,4,1,1,100,0,0
200538,-83.3333333333333,4,1,2,100,0,1
224842,-100,4,1,1,100,0,0

[Colours]
Combo1 : 255,211,147
Combo2 : 183,255,130
Combo3 : 184,184,254
Combo4 : 253,172,172

[HitObjects]
164,162,3070,6,0,P|183:233|165:305,1,150,2|0,0:0|0:0,0:0:0:0:
31,237,4588,1,0,0:0:0:0:
297,237,5348,1,0,0:0:0:0:
394,123,6107,6,0,P|435:177|438:291,1,150,2|0,0:0|0:0,0:0:0:0:
297,237,7626,1,0,0:0:0:0:
297,237,8386,1,0,0:0:0:0:
147,234,9145,6,0,P|79:223|-2:146,1,150,2|0,0:0|0:0,0:0:0:0:
147,234,10664,1,0,0:0:0:0:
136,87,11424,1,0,0:0:0:0:
285,87,12183,6,0,L|457:87,3,150,2|0|0|4,0:0|0:0|0:0|0:0,0:0:0:0:
435,252,15221,5,0,0:0:0:0:
311,252,15791,1,0,0:0:0:0:
269,252,15981,1,2,0:0:0:0:
126,335,16740,2,0,L|57:335,2,41.2500012588501
126,252,17500,1,2,0:0:0:0:
171,136,18070,5,0,0:0:0:0:
204,112,18259,1,0,0:0:0:0:
283,89,18639,2,0,L|356:73,2,41.2500012588501,0|0|2,0:0|0:0|0:0,0:0:0:0:
374,226,19778,1,0,0:0:0:0:
374,226,19968,1,0,0:0:0:0:
374,226,20158,2,0,P|395:290|388:313,1,82.5000025177003,0|2,0:0|0:0,0:0:0:0:
268,302,21107,5,0,0:0:0:0:
309,302,21297,1,0,0:0:0:0:
309,219,21677,2,0,L|309:127,1,82.5000025177003,0|2,0:0|0:0,0:0:0:0:
166,220,22816,2,0,L|108:269,2,41.2500012588501
166,220,23576,1,2,0:0:0:0:
111,108,24145,5,0,0:0:0:0:
151,98,24335,1,0,0:0:0:0:
233,88,24715,1,0,0:0:0:0:
274,91,24905,1,0,0:0:0:0:
314,100,25095,2,0,P|374:119|458:196,1,165.000005035401,2|0,0:0|0:0,0:0:0:0:
470,220,26044,1,0,0:0:0:0:
484,258,26234,1,0,0:0:0:0:
500,338,26614,1,2,0:0:0:0:
93,124,27753,6,0,L|38:41,2,82.5000025177003
175,124,28892,1,0,0:0:0:0:
136,197,29272,1,0,0:0:0:0:
175,269,29652,1,0,0:0:0:0:
231,328,30032,2,0,L|261:359,1,41.2500012588501,2|0,0:0|0:0,0:0:0:0:
383,357,30791,6,0,L|480:357,2,82.5000025177003
383,274,31930,1,0,0:0:0:0:
365,193,32310,1,0,0:0:0:0:
321,123,32690,1,0,0:0:0:0:
255,72,33070,2,0,L|201:44,1,41.2500012588501,2|0,0:0|0:0,0:0:0:0:
177,47,33449,6,0,P|51:101|28:153,3,165.000005035401
39,119,36107,1,0,0:0:0:0:
39,201,36487,2,0,L|97:296,1,82.5000025177003
164,271,37247,2,0,L|206:200,1,82.5000025177003
289,200,38006,2,0,L|347:295,4,82.5000025177003,2|0|0|0|0,0:0|0:0|0:0|0:0|0:0,0:0:0:0:
289,117,39905,6,0,L|246:46,2,82.5000025177003
313,195,41044,1,0,0:0:0:0:
293,275,41424,1,0,0:0:0:0:
230,329,41804,1,0,0:0:0:0:
153,359,42183,2,0,L|98:378,1,41.2500012588501,2|0,0:0|0:0,0:0:0:0:
74,254,42943,6,0,L|74:153,2,82.5000025177003
156,254,44082,1,0,0:0:0:0:
222,204,44462,1,0,0:0:0:0:
300,178,44842,1,0,0:0:0:0:
381,191,45221,2,0,L|381:268,1,41.2500012588501,2|0,0:0|0:0,0:0:0:0:
381,273,45601,2,0,P|322:350|237:360,3,165.000005035401
259,363,48259,1,0,0:0:0:0:
182,332,48639,2,0,P|140:267|145:231,1,82.5000025177003
222,260,49399,2,0,P|209:221|179:193,1,82.5000025177003
97,197,50158,2,0,P|129:126|163:112,3,82.5000025177003,2|0|0|0,0:0|0:0|0:0|0:0,0:0:0:0:
179,193,51677,6,0,P|270:179|291:163,1,112.5
319,151,52437,2,0,P|387:127|442:128,1,112.5
426,163,53196,2,0,P|419:252|402:302,1,112.5
400,309,53956,2,0,P|382:338|261:373,1,150
420,62,55854,5,0,0:0:0:0:
344,62,56234,1,0,0:0:0:0:
419,62,56614,1,0,0:0:0:0:
343,62,56994,1,0,0:0:0:0:
268,62,57373,2,0,L|223:62,1,37.5,2|0,0:0|0:0,0:0:0:0:
256,192,57753,12,2,60791,0:0:0:0:
256,182,63449,5,0,0:0:0:0:
255,92,63829,2,0,P|300:25|395:30,1,179.999994506836,4|0,0:0|0:0,0:0:0:0:
345,105,64968,1,0,0:0:0:0:
356,191,65348,2,0,P|422:236|417:331,1,179.999994506836
343,281,66487,1,0,0:0:0:0:
257,292,66867,6,0,P|211:358|116:353,1,179.999994506836,0|0,0:0|0:0,0:0:0:0:
167,279,68006,1,0,0:0:0:0:
156,193,68386,2,0,P|117:174|75:111,2,89.9999972534181
169,103,69525,1,0,0:0:0:0:
255,92,69905,6,0,B|340:92|340:162|425:162,2,179.999994506836
255,182,71804,1,0,0:0:0:0:
318,245,72183,1,0,0:0:0:0:
327,334,72563,1,0,0:0:0:0:
244,297,72943,6,0,B|159:297|159:227|74:227,2,179.999994506836
334,297,74842,1,0,0:0:0:0:
399,235,75221,1,0,0:0:0:0:
390,145,75601,1,0,0:0:0:0:
338,71,75981,6,0,P|278:52|223:74,1,89.9999972534181,4|0,0:0|0:0,0:0:0:0:
175,103,76740,2,0,P|143:142|152:218,1,89.9999972534181
227,178,77500,1,0,0:0:0:0:
310,211,77880,1,0,0:0:0:0:
373,274,78259,1,0,0:0:0:0:
404,358,78639,1,0,0:0:0:0:
404,358,79019,6,0,P|459:273|422:200,1,179.999994506836
323,63,80538,1,0,0:0:0:0:
259,126,80918,1,0,0:0:0:0:
195,62,81297,1,0,0:0:0:0:
131,125,81677,1,0,0:0:0:0:
67,188,82057,2,0,P|196:270|252:273,3,179.999994506836
309,273,84715,1,0,0:0:0:0:
387,228,85095,2,0,P|431:128|406:62,2,179.999994506836
228,143,87373,2,0,L|121:80,1,89.9999972534181
256,192,88133,12,0,91171,0:0:0:0:
333,143,100664,6,0,L|411:117,1,82.5000025177003
472,172,101424,2,0,L|411:117,1,82.5000025177003
429,37,102183,2,0,L|411:117,1,82.5000025177003,0|0,0:0|0:0,2:0:0:0:
333,143,102943,2,0,L|256:167,1,41.2500012588501
172,184,103702,6,0,L|125:252,1,82.5000025177003
172,184,104462,2,0,L|135:109,1,82.5000025177003,0|0,0:0|0:0,2:0:0:0:
173,185,105221,2,0,L|255:190,1,82.5000025177003
337,198,105981,2,0,P|384:223|401:243,1,41.2500012588501
399,247,106361,6,0,P|315:331|264:357,3,165.000005035401
192,352,109019,2,0,L|74:352,1,82.5000025177003
109,269,109778,2,0,L|210:269,1,82.5000025177003
191,186,110538,2,0,L|144:186,1,41.2500012588501
108,186,110918,6,0,P|144:74|198:36,2,165.000005035401
144,257,112816,2,0,P|150:313|131:364,1,82.5000025177003
225,348,113576,2,0,P|265:341|305:348,1,82.5000025177003
305,266,114335,2,0,P|299:210|317:159,1,82.5000025177003
221,185,115095,1,0,0:0:0:0:
221,185,115285,1,0,0:0:0:0:
305,94,115854,6,0,P|345:87|385:94,1,82.5000025177003,0|0,0:0|0:0,0:0:0:0:
305,94,116614,2,0,P|338:117|361:150,1,82.5000025177003,0|0,0:0|0:0,0:0:0:0:
305,94,117373,2,0,P|312:134|305:174,1,82.5000025177003,0|0,0:0|0:0,0:0:0:0:
272,250,118133,2,0,P|196:323|148:336,1,123.75000377655
140,338,118892,2,0,P|262:322|384:338,1,247.500007553101
440,277,120411,5,0,0:0:0:0:
421,196,120791,1,0,0:0:0:0:
356,144,121171,1,0,0:0:0:0:
283,104,121551,2,0,P|184:83|93:114,2,165.000005035401
279,186,123449,1,0,0:0:0:0:
221,245,123829,1,0,0:0:0:0:
221,245,124209,1,0,0:0:0:0:
65,82,125348,6,0,P|113:157|112:183,1,112.5
150,177,126107,2,0,P|159:122|197:81,1,112.5
235,81,126867,2,0,P|283:156|282:182,1,112.5
282,213,127626,2,0,L|281:276,2,37.5
357,213,128386,1,0,0:0:0:0:
357,137,128766,5,0,0:0:0:0:
357,211,129145,1,0,0:0:0:0:
357,286,129525,1,0,0:0:0:0:
281,286,129905,1,0,0:0:0:0:
227,232,130285,2,0,L|186:276,1,37.5,2|0,0:0|0:0,0:0:0:0:
256,192,130664,12,2,133702,0:0:0:0:
6,168,136361,5,0,0:0:0:0:
248,192,136740,5,4,0:0:0:0:
104,304,137500,1,0,0:0:0:0:
232,200,138259,1,0,0:0:0:0:
160,256,138639,1,0,0:0:0:0:
160,256,139019,1,0,0:0:0:0:
160,256,139399,1,0,0:0:0:0:
168,352,139778,1,0,0:0:0:0:
56,160,141297,1,0,0:0:0:0:
56,160,141677,1,0,0:0:0:0:
56,160,142057,1,0,0:0:0:0:
56,160,142437,1,0,0:0:0:0:
56,160,142816,1,0,0:0:0:0:
56,160,143576,1,0,0:0:0:0:
56,160,143956,1,0,0:0:0:0:
56,160,144335,1,0,0:0:0:0:
56,160,144715,1,0,0:0:0:0:
56,160,145095,1,0,0:0:0:0:
56,160,145475,1,0,0:0:0:0:
120,248,145854,1,0,0:0:0:0:
96,192,148513,1,0,0:0:0:0:
96,192,148892,1,0,0:0:0:0:
96,192,149652,1,0,0:0:0:0:
96,192,150411,1,0,0:0:0:0:
96,192,150791,1,0,0:0:0:0:
96,192,151171,1,0,0:0:0:0:
96,192,151551,1,0,0:0:0:0:
128,168,153449,1,0,0:0:0:0:
128,168,153829,1,0,0:0:0:0:
128,168,154209,1,0,0:0:0:0:
128,168,154588,1,0,0:0:0:0:
128,168,154968,1,0,0:0:0:0:
128,168,155728,1,0,0:0:0:0:
128,168,156107,1,0,0:0:0:0:
152,152,157626,1,0,0:0:0:0:
152,152,158006,1,0,0:0:0:0:
152,152,158766,1,0,0:0:0:0:
152,152,159145,1,0,0:0:0:0:
152,152,160285,1,0,0:0:0:0:
152,152,160664,1,0,0:0:0:0:
128,224,173766,5,0,0:0:0:0:
128,224,173956,5,0,0:0:0:0:
128,224,174335,1,0,0:0:0:0:
128,224,176804,1,0,0:0:0:0:
128,224,176994,1,0,0:0:0:0:
128,224,177373,1,0,0:0:0:0:
448,184,179272,1,0,0:0:0:0:
376,192,179652,1,0,0:0:0:0:
312,200,180032,1,0,0:0:0:0:
248,208,180411,1,0,0:0:0:0:
248,208,180791,1,0,0:0:0:0:
248,208,181171,1,0,0:0:0:0:
248,208,181551,1,0,0:0:0:0:
248,208,181930,1,0,0:0:0:0:
248,208,182310,1,0,0:0:0:0:
248,208,183070,1,0,0:0:0:0:
248,208,183829,1,0,0:0:0:0:
248,208,184588,1,0,0:0:0:0:
248,208,184968,1,0,0:0:0:0:
248,208,185918,1,0,0:0:0:0:
248,208,186107,1,0,0:0:0:0:
248,208,186487,1,0,0:0:0:0:
264,208,188766,1,0,0:0:0:0:
264,208,188956,1,0,0:0:0:0:
264,208,189145,1,0,0:0:0:0:
264,208,189525,1,0,0:0:0:0:
264,208,192183,1,0,0:0:0:0:
264,208,192563,1,0,0:0:0:0:
264,208,192943,1,0,0:0:0:0:
264,208,193323,1,0,0:0:0:0:
264,208,193702,1,0,0:0:0:0:
264,208,194082,1,0,0:0:0:0:
264,208,194462,1,0,0:0:0:0:
264,208,195221,1,0,0:0:0:0:
8,96,200538,6,0,L|337:123,1,314.999990386963
198,156,202057,2,0,L|79:242,1,134.999995880127
116,227,202816,1,0,0:0:0:0:
69,286,203196,1,0,0:0:0:0:
69,286,203576,2,0,L|389:318,1,314.999990386963
346,273,205095,2,0,L|205:185,1,134.999995880127
215,200,205854,2,0,L|66:189,1,134.999995880127
40,168,206614,2,0,L|367:138,1,314.999990386963
321,171,208133,2,0,L|203:265,1,134.999995880127
196,244,208892,2,0,L|47:250,1,134.999995880127
83,209,209652,2,0,L|393:97,1,314.999990386963
300,145,211171,2,0,L|26:315,1,314.999990386963
33,266,212690,6,0,L|116:117,1,134.999995880127
157,104,213449,2,0,L|204:124,3,44.999998626709
242,129,214209,2,0,L|116:211,1,134.999995880127
116,227,214968,1,0,0:0:0:0:
69,286,215348,1,0,0:0:0:0:
8,96,215728,6,0,L|160:100,1,134.999995880127
137,144,216487,6,0,L|205:123,3,44.999998626709
346,273,217247,2,0,L|221:195,1,134.999995880127
116,227,218006,1,0,0:0:0:0:
69,286,218386,1,0,0:0:0:0:
346,273,218766,2,0,L|212:192,1,134.999995880127
203,167,219525,6,0,L|200:120,3,44.999998626709
321,171,220285,2,0,L|200:266,1,134.999995880127
157,104,221044,6,0,L|206:124,3,44.999998626709
214,147,221804,1,0,0:0:0:0:
262,213,222183,1,0,0:0:0:0:
311,280,222563,1,0,0:0:0:0:
311,280,222943,1,0,0:0:0:0:
157,104,223323,6,0,L|205:123,3,44.999998626709
157,104,224082,6,0,L|181:141,3,44.999998626709
191,154,224842,1,0,0:0:0:0:
256,192,224889,12,0,229399,0:0:0:0:
