osu file format v10

[General]
AudioFilename: Shinryaku!! Ika Musume (OAD) Opening Let'sShinryaku Time!.mp3
AudioLeadIn: 2000
PreviewTime: 59353
Countdown: 0
SampleSet: Normal
StackLeniency: 0.7
Mode: 1
LetterboxInBreaks: 0

[Editor]
Bookmarks: 753,8753,18353,24753,31153,37553,43953,50353,56753,59953,66353,72753,79153,85153
DistanceSpacing: 0.8
BeatDivisor: 4
GridSize: 4

[Metadata]
Title:Let's*Shinryaku Time! (TV Size)
TitleUnicode:Let's*Shinryaku Time! (TV Size)
Artist:ULTRA-PRISM
ArtistUnicode:ULTRA-PRISM
Creator:Flask
Version:Yia's Taiko Oni
Source:Shinryaku!! Ika Musume
Tags:OVA OAD ikamusume Diomedea Kanemoto Hisako Regou opening squid girl invasion! [kirisame-marisa] yia
BeatmapID:187459
BeatmapSetID:59234

[Difficulty]
HPDrainRate:5
CircleSize:5
OverallDifficulty:5
ApproachRate:5
SliderMultiplier:1.4
SliderTickRate:1

[Events]
//Background and Video events
0,0,"TKBG.JPG"
//Break Periods
//Storyboard Layer 0 (Background)
//Storyboard Layer 1 (Fail)
//Storyboard Layer 2 (Pass)
//Storyboard Layer 3 (Foreground)
//Storyboard Sound Samples
//Background Colour Transformations
3,100,163,162,255

[TimingPoints]
753,400,4,1,0,75,1,0
59953,-100,4,1,0,75,0,1
79153,-100,4,1,0,75,0,0

[Colours]
Combo1 : 255,179,142
Combo2 : 0,128,192

[HitObjects]
256,192,753,1,0,0:0:0
256,192,953,1,2,0:0:0
256,192,1153,1,0,0:0:0
256,192,1353,1,0,0:0:0
256,192,1553,1,0,0:0:0
256,192,1753,1,4,0:0:0
256,192,1953,1,6,0:0:0
256,192,2353,1,0,0:0:0
256,192,2553,1,2,0:0:0
256,192,2753,1,0,0:0:0
256,192,2953,1,0,0:0:0
256,192,3153,1,0,0:0:0
256,192,3353,1,4,0:0:0
256,192,3553,1,6,0:0:0
256,192,3953,1,0,0:0:0
256,192,4153,1,2,0:0:0
256,192,4253,1,0,0:0:0
256,192,4353,1,0,0:0:0
256,192,4553,1,0,0:0:0
256,192,4753,1,0,0:0:0
256,192,4853,1,0,0:0:0
256,192,4953,1,0,0:0:0
256,192,5153,1,6,0:0:0
256,192,5553,1,0,0:0:0
256,192,5753,1,0,0:0:0
256,192,5953,1,2,0:0:0
256,192,6153,1,0,0:0:0
256,192,6253,1,0,0:0:0
256,192,6353,1,0,0:0:0
256,192,6553,1,0,0:0:0
256,192,6653,1,0,0:0:0
256,192,6753,1,2,0:0:0
256,192,6953,1,0,0:0:0
256,192,7153,1,0,0:0:0
256,192,7286,1,2,0:0:0
256,192,7419,1,0,0:0:0
256,192,7553,1,0,0:0:0
256,192,7686,1,2,0:0:0
256,192,7819,1,2,0:0:0
256,192,8153,1,4,0:0:0
256,192,8353,1,4,0:0:0
256,192,8753,5,0,0:0:0
256,192,8953,1,0,0:0:0
256,192,9053,1,0,0:0:0
256,192,9153,1,2,0:0:0
256,192,9353,1,0,0:0:0
256,192,9553,1,0,0:0:0
256,192,9753,1,2,0:0:0
256,192,9853,1,0,0:0:0
256,192,9953,1,0,0:0:0
256,192,10153,1,2,0:0:0
256,192,10353,1,4,0:0:0
256,192,10653,1,4,0:0:0
256,192,10953,1,6,0:0:0
256,192,11353,1,2,0:0:0
256,192,11453,1,2,0:0:0
256,192,11553,1,2,0:0:0
256,192,11753,1,2,0:0:0
256,192,11953,1,0,0:0:0
256,192,12086,1,0,0:0:0
256,192,12219,1,0,0:0:0
256,192,12353,1,6,0:0:0
256,192,12753,1,0,0:0:0
256,192,12886,1,2,0:0:0
256,192,13019,1,0,0:0:0
256,192,13153,1,6,0:0:0
256,192,13553,1,0,0:0:0
256,192,13686,1,0,0:0:0
256,192,13819,1,0,0:0:0
256,192,13953,1,2,0:0:0
256,192,14353,1,0,0:0:0
256,192,14486,1,2,0:0:0
256,192,14619,1,0,0:0:0
256,192,14753,1,6,0:0:0
256,192,15153,1,0,0:0:0
256,192,15286,1,0,0:0:0
256,192,15419,1,2,0:0:0
256,192,15553,1,2,0:0:0
256,192,15686,1,0,0:0:0
256,192,15819,1,0,0:0:0
256,192,15953,1,0,0:0:0
256,192,16086,1,2,0:0:0
256,192,16219,1,0,0:0:0
256,192,16353,1,2,0:0:0
256,192,16486,1,0,0:0:0
256,192,16619,1,0,0:0:0
256,192,16753,1,2,0:0:0
256,192,16886,1,0,0:0:0
256,192,17019,1,2,0:0:0
256,192,17153,1,0,0:0:0
256,192,17286,1,2,0:0:0
256,192,17419,1,0,0:0:0
256,192,17553,1,6,0:0:0
256,192,17853,1,6,0:0:0
256,192,18153,1,6,0:0:0
256,192,18353,1,0,0:0:0
256,192,18553,1,0,0:0:0
256,192,18653,1,0,0:0:0
256,192,18753,1,2,0:0:0
256,192,19053,1,2,0:0:0
256,192,19253,1,0,0:0:0
256,192,19353,1,0,0:0:0
256,192,19553,1,2,0:0:0
256,192,19753,1,0,0:0:0
256,192,19953,1,0,0:0:0
256,192,20153,1,2,0:0:0
256,192,20253,1,0,0:0:0
256,192,20353,1,2,0:0:0
256,192,20653,1,2,0:0:0
256,192,20853,1,0,0:0:0
256,192,20953,1,0,0:0:0
256,192,21153,1,6,0:0:0
256,192,21353,1,0,0:0:0
256,192,21553,1,0,0:0:0
256,192,21753,1,2,0:0:0
256,192,21953,1,2,0:0:0
256,192,22153,1,2,0:0:0
256,192,22353,1,0,0:0:0
256,192,22453,1,0,0:0:0
256,192,22553,1,0,0:0:0
256,192,22753,1,2,0:0:0
256,192,22953,1,4,0:0:0
256,192,23353,1,6,0:0:0
256,192,23753,1,4,0:0:0
256,192,23953,1,4,0:0:0
256,192,24253,1,0,0:0:0
256,192,24353,1,2,0:0:0
256,192,24553,1,2,0:0:0
256,192,24753,1,0,0:0:0
256,192,24853,1,0,0:0:0
256,192,24953,1,0,0:0:0
256,192,25153,1,2,0:0:0
256,192,25353,1,2,0:0:0
256,192,25453,1,2,0:0:0
256,192,25553,1,0,0:0:0
256,192,25753,1,0,0:0:0
256,192,25953,1,0,0:0:0
256,192,26053,1,0,0:0:0
256,192,26153,1,0,0:0:0
256,192,26353,1,4,0:0:0
256,192,26653,1,4,0:0:0
256,192,26953,1,6,0:0:0
256,192,27353,1,0,0:0:0
256,192,27553,1,0,0:0:0
256,192,27653,1,0,0:0:0
256,192,27753,1,2,0:0:0
256,192,27953,1,0,0:0:0
256,192,28153,1,0,0:0:0
256,192,28253,1,0,0:0:0
256,192,28353,1,2,0:0:0
256,192,28553,1,0,0:0:0
256,192,28753,1,0,0:0:0
256,192,28953,1,0,0:0:0
256,192,29053,1,0,0:0:0
256,192,29153,1,0,0:0:0
256,192,29253,1,0,0:0:0
256,192,29353,1,2,0:0:0
256,192,29553,1,4,0:0:0
256,192,29853,1,4,0:0:0
256,192,30153,1,6,0:0:0
256,192,30553,1,4,0:0:0
256,192,30753,1,4,0:0:0
256,192,31153,1,0,0:0:0
256,192,31353,1,0,0:0:0
256,192,31453,1,0,0:0:0
256,192,31553,1,2,0:0:0
256,192,31853,1,2,0:0:0
256,192,32053,1,0,0:0:0
256,192,32153,1,0,0:0:0
256,192,32353,1,2,0:0:0
256,192,32553,1,0,0:0:0
256,192,32753,1,0,0:0:0
256,192,32953,1,2,0:0:0
256,192,33053,1,0,0:0:0
256,192,33153,1,2,0:0:0
256,192,33453,1,2,0:0:0
256,192,33653,1,0,0:0:0
256,192,33753,1,0,0:0:0
256,192,33953,1,6,0:0:0
256,192,34153,1,0,0:0:0
256,192,34353,1,0,0:0:0
256,192,34453,1,2,0:0:0
256,192,34553,1,0,0:0:0
256,192,34653,1,2,0:0:0
256,192,34953,1,0,0:0:0
256,192,35153,1,0,0:0:0
256,192,35253,1,0,0:0:0
256,192,35353,1,0,0:0:0
256,192,35553,1,2,0:0:0
256,192,35753,1,4,0:0:0
256,192,36153,1,6,0:0:0
256,192,36553,1,4,0:0:0
256,192,36753,1,4,0:0:0
256,192,37053,1,0,0:0:0
256,192,37153,1,2,0:0:0
256,192,37353,1,2,0:0:0
256,192,37553,1,0,0:0:0
256,192,37653,1,0,0:0:0
256,192,37753,1,0,0:0:0
256,192,37953,1,2,0:0:0
256,192,38153,1,2,0:0:0
256,192,38253,1,2,0:0:0
256,192,38353,1,0,0:0:0
256,192,38553,1,0,0:0:0
256,192,38753,1,0,0:0:0
256,192,38853,1,0,0:0:0
256,192,38953,1,0,0:0:0
256,192,39153,1,4,0:0:0
256,192,39453,1,4,0:0:0
256,192,39753,1,6,0:0:0
256,192,40153,1,0,0:0:0
256,192,40353,1,0,0:0:0
256,192,40453,1,0,0:0:0
256,192,40553,1,2,0:0:0
256,192,40753,1,0,0:0:0
256,192,40953,1,0,0:0:0
256,192,41053,1,0,0:0:0
256,192,41153,1,2,0:0:0
256,192,41353,1,0,0:0:0
256,192,41553,1,0,0:0:0
256,192,41653,1,0,0:0:0
256,192,41853,1,2,0:0:0
256,192,41953,1,0,0:0:0
256,192,42153,1,2,0:0:0
256,192,42353,1,4,0:0:0
256,192,42653,1,4,0:0:0
256,192,42953,1,4,0:0:0
256,192,43353,1,0,0:0:0
256,192,43553,1,2,0:0:0
256,192,43953,1,0,0:0:0
256,192,44353,1,0,0:0:0
256,192,44753,1,0,0:0:0
256,192,45353,1,2,0:0:0
256,192,45553,1,0,0:0:0
256,192,45953,1,0,0:0:0
256,192,46353,1,0,0:0:0
256,192,46953,1,2,0:0:0
256,192,47153,1,0,0:0:0
256,192,47553,1,0,0:0:0
256,192,47953,1,0,0:0:0
256,192,48253,1,2,0:0:0
256,192,48753,1,0,0:0:0
256,192,49353,1,2,0:0:0
256,192,49953,1,0,0:0:0
256,192,50353,1,0,0:0:0
256,192,50953,1,2,0:0:0
256,192,51353,1,2,0:0:0
256,192,51753,1,2,0:0:0
256,192,51953,1,0,0:0:0
256,192,52353,1,0,0:0:0
256,192,52753,1,0,0:0:0
256,192,53153,1,2,0:0:0
256,192,53553,1,0,0:0:0
256,192,53853,1,0,0:0:0
256,192,53953,1,2,0:0:0
256,192,54253,1,0,0:0:0
256,192,54353,1,0,0:0:0
256,192,54653,1,0,0:0:0
256,192,54753,1,2,0:0:0
256,192,55053,1,0,0:0:0
256,192,55153,1,0,0:0:0
256,192,55553,1,4,0:0:0
256,192,55753,1,4,0:0:0
256,192,56153,1,2,0:0:0
256,192,56253,1,2,0:0:0
256,192,56353,1,2,0:0:0
256,192,56553,1,2,0:0:0
256,192,56753,1,0,0:0:0
256,192,56953,1,0,0:0:0
256,192,57153,1,2,0:0:0
256,192,57553,1,0,0:0:0
256,192,57753,1,0,0:0:0
256,192,57953,1,0,0:0:0
256,192,58153,1,2,0:0:0
256,192,58353,1,0,0:0:0
256,192,58553,1,0,0:0:0
256,192,58753,1,6,0:0:0
256,192,59053,1,6,0:0:0
256,192,59353,1,0,0:0:0
256,192,59553,1,2,0:0:0
256,192,59753,1,2,0:0:0
256,192,59953,1,0,0:0:0
256,192,60053,1,2,0:0:0
256,192,60253,1,0,0:0:0
256,192,60353,1,2,0:0:0
256,192,60553,1,0,0:0:0
256,192,60753,1,2,0:0:0
256,192,60853,1,2,0:0:0
256,192,61053,1,0,0:0:0
256,192,61153,1,0,0:0:0
256,192,61253,1,0,0:0:0
256,192,61353,1,2,0:0:0
256,192,61553,1,0,0:0:0
256,192,61853,1,6,0:0:0
256,192,62153,1,6,0:0:0
256,192,62353,1,0,0:0:0
256,192,62453,1,0,0:0:0
256,192,62553,1,0,0:0:0
256,192,62753,1,2,0:0:0
256,192,62953,1,0,0:0:0
256,192,63153,1,0,0:0:0
256,192,63353,1,0,0:0:0
256,192,63453,1,0,0:0:0
256,192,63653,1,0,0:0:0
256,192,63753,1,2,0:0:0
256,192,63953,1,0,0:0:0
256,192,64053,1,0,0:0:0
256,192,64253,1,2,0:0:0
256,192,64353,1,2,0:0:0
256,192,64553,1,0,0:0:0
256,192,64753,12,0,65553,0:0:0
256,192,65753,5,0,0:0:0
256,192,65953,1,2,0:0:0
256,192,66153,1,2,0:0:0
256,192,66353,1,0,0:0:0
256,192,66453,1,2,0:0:0
256,192,66653,1,0,0:0:0
256,192,66753,1,2,0:0:0
256,192,66953,1,0,0:0:0
256,192,67153,1,2,0:0:0
256,192,67253,1,2,0:0:0
256,192,67453,1,0,0:0:0
256,192,67553,1,0,0:0:0
256,192,67653,1,0,0:0:0
256,192,67753,1,2,0:0:0
256,192,67953,1,0,0:0:0
256,192,68253,1,6,0:0:0
256,192,68553,1,6,0:0:0
256,192,68753,1,0,0:0:0
256,192,68853,1,0,0:0:0
256,192,68953,1,0,0:0:0
256,192,69153,1,2,0:0:0
256,192,69353,1,0,0:0:0
256,192,69553,1,0,0:0:0
256,192,69653,1,0,0:0:0
256,192,69753,1,2,0:0:0
256,192,69853,1,2,0:0:0
256,192,69953,1,2,0:0:0
256,192,70153,1,4,0:0:0
256,192,70353,1,4,0:0:0
256,192,70553,1,0,0:0:0
256,192,70653,1,0,0:0:0
256,192,70753,1,2,0:0:0
256,192,70953,1,0,0:0:0
256,192,71153,1,0,0:0:0
256,192,71253,1,0,0:0:0
256,192,71353,1,0,0:0:0
256,192,71453,1,2,0:0:0
256,192,71553,1,2,0:0:0
256,192,71753,1,4,0:0:0
256,192,71953,1,4,0:0:0
256,192,72353,1,2,0:0:0
256,192,72753,1,0,0:0:0
256,192,72853,1,2,0:0:0
256,192,72953,1,2,0:0:0
256,192,73053,1,2,0:0:0
256,192,73153,1,2,0:0:0
256,192,73353,1,2,0:0:0
256,192,73553,1,0,0:0:0
256,192,73853,1,2,0:0:0
256,192,74153,1,2,0:0:0
256,192,74353,1,0,0:0:0
256,192,74453,1,2,0:0:0
256,192,74553,1,0,0:0:0
256,192,74653,1,2,0:0:0
256,192,74753,1,2,0:0:0
256,192,74953,1,0,0:0:0
256,192,75153,1,0,0:0:0
256,192,75453,1,2,0:0:0
256,192,75753,1,2,0:0:0
256,192,75953,1,0,0:0:0
256,192,76053,1,0,0:0:0
256,192,76153,1,0,0:0:0
256,192,76253,1,0,0:0:0
256,192,76353,1,2,0:0:0
256,192,76553,1,0,0:0:0
256,192,76753,1,0,0:0:0
256,192,77053,1,2,0:0:0
256,192,77353,1,2,0:0:0
256,192,77553,1,0,0:0:0
256,192,77653,1,0,0:0:0
256,192,77753,1,0,0:0:0
256,192,77953,1,0,0:0:0
256,192,78153,1,0,0:0:0
256,192,78253,1,2,0:0:0
256,192,78553,1,6,0:0:0
256,192,78753,1,6,0:0:0
256,192,79153,1,0,0:0:0
256,192,79353,1,2,0:0:0
256,192,79453,1,2,0:0:0
256,192,79553,1,0,0:0:0
256,192,79753,1,0,0:0:0
256,192,79953,1,0,0:0:0
256,192,80053,1,0,0:0:0
256,192,80253,1,2,0:0:0
256,192,80353,1,2,0:0:0
256,192,80553,1,0,0:0:0
256,192,80753,1,0,0:0:0
256,192,80853,1,0,0:0:0
256,192,80953,1,2,0:0:0
256,192,81053,1,0,0:0:0
256,192,81153,1,0,0:0:0
256,192,81353,1,0,0:0:0
256,192,81553,1,0,0:0:0
256,192,81753,1,0,0:0:0
256,192,81853,1,2,0:0:0
256,192,82053,1,0,0:0:0
256,192,82153,1,0,0:0:0
256,192,82253,1,0,0:0:0
256,192,82353,1,0,0:0:0
256,192,82553,1,2,0:0:0
256,192,82753,1,0,0:0:0
256,192,82853,1,0,0:0:0
256,192,83053,1,0,0:0:0
256,192,83153,1,0,0:0:0
256,192,83353,1,0,0:0:0
256,192,83453,1,2,0:0:0
256,192,83653,1,0,0:0:0
256,192,83753,1,0,0:0:0
256,192,83953,1,0,0:0:0
256,192,84153,1,0,0:0:0
256,192,84353,1,2,0:0:0
256,192,84553,1,0,0:0:0
256,192,84653,1,2,0:0:0
