osu file format v10

[General]
AudioFilename: Shinryaku!! Ika Musume (OAD) Opening Let'sShinryaku Time!.mp3
AudioLeadIn: 2000
PreviewTime: 59353
Countdown: 0
SampleSet: Normal
StackLeniency: 0.7
Mode: 0
LetterboxInBreaks: 0

[Editor]
DistanceSpacing: 0.8
BeatDivisor: 4
GridSize: 4

[Metadata]
Title:Let's*Shinryaku Time! (TV Size)
TitleUnicode:Let's*Shinryaku Time! (TV Size)
Artist:ULTRA-PRISM
ArtistUnicode:ULTRA-PRISM
Creator:Flask
Version:Regou's Hard
Source:Shinryaku!! Ika Musume
Tags:OVA OAD ikamusume Diomedea Kanemoto Hisako Regou opening squid girl invasion! [kirisame-marisa] yia
BeatmapID:177712
BeatmapSetID:59234

[Difficulty]
HPDrainRate:5
CircleSize:4
OverallDifficulty:7
ApproachRate:7
SliderMultiplier:1.6
SliderTickRate:1

[Events]
//Background and Video events
0,0,"ikamusume.jpg"
Video,100,"Shinryaku!! Ika Musume (OAD) Lets Shinryaku Time!.avi"
//Break Periods
//Storyboard Layer 0 (Background)
//Storyboard Layer 1 (Fail)
//Storyboard Layer 2 (Pass)
//Storyboard Layer 3 (Foreground)
//Storyboard Sound Samples
//Background Colour Transformations
3,100,163,162,255

[TimingPoints]
753,400,4,1,1,50,1,0
8753,-100,4,1,1,60,0,0
18353,-100,4,1,1,50,0,0
43953,-133.333333333333,4,1,1,40,0,0
48753,-100,4,1,1,50,0,0
50353,-100,4,1,1,60,0,0
59353,-100,4,2,1,20,0,0
59953,-100,4,1,1,70,0,1
62053,-100,4,1,2,70,0,1
62253,-100,4,1,1,70,0,1
66253,-100,4,1,1,70,0,0
66353,-100,4,1,1,70,0,1
68453,-100,4,1,2,70,0,1
68653,-100,4,1,1,70,0,1
79153,-100,4,1,1,70,0,0
85053,-100,4,2,1,20,0,0

[Colours]
Combo1 : 143,213,233
Combo2 : 0,128,192
Combo3 : 255,179,142
Combo4 : 101,140,243

[HitObjects]
92,52,753,2,0,B|88:100|88:100|88:132|88:132|80:196,2,120,4|8|0,0:0|0:0|0:0,0:0:0
168,32,1553,1,0,0:0:0
240,64,1753,1,0,0:0:0
316,52,1953,2,0,B|408:44,1,80,8|0,0:0|0:0,0:0:0
456,100,2353,6,0,B|460:148|460:148|460:180|460:180|468:244,2,120,4|8|0,0:0|0:0|0:0,0:0:0
380,136,3153,1,0,0:0:0
300,124,3353,1,0,0:0:0
224,140,3553,2,0,B|136:128,1,80,8|0,0:0|0:0,0:0:0
68,156,3953,6,0,B|48:224|100:272|164:264,1,160,4|8,0:0|0:0,0:0:0
224,280,4553,1,0,0:0:0
292,324,4753,2,0,B|308:288|292:236,1,80
224,280,5153,2,0,B|208:368,1,80,8|0,0:0|0:0,0:0:0
376,316,5553,6,0,B|404:156,1,160,4|8,0:0|0:0,0:0:0
136,68,6353,2,0,B|108:228,1,160,4|8,0:0|0:0,0:0:0
256,312,7153,6,0,P|260:344|259:364,4,53.3333333333333,0|0|0|8|0,0:0|0:0|0:0|0:0|0:0,0:0:0
256,264,7853,2,0,B|236:196|256:128,1,120
328,120,8353,2,0,B|312:216|340:296,1,160,8|4,0:0|0:0,0:0:0
177,278,9153,6,0,B|200:216|184:120,1,160,8|0,0:0|0:0,0:0:0
116,72,9753,1,0,0:0:0
108,152,9953,2,0,B|120:196|100:240,1,80,8|0,0:0|0:0,0:0:0
96,308,10353,2,0,B|124:368|204:360,1,120,0|0,0:0|0:0,0:0:0
194,360,10753,1,8,0:0:0
280,332,10953,1,0,0:0:0
280,332,11053,1,0,0:0:0
280,332,11153,2,0,B|448:332,1,160,0|8,0:0|0:0,0:0:0
488,268,11753,1,0,0:0:0
444,200,11953,6,0,B|440:164|448:136,2,53.3333333333333
444,200,12353,1,8,0:0:0
316,300,12753,2,0,B|324:336|316:360,3,53.3333333333333,0|0|0|8,0:0|0:0|0:0|0:0,0:0:0
208,264,13453,1,0,0:0:0
208,264,13553,6,0,B|24:216,2,160,0|8|0,0:0|0:0|0:0,0:0:0
232,300,14453,1,0,0:0:0
260,332,14653,1,0,0:0:0
260,332,14753,2,0,B|344:296|432:352,1,160,8|0,0:0|0:0,0:0:0
480,292,15353,6,0,B|552:292,2,40,0|0|8,0:0|0:0|0:0,0:0:0
416,240,15753,1,0,0:0:0
392,216,15853,1,0,0:0:0
376,184,15953,2,0,B|356:112|404:60,2,120,0|8|0,0:0|0:0|0:0,0:0:0
320,240,16753,6,0,B|128:268,1,160,0|8,0:0|0:0,0:0:0
120,192,17353,1,0,0:0:0
120,192,17453,1,0,0:0:0
120,192,17553,1,2,0:0:0
336,156,17853,1,2,0:0:0
256,344,18153,1,2,0:0:0
256,344,18353,6,4,B|180:300|88:340,1,160,4|8,0:0|0:0,0:0:0
64,208,19053,1,0,0:0:0
64,208,19153,2,0,B|80:28,2,160,0|8|0,0:0|0:0|0:0,0:0:0
136,256,20153,5,0,0:0:0
216,240,20353,2,0,B|244:192|232:112,2,120,8|8|0,0:0|0:0|0:0,0:0:0
136,256,21153,1,8,0:0:0
144,172,21353,1,0,0:0:0
144,172,21453,1,0,0:0:0
144,172,21553,6,0,B|332:172,1,160,0|8,0:0|0:0,0:0:0
412,312,22353,2,0,B|388:364|304:372|264:328,1,160,0|8,0:0|0:0,0:0:0
114,316,22953,2,0,B|112:264|184:232|236:264,1,160,6|2,0:0|0:0,0:0:0
192,328,23553,1,8,0:0:0
240,268,23753,1,0,0:0:0
240,268,23953,2,0,B|240:84,1,160,2|8,0:0|0:0,0:0:0
60,136,24753,6,0,B|48:180|64:220,1,80
112,280,25153,1,8,0:0:0
112,280,25353,2,0,B|184:244|280:292,1,160
304,352,25953,2,0,B|264:276|264:276|288:168,1,160,8|0,0:0|0:0,0:0:0
412,104,26653,2,0,B|372:232,1,120,8|0,0:0|0:0,0:0:0
184,320,27353,5,0,0:0:0
160,240,27553,1,8,0:0:0
108,304,27753,1,0,0:0:0
184,320,27953,6,0,B|236:332|280:320,1,80
304,252,28353,1,8,0:0:0
304,252,28553,2,0,B|264:84,1,160
352,104,29153,2,0,B|376:216,1,80,8|0,0:0|0:0,0:0:0
224,240,29553,6,0,B|176:188|200:96,1,120,2|10,0:0|0:0,0:0:0
304,252,30153,2,0,B|292:316|228:340|176:308,1,160,2|2,0:0|0:0,0:0:0
136,244,30753,1,10,0:0:0
296,168,31153,6,0,B|340:176|376:208,1,80,4|0,0:0|0:0,0:0:0
388,280,31553,2,0,B|456:256|444:180,2,120,8|0|0,0:0|0:0|0:0,0:0:0
312,260,32353,1,8,0:0:0
256,320,32553,1,0,0:0:0
256,320,32653,1,0,0:0:0
256,320,32753,6,0,B|160:352,1,80
120,288,33153,2,0,B|256:240,2,120,8|0|0,0:0|0:0|0:0,0:0:0
112,364,33953,1,8,0:0:0
120,288,34153,1,0,0:0:0
124,208,34353,6,0,B|80:204|80:204|52:208|52:208|4:204,2,120,0|8|0,0:0|0:0|0:0,0:0:0
192,252,35153,2,0,B|272:296|352:248,1,160,0|8,0:0|0:0,0:0:0
344,252,35753,1,4,0:0:0
256,12,36153,6,0,B|236:112,1,80,0|8,0:0|0:0,0:0:0
300,192,36553,2,0,B|320:100,1,80,2|2,0:0|0:0,0:0:0
148,140,36953,2,0,B|184:168|236:164,1,80,0|8,0:0|0:0,0:0:0
336,36,37353,1,0,0:0:0
336,36,37553,6,0,B|504:36,1,160,0|8,0:0|0:0,0:0:0
492,112,38153,2,0,B|496:164|496:164|492:212|492:212|500:280,1,160
496,312,38653,1,0,0:0:0
488,348,38753,1,8,0:0:0
336,292,39153,6,0,B|264:280|196:312,1,120,4|8,0:0|0:0,0:0:0
88,320,39753,2,0,B|136:248|92:152,1,160,4|0,0:0|0:0,0:0:0
28,28,40353,2,0,B|44:112,1,80,8|0,0:0|0:0,0:0:0
99,166,40753,6,0,B|179:198|287:146,1,160,0|8,0:0|0:0,0:0:0
332,164,41353,1,0,0:0:0
400,136,41553,2,0,B|380:96|324:76|276:112,2,120,0|8|0,0:0|0:0|0:0,0:0:0
404,212,42353,2,0,B|416:340,2,120,4|8|0,0:0|0:0|0:0,0:0:0
404,212,43153,5,0,0:0:0
340,164,43353,2,0,B|360:108,2,40,0|0|8,0:0|0:0|0:0,0:0:0
332,240,43753,1,0,0:0:0
332,240,43853,1,0,0:0:0
332,240,43953,6,0,B|296:300|224:288,1,120.000004577637,0|8,0:0|0:0,0:0:0
144,224,44753,2,0,B|96:216|44:232,2,90.0000034332277,0|8|0,0:0|0:0|0:0,0:0:0
192,220,45553,6,0,B|232:172|204:104,1,120.000004577637,0|8,0:0|0:0,0:0:0
96,100,46353,2,0,B|72:144|92:204,2,90.0000034332277,0|8|0,0:0|0:0|0:0,0:0:0
84,76,47153,6,0,B|228:100,1,120.000004577637,0|8,0:0|0:0,0:0:0
252,168,47753,1,0,2:0:0
168,182,47953,2,0,B|164:222|164:222|156:250|156:250|156:294,2,90.0000034332277,0|8|0,0:0|0:0|0:0,0:0:0
88,148,48753,5,0,0:0:0
236,292,49153,1,8,0:0:0
172,348,49353,2,0,B|128:356|88:336|68:296|84:232,1,160
236,292,49953,2,0,B|344:320,1,80,8|0,0:0|0:0,0:0:0
404,352,50353,6,0,B|472:300|436:176,1,160,4|8,0:0|0:0,0:0:0
380,160,50953,2,0,B|360:200|376:244,2,80
452,128,51553,1,8,0:0:0
388,80,51753,1,0,0:0:0
312,112,51953,2,0,B|132:140,1,160,4|8,0:0|0:0,0:0:0
112,256,52653,1,0,0:0:0
112,256,52753,2,0,B|280:228,1,160,0|8,0:0|0:0,0:0:0
392,244,53553,6,0,B|420:296|384:356,1,106.666666666667,4|0,0:0|0:0,0:0:0
404,356,53953,2,0,B|344:356|344:356|304:348|304:348|240:348,2,160,8|0|8,0:0|0:0|0:0,0:0:0
468,312,54953,1,0,0:0:0
468,312,55153,6,0,B|508:232|480:144,1,160,4|8,0:0|0:0,0:0:0
476,76,55753,1,0,0:0:0
408,128,55953,2,0,B|316:144,1,80
312,156,56253,1,0,0:0:0
296,168,56353,2,0,B|200:188,1,80,8|0,0:0|0:0,0:0:0
160,240,56753,5,4,0:0:0
160,240,56953,1,0,0:0:0
112,304,57153,2,0,B|76:268|76:220|100:184|100:184|100:140,2,160,8|0|8,0:0|0:0|0:0,0:0:0
192,312,58153,1,0,0:0:0
192,312,58353,6,0,B|240:324|280:296,1,80,0|2,0:0|0:0,0:0:0
444,256,58753,2,0,B|400:256|364:280,1,80,8|2,0:0|0:0,0:0:0
468,124,59353,5,2,0:0:0
476,112,59553,1,2,0:0:0
484,100,59753,1,2,0:0:0
492,88,59953,6,0,B|408:140|308:84,1,160,4|8,0:0|0:0,0:0:0
276,144,60553,1,0,0:0:0
200,112,60753,2,0,B|56:112,2,120,0|8|0,0:0|0:0|0:0,0:0:0
276,144,61553,6,0,B|300:208|264:272,1,120,0|8,0:0|0:0,0:0:0
160,284,62153,2,0,B|120:200|164:116,1,160,12|0,0:0|0:0,0:0:0
224,88,62753,1,8,0:0:0
276,144,62953,1,0,0:0:0
352,116,63153,6,0,B|404:108|404:108|424:112|424:112|496:100,2,120,0|8|0,0:0|0:0|0:0,0:0:0
292,60,63953,2,0,B|240:52|240:52|220:56|220:56|148:44,2,120,0|8|0,0:0|0:0|0:0,0:0:0
352,116,64753,1,2,0:0:0
352,116,65153,2,0,B|368:184|308:236|240:216,1,160,6|0,0:0|0:0,0:0:0
204,172,65753,1,2,0:0:0
128,164,65953,1,10,0:0:0
60,200,66153,1,0,0:0:0
52,280,66353,6,0,B|84:344|160:344,2,120,6|8|0,0:0|0:0|0:0,0:0:0
60,200,67153,2,0,B|88:68,2,120,0|8|0,0:0|0:0|0:0,0:0:0
124,248,67953,1,0,0:0:0
256,280,68253,1,8,0:0:0
388,248,68553,6,0,B|432:168|396:64,1,160,12|0,0:0|0:0,0:0:0
332,116,69153,2,0,B|344:164|320:208,1,80,8|0,0:0|0:0,0:0:0
256,152,69553,5,0,0:0:0
188,200,69753,1,0,0:0:0
188,200,69853,1,0,0:0:0
188,200,69953,1,8,0:0:0
128,252,70153,1,0,0:0:0
128,252,70353,2,0,B|44:224|48:116,1,160,2|8,0:0|0:0,0:0:0
84,56,70953,1,0,0:0:0
148,108,71153,6,0,B|224:120|280:56,2,120,0|8|0,0:0|0:0|0:0,0:0:0
144,184,71953,2,0,B|240:188|328:120,1,160,2|8,0:0|0:0,0:0:0
456,56,72753,5,4,0:0:0
456,72,72853,1,0,0:0:0
456,88,72953,1,0,0:0:0
456,104,73053,1,0,0:0:0
456,120,73153,1,8,0:0:0
416,192,73353,1,0,0:0:0
400,272,73553,2,0,B|412:344|496:364,2,120,0|8|0,0:0|0:0|0:0,0:0:0
416,192,74353,6,0,B|468:204,4,40,4|0|0|0|8,0:0|0:0|0:0|0:0|0:0,0:0:0
344,216,74953,1,0,0:0:0
328,292,75153,2,0,B|280:288|244:312|244:312|196:308,2,120,0|8|0,0:0|0:0|0:0,0:0:0
344,216,75953,5,4,0:0:0
344,200,76053,1,0,0:0:0
344,184,76153,1,0,0:0:0
344,168,76253,1,0,0:0:0
344,152,76353,1,8,0:0:0
308,80,76553,1,0,0:0:0
244,132,76753,2,0,B|196:176|132:144,2,120,0|8|0,0:0|0:0|0:0,0:0:0
308,80,77553,5,4,0:0:0
384,112,77753,2,0,B|476:112,1,80,0|8,0:0|0:0,0:0:0
488,184,78153,1,0,0:0:0
488,184,78253,2,0,B|424:220|364:180,1,120
300,156,78753,1,12,0:0:0
188,292,79153,6,0,B|96:268|24:320,2,160,4|8|0,0:0|0:0|0:0,0:0:0
296,232,80253,1,8,0:0:0
416,264,80553,1,0,0:0:0
416,264,80753,6,0,B|488:196|452:84,2,160,4|8|0,0:0|0:0|0:0,0:0:0
296,232,81853,1,8,0:0:0
172,204,82153,1,0,0:0:0
172,204,82353,6,0,B|144:32,2,160,4|8|0,0:0|0:0|0:0,0:0:0
164,284,83353,1,0,0:0:0
164,284,83453,2,0,P|116:260|92:200,1,120,8|0,0:0|0:0,0:0:0
248,180,83953,6,0,B|256:228|236:260,1,80,2|0,0:0|0:0,0:0:0
172,204,84353,1,10,0:0:0
188,128,84553,1,2,0:0:0
188,128,84653,2,0,B|232:84|304:100|324:164,1,160
