osu file format v10

[General]
AudioFilename: Shinryaku!! Ika Musume (OAD) Opening Let'sShinryaku Time!.mp3
AudioLeadIn: 2000
PreviewTime: 59353
Countdown: 0
SampleSet: Normal
StackLeniency: 0.7
Mode: 0
LetterboxInBreaks: 0

[Editor]
DistanceSpacing: 1
BeatDivisor: 4
GridSize: 4

[Metadata]
Title:Let's*Shinryaku Time! (TV Size)
TitleUnicode:Let's*Shinryaku Time! (TV Size)
Artist:ULTRA-PRISM
ArtistUnicode:ULTRA-PRISM
Creator:Flask
Version:Normal
Source:Shinryaku!! Ika Musume
Tags:OVA OAD ikamusume Diomedea Kanemoto Hisako Regou opening squid girl invasion! [kirisame-marisa] yia
BeatmapID:177694
BeatmapSetID:59234

[Difficulty]
HPDrainRate:3
CircleSize:3
OverallDifficulty:4
ApproachRate:4
SliderMultiplier:1
SliderTickRate:1

[Events]
//Background and Video events
Video,100,"Shinryaku!! Ika Musume (OAD) Lets Shinryaku Time!.avi"
0,0,"ikamusume.jpg"
//Break Periods
//Storyboard Layer 0 (Background)
//Storyboard Layer 1 (Fail)
//Storyboard Layer 2 (Pass)
//Storyboard Layer 3 (Foreground)
//Storyboard Sound Samples
//Background Colour Transformations
3,100,163,162,255

[TimingPoints]
753,400,4,1,1,50,1,0
1053,-100,4,1,2,50,0,0
1253,-100,4,1,1,50,0,0
2653,-100,4,1,2,50,0,0
2853,-100,4,1,1,50,0,0
4253,-100,4,1,2,50,0,0
4453,-100,4,1,1,50,0,0
8753,-100,4,1,1,60,0,0
10653,-100,4,1,2,60,0,0
10853,-100,4,1,1,60,0,0
16253,-100,4,1,2,60,0,0
16453,-100,4,1,1,60,0,0
18353,-100,4,1,1,50,0,0
35453,-100,4,1,2,50,0,0
35653,-100,4,1,1,50,0,0
37853,-100,4,1,2,50,0,0
38053,-100,4,1,1,50,0,0
43953,-100,4,1,1,70,0,0
45103,-100,4,1,2,70,0,0
45203,-100,4,1,1,70,0,0
46703,-100,4,1,2,70,0,0
46803,-100,4,1,1,70,0,0
48253,-100,4,1,2,70,0,0
48453,-100,4,1,1,70,0,0
49053,-100,4,1,2,70,0,0
49253,-100,4,1,1,70,0,0
58653,-100,4,1,2,70,0,0
58853,-100,4,1,1,70,0,0
59953,-100,4,1,1,80,0,1
61853,-100,4,1,2,80,0,1
62253,-100,4,1,1,80,0,1
66253,-100,4,1,1,80,0,0
66353,-100,4,1,1,80,0,1
68253,-100,4,1,2,80,0,1
68653,-100,4,1,1,80,0,1
73053,-100,4,1,2,80,0,1
73253,-100,4,1,1,80,0,1
74653,-100,4,1,2,80,0,1
74853,-100,4,1,1,80,0,1
76253,-100,4,1,2,80,0,1
76453,-100,4,1,1,80,0,1
79153,-100,4,1,1,60,0,0
84253,-100,4,1,2,60,0,0
84453,-100,4,1,1,60,0,0
84653,-100,4,1,1,15,0,0

[Colours]
Combo1 : 143,213,233
Combo2 : 0,128,192
Combo3 : 255,179,142
Combo4 : 101,140,243

[HitObjects]
108,100,753,2,0,B|64:196|104:296,1,200,4|0,0:0|0:0,0:0:0
132,336,1753,2,0,B|196:336,1,50,0|8,0:0|0:0,0:0:0
276,300,2353,6,0,B|320:196|280:104,1,200
248,68,3353,2,0,B|176:68,1,50,0|8,0:0|0:0,0:0:0
160,160,3953,6,0,B|108:148|84:96|96:48|96:48|28:48,1,200
24,96,4953,2,0,B|12:168,1,50,0|8,0:0|0:0,0:0:0
8,244,5553,5,0,0:0:0
84,308,5953,1,8,0:0:0
184,320,6353,2,0,B|248:320|296:288,1,100,0|8,0:0|0:0,0:0:0
344,228,7153,2,0,B|356:164|340:112,3,100,0|8|0|8,0:0|0:0|0:0|0:0,0:0:0
276,56,8753,5,4,0:0:0
204,128,9153,1,8,0:0:0
116,172,9553,2,0,B|156:228|216:228,1,100,0|8,0:0|0:0,0:0:0
296,208,10353,2,0,B|316:268|276:324|224:324,2,150,0|0|8,0:0|0:0|0:0,0:0:0
220,148,11953,6,0,B|216:80|264:40,1,100,0|8,0:0|0:0,0:0:0
348,44,12753,2,0,B|416:40|456:88,1,100,0|8,0:0|0:0,0:0:0
496,156,13553,2,0,B|496:264,1,100,0|8,0:0|0:0,0:0:0
396,256,14353,2,0,B|396:148,1,100,0|8,0:0|0:0,0:0:0
356,64,15153,5,0,0:0:0
276,124,15553,2,0,B|184:180|184:180|132:104|36:124|8:184,1,300,8|0,0:0|0:0,0:0:0
96,228,17153,1,8,0:0:0
100,328,17553,2,0,B|136:360|176:352,2,75,2|2|2,0:0|0:0|0:0,0:0:0
52,320,18353,5,4,0:0:0
20,224,18753,1,8,0:0:0
48,128,19153,2,0,B|80:64|128:56,1,100,0|8,0:0|0:0,0:0:0
216,64,19953,2,0,B|216:132,2,50,0|0|8,0:0|0:0|0:0,0:0:0
316,48,20753,1,0,0:0:0
396,104,21153,1,8,0:0:0
452,188,21553,6,0,B|396:212|344:184,1,100,0|8,0:0|0:0,0:0:0
268,148,22353,2,0,B|212:124|164:152,2,100,0|8|0,0:0|0:0|0:0,0:0:0
272,248,23553,1,8,0:0:0
272,248,23953,2,0,B|260:312|192:320,1,100,2|8,0:0|0:0,0:0:0
116,280,24753,5,0,0:0:0
48,356,25153,2,0,B|4:308|4:236|40:192|92:180,1,200,8|8,0:0|0:0,0:0:0
124,100,26353,2,0,B|168:124|212:128,2,75,2|2|2,0:0|0:0|0:0,0:0:0
260,32,27553,6,0,B|316:24|368:36,1,100,8|0,0:0|0:0,0:0:0
424,112,28353,2,0,B|448:172,1,50,8|0,0:0|0:0,0:0:0
460,256,28953,2,0,B|432:308,1,50,0|8,0:0|0:0,0:0:0
344,340,29553,2,0,B|304:352|256:332,2,75,2|2|2,0:0|0:0|0:0,0:0:0
348,240,30553,1,2,0:0:0
324,196,30753,1,10,0:0:0
352,100,31153,6,0,B|288:84|240:132,1,100,4|8,0:0|0:0,0:0:0
180,180,31953,1,0,0:0:0
84,156,32353,1,8,0:0:0
36,68,32753,2,0,B|80:28|132:32,3,100,0|8|0|8,0:0|0:0|0:0|0:0,0:0:0
224,60,34353,6,0,B|300:76|300:76|320:60,1,100,2|8,0:0|0:0,0:0:0
404,12,35153,2,0,B|440:48|436:108|408:136|408:136|392:156|360:192,1,200
284,240,36353,2,0,B|236:276,2,50,8|2|2,0:0|0:0|0:0,0:0:0
368,292,37153,1,8,0:0:0
452,344,37553,6,0,B|504:280|480:196,1,150
424,124,38553,1,0,0:0:0
384,92,38753,1,8,0:0:0
292,52,39153,6,0,B|240:32|212:32,2,75,2|2|2,0:0|0:0|0:0,0:0:0
308,152,40153,1,0,0:0:0
336,192,40353,1,8,0:0:0
380,284,40753,6,0,B|340:320|284:316,1,100,0|8,0:0|0:0,0:0:0
244,228,41553,2,0,B|200:220|152:260,1,100,0|8,0:0|0:0,0:0:0
52,264,42353,2,0,B|16:240|-4:200,2,75,2|2|2,0:0|0:0|0:0,0:0:0
160,368,43553,1,8,0:0:0
260,372,43953,6,0,B|364:372,1,100,4|8,0:0|0:0,0:0:0
376,272,44753,2,0,B|408:224|400:184,2,75,0|0|0,0:0|0:0|0:0,0:0:0
324,272,45553,2,0,B|284:216|272:164,1,100,0|8,0:0|0:0,0:0:0
276,84,46353,2,0,B|232:72|184:80,2,75,0|0|0,0:0|0:0|0:0,0:0:0
328,88,47153,5,0,0:0:0
424,64,47553,1,8,0:0:0
492,136,47953,2,0,B|520:212|476:284|388:272,2,200
392,172,49953,1,8,0:0:0
328,96,50353,5,4,0:0:0
232,64,50753,1,8,0:0:0
136,84,51153,1,0,0:0:0
72,160,51553,1,8,0:0:0
64,260,51953,2,0,B|56:312|76:360,3,100,0|8|0|8,0:0|0:0|0:0|0:0,0:0:0
168,324,53553,5,8,0:0:0
268,320,53953,1,8,0:0:0
348,260,54353,1,8,0:0:0
368,160,54753,1,8,0:0:0
324,72,55153,2,0,B|296:24|232:28,2,100,8|8|0,0:0|0:0|0:0,0:0:0
328,272,56753,5,4,0:0:0
256,340,57153,1,8,0:0:0
160,316,57553,1,0,0:0:0
108,232,57953,1,8,0:0:0
24,176,58353,2,0,B|0:212|4:260|20:288|48:312,1,150,2|2,0:0|0:0,0:0:0
296,344,59953,5,4,0:0:0
392,320,60353,1,8,0:0:0
464,252,60753,2,0,B|500:208|480:156,1,100,0|8,0:0|0:0,0:0:0
428,72,61553,2,0,B|392:40|352:32,2,75,0|0|8,0:0|0:0|0:0,0:0:0
340,192,62753,1,8,0:0:0
252,240,63153,6,0,B|208:272|148:272,1,100,0|8,0:0|0:0,0:0:0
60,276,63953,2,0,B|24:228|24:164,1,100,0|8,0:0|0:0,0:0:0
88,108,64753,1,2,0:0:0
188,96,65153,2,0,B|268:72|324:124|408:92,1,200,10|8,0:0|0:0,0:0:0
484,88,66353,5,4,0:0:0
480,188,66753,1,8,0:0:0
444,280,67153,2,0,B|404:320|340:312,1,100,0|8,0:0|0:0,0:0:0
256,336,67953,2,0,B|216:336|180:312,2,75,0|0|8,0:0|0:0|0:0,0:0:0
324,204,69153,1,8,0:0:0
392,128,69553,6,0,B|408:80|384:28,1,100,0|8,0:0|0:0,0:0:0
336,32,70153,1,2,0:0:0
288,32,70353,1,2,0:0:0
228,112,70753,6,0,B|248:176|200:228|200:224,2,100,8|0|8,0:0|0:0|0:0,0:0:0
184,92,71753,1,2,0:0:0
136,100,71953,2,0,B|76:116|56:172,1,100,2|8,0:0|0:0,0:0:0
48,260,72753,6,0,B|88:328|176:344,1,150,2|0,0:0|0:0,0:0:0
216,348,73553,1,0,0:0:0
316,344,73953,1,8,0:0:0
416,340,74353,6,0,B|412:288|368:240|308:248,1,150,2|0,0:0|0:0,0:0:0
272,220,75153,1,0,0:0:0
188,168,75553,1,8,0:0:0
192,68,75953,6,0,B|136:72|84:112|84:180,1,150,2|0,0:0|0:0,0:0:0
84,208,76753,1,0,0:0:0
76,308,77153,1,8,0:0:0
172,340,77553,6,0,B|224:360|288:340,2,100,0|8|0,0:0|0:0|0:0,0:0:0
176,292,78553,1,2,0:0:0
184,244,78753,1,2,0:0:0
208,148,79153,6,0,B|236:80|288:72,1,100,2|10,0:0|0:0,0:0:0
368,108,79953,2,0,B|408:152|416:188,2,75,0|0|0,0:0|0:0|0:0,0:0:0
328,140,80753,6,0,B|300:200|296:248,1,100,2|10,0:0|0:0,0:0:0
360,312,81553,2,0,B|376:356|420:376,2,75
308,316,82353,6,0,B|260:336|252:296|196:312,1,100,2|10,0:0|0:0,0:0:0
108,272,83153,2,0,B|88:308|104:348,2,75
120,224,83953,6,0,B|136:144|116:48,1,175,2|0,0:0|0:0,0:0:0
