osu file format v10

[General]
AudioFilename: Shinryaku!! Ika Musume (OAD) Opening Let'sShinryaku Time!.mp3
AudioLeadIn: 2000
PreviewTime: 59353
Countdown: 0
SampleSet: Normal
StackLeniency: 0.7
Mode: 0
LetterboxInBreaks: 0

[Editor]
DistanceSpacing: 1
BeatDivisor: 3
GridSize: 4

[Metadata]
Title:Let's*Shinryaku Time! (TV Size)
TitleUnicode:Let's*Shinryaku Time! (TV Size)
Artist:ULTRA-PRISM
ArtistUnicode:ULTRA-PRISM
Creator:Flask
Version:Insane
Source:Shinryaku!! Ika Musume
Tags:OVA OAD ikamusume Diomedea Kanemoto Hisako Regou opening squid girl invasion! [kirisame-marisa] yia
BeatmapID:177657
BeatmapSetID:59234

[Difficulty]
HPDrainRate:7
CircleSize:4
OverallDifficulty:7
ApproachRate:8
SliderMultiplier:1.6
SliderTickRate:2

[Events]
//Background and Video events
0,0,"ikamusume.jpg"
Video,100,"Shinryaku!! Ika Musume (OAD) Lets Shinryaku Time!.avi"
//Break Periods
//Storyboard Layer 0 (Background)
//Storyboard Layer 1 (Fail)
//Storyboard Layer 2 (Pass)
//Storyboard Layer 3 (Foreground)
//Storyboard Sound Samples
//Background Colour Transformations
3,100,163,162,255

[TimingPoints]
753,400,4,1,1,50,1,0
8753,-100,4,1,1,60,0,0
18353,-100,4,1,1,50,0,0
43953,-100,4,1,1,70,0,0
45053,-100,4,1,2,70,0,0
45253,-100,4,1,1,70,0,0
46653,-100,4,1,2,70,0,0
46853,-100,4,1,1,70,0,0
59353,-200,4,1,0,50,0,0
59953,-100,4,1,1,80,0,1
62053,-100,4,1,2,80,0,1
62253,-100,4,1,1,80,0,1
66253,-100,4,1,1,80,0,0
66353,-100,4,1,1,80,0,1
68453,-100,4,1,2,80,0,1
68653,-100,4,1,1,80,0,1
79153,-100,4,1,1,60,0,0
84619,-100,4,1,1,15,0,0

[Colours]
Combo1 : 143,213,233
Combo2 : 0,128,192
Combo3 : 255,179,142
Combo4 : 101,140,243

[HitObjects]
132,116,753,1,4,0:0:0
68,196,953,2,0,B|36:184|16:180,2,40,0|0|8,0:0|0:0|0:0,0:0:0
68,292,1353,2,0,B|56:336|80:372,1,80
160,316,1753,1,0,0:0:0
244,368,1953,2,0,B|266:335|254:291,1,80
280,256,2253,1,0,0:0:0
308,224,2353,5,0,0:0:0
356,140,2553,1,0,0:0:0
356,140,2653,1,0,0:0:0
356,140,2753,1,8,0:0:0
384,232,2953,2,0,B|340:244|304:220,1,80
192,136,3353,2,0,B|204:180|180:216,1,80
92,160,3753,1,0,0:0:0
88,264,3953,5,0,0:0:0
172,316,4153,2,0,B|200:372,2,40,0|0|8,0:0|0:0|0:0,0:0:0
244,248,4553,2,0,B|336:212,1,80
232,164,4953,2,0,B|296:108,1,80
196,68,5353,5,0,0:0:0
232,164,5553,2,0,B|144:164,2,80,4|0|0,0:0|0:0|0:0,0:0:0
256,264,6153,1,0,0:0:0
256,264,6253,2,0,B|344:264,2,80
256,264,6753,1,0,0:0:0
232,164,6953,5,0,0:0:0
232,164,7153,1,0,0:0:0
180,172,7253,2,0,P|164:196|136:216,2,53.3333333333333,0|0|0,0:0|0:0|0:0,0:0:0
164,120,7653,1,0,0:0:0
184,72,7853,2,0,P|204:20|272:8,1,120
388,24,8353,1,8,0:0:0
424,224,8753,6,0,B|448:332|428:420,1,160,4|8,0:0|0:0,0:0:0
236,324,9553,1,0,0:0:0
284,232,9753,1,0,0:0:0
224,148,9953,1,8,0:0:0
128,192,10153,1,0,0:0:0
24,196,10353,6,0,B|24:132|84:96,2,120,0|8|0,0:0|0:0|0:0,0:0:0
84,276,11153,2,0,B|172:288|240:220,1,160,0|8,0:0|0:0,0:0:0
320,176,11753,1,0,0:0:0
432,88,11953,5,0,0:0:0
456,136,12053,1,0,0:0:0
464,188,12253,1,0,0:0:0
464,240,12353,2,0,B|428:316,1,80,8|0,0:0|0:0,0:0:0
236,344,12753,5,0,0:0:0
252,292,12853,1,0,0:0:0
240,240,13053,1,0,0:0:0
220,188,13153,2,0,B|180:100,1,80,8|0,0:0|0:0,0:0:0
40,60,13553,6,0,B|44:4,2,53.3333333333333
40,104,13953,2,0,B|16:160|40:216,1,80,8|0,0:0|0:0,0:0:0
192,320,14353,6,0,B|192:376,2,53.3333333333333
236,324,14753,2,0,B|284:340|340:324,1,80,8|0,0:0|0:0,0:0:0
416,356,15153,5,0,0:0:0
424,252,15353,1,0,0:0:0
416,220,15453,1,0,0:0:0
400,192,15553,1,8,0:0:0
432,92,15753,1,0,0:0:0
332,112,15953,1,0,0:0:0
300,100,16053,1,0,0:0:0
268,112,16153,1,0,0:0:0
236,104,16253,1,0,0:0:0
204,112,16353,1,8,0:0:0
92,72,16553,1,0,0:0:0
108,176,16753,6,0,B|124:236|124:236|100:256|92:324|128:352|128:352,1,160,0|8,0:0|0:0,0:0:0
220,296,17353,1,0,0:0:0
220,296,17453,1,0,0:0:0
220,296,17553,1,2,0:0:0
392,168,17853,1,2,0:0:0
204,60,18153,1,2,0:0:0
204,60,18353,6,0,B|128:80|88:140,1,120,4|0,0:0|0:0,0:0:0
76,152,18753,2,0,B|44:200|48:260,1,80,8|0,0:0|0:0,0:0:0
76,244,19053,1,0,0:0:0
104,256,19153,1,0,0:0:0
136,260,19253,1,0,0:0:0
168,260,19353,1,0,0:0:0
268,236,19553,2,0,B|316:232|340:196,1,80,8|0,0:0|0:0,0:0:0
396,116,19953,5,0,0:0:0
456,240,20153,1,0,0:0:0
344,320,20353,2,0,B|304:348|260:348,1,80,8|0,0:0|0:0,0:0:0
240,352,20653,2,0,B|196:340|152:352,1,80
128,348,20953,1,0,0:0:0
28,268,21153,1,8,0:0:0
28,268,21253,1,0,0:0:0
28,268,21353,1,0,0:0:0
60,88,21553,6,0,B|96:56|144:60,1,80
144,164,21953,2,0,B|232:156|288:224,1,160,8|0,0:0|0:0,0:0:0
360,296,22553,1,0,0:0:0
360,296,22653,1,0,0:0:0
360,296,22753,1,8,0:0:0
452,248,22953,6,0,B|464:208|452:156,1,80,2|0,0:0|0:0,0:0:0
308,40,23353,2,0,B|296:84|312:132,1,80,2|0,0:0|0:0,0:0:0
268,216,23753,1,2,0:0:0
140,272,23953,1,2,0:0:0
12,240,24153,2,0,B|-16:188,2,40,0|0|8,0:0|0:0|0:0,0:0:0
92,172,24553,1,0,0:0:0
180,120,24753,6,0,B|240:120|264:60|264:60|328:60,1,160,0|8,0:0|0:0,0:0:0
180,36,25353,2,0,B|132:32|100:80,1,80
92,172,25753,1,0,0:0:0
180,120,25953,1,8,0:0:0
180,120,26053,1,0,0:0:0
180,120,26153,1,0,0:0:0
268,176,26353,6,0,B|308:236|320:300,1,120,2|2,0:0|0:0,0:0:0
188,208,26953,2,0,B|128:192|40:216|24:268,1,160,2|0,0:0|0:0,0:0:0
132,308,27553,1,8,0:0:0
220,360,27753,1,0,0:0:0
320,332,27953,6,0,B|392:308|436:316,2,80,0|0|8,0:0|0:0|0:0,0:0:0
132,308,28553,2,0,B|76:332|16:304|12:240,1,160
92,236,29153,2,0,B|164:172,1,80,8|0,0:0|0:0,0:0:0
224,108,29553,6,0,B|296:108|364:172,2,120,2|2|0,0:0|0:0|0:0,0:0:0
116,20,30353,1,0,0:0:0
48,100,30553,1,2,0:0:0
48,100,30653,1,0,0:0:0
48,100,30753,2,0,B|16:144|4:184,1,80,2|0,0:0|0:0,0:0:0
136,280,31153,6,0,B|192:336|264:352,1,120,4|0,0:0|0:0,0:0:0
268,344,31553,2,0,B|304:328|336:252,1,80,8|0,0:0|0:0,0:0:0
332,256,31853,2,0,B|344:204,3,40
440,116,32353,1,8,0:0:0
356,56,32553,1,0,0:0:0
260,96,32753,6,0,B|212:84|152:104,1,80
156,116,33053,1,0,0:0:0
132,136,33153,2,0,B|108:180|112:256,1,120,8|0,0:0|0:0,0:0:0
108,284,33553,2,0,B|92:312|72:328,2,40,0|0|0,0:0|0:0|0:0,0:0:0
204,328,33953,2,0,B|248:336|292:312,1,80,8|0,0:0|0:0,0:0:0
384,296,34353,6,2,B|412:356,2,53.3333333333333
376,244,34753,2,0,B|408:216|428:172,1,80,8|0,0:0|0:0,0:0:0
296,28,35153,2,0,B|256:68|232:116,1,80
128,104,35553,1,8,0:0:0
104,204,35753,2,0,B|88:256|96:316,1,80,0|0,0:0|0:0,0:0:0
196,204,36153,2,0,B|264:204|304:188,1,80,0|8,0:0|0:0,0:0:0
372,108,36553,5,2,0:0:0
196,204,36753,1,2,0:0:0
368,304,36953,1,0,0:0:0
368,304,37053,1,0,0:0:0
368,304,37153,2,0,B|324:232,1,80,8|0,0:0|0:0,0:0:0
196,204,37553,5,0,0:0:0
196,204,37753,1,0,0:0:0
108,44,37953,1,8,0:0:0
208,76,38153,2,0,B|256:88|332:72,1,120
368,76,38553,2,0,B|400:112|448:120,1,80,0|8,0:0|0:0,0:0:0
400,216,38953,1,0,0:0:0
392,320,39153,6,0,B|332:360|268:356,1,120,2|2,0:0|0:0,0:0:0
144,276,39753,2,0,B|152:224|136:176|112:144,2,120,0|0|8,0:0|0:0|0:0,0:0:0
108,376,40553,1,0,0:0:0
144,276,40753,6,0,B|228:276|304:216,2,160,0|8|0,0:0|0:0|0:0,0:0:0
20,180,41853,1,0,0:0:0
20,180,42153,1,0,0:0:0
52,80,42353,6,0,B|96:44|160:24,2,120,2|2|2,0:0|0:0|0:0,0:0:0
20,180,43153,1,0,0:0:0
52,280,43353,1,0,0:0:0
84,288,43453,1,0,0:0:0
116,296,43553,1,8,0:0:0
220,316,43753,1,0,0:0:0
228,208,43953,6,0,B|256:176|312:176,2,80,4|0|8,0:0|0:0|0:0,0:0:0
424,284,44753,2,0,B|360:324|292:324,2,120
452,184,45553,2,0,B|420:156|420:100,2,80,0|0|8,0:0|0:0|0:0,0:0:0
288,56,46353,2,0,B|212:80|160:64,2,120
272,160,47153,5,0,0:0:0
344,284,47453,1,0,0:0:0
344,284,47553,2,0,B|332:332|280:360,1,80,8|0,0:0|0:0,0:0:0
196,352,47953,2,0,B|148:352|96:320,1,80
56,252,48353,2,0,B|68:204|120:176,1,80,8|0,0:0|0:0,0:0:0
128,88,48753,5,0,0:0:0
204,160,48953,1,0,0:0:0
216,192,49053,1,0,0:0:0
224,224,49153,1,8,0:0:0
152,300,49353,2,0,B|204:340|260:332|308:292,1,160
316,272,49853,1,0,0:0:0
340,252,49953,2,0,B|396:252|444:228,1,80,8|0,0:0|0:0,0:0:0
480,156,50353,5,4,0:0:0
472,32,50553,1,0,0:0:0
472,32,50653,1,0,0:0:0
472,32,50753,1,8,0:0:0
368,40,50953,1,0,0:0:0
272,84,51153,2,0,B|240:120|188:128,1,80
116,180,51553,2,0,B|100:248|120:296,1,80,8|0,0:0|0:0,0:0:0
188,328,51953,6,0,B|128:356|48:352|36:352,1,120
32,320,52353,2,0,B|4:260|8:180|8:168,1,120,8|0,0:0|0:0,0:0:0
36,160,52753,2,0,B|96:132|176:136|188:136,1,120
200,156,53153,2,0,B|228:216|224:296|224:308,1,120,8|0,0:0|0:0,0:0:0
268,300,53553,6,0,B|312:340|388:340,1,120,2|0,0:0|0:0,0:0:0
408,324,53953,1,2,0:0:0
480,184,54253,1,0,0:0:0
468,156,54353,2,0,B|428:96|348:64,1,120,2|0,0:0|0:0,0:0:0
348,64,54753,2,0,B|280:56|212:76,1,120,2|0,0:0|0:0,0:0:0
204,92,55153,6,0,B|136:132,1,80,2|0,0:0|0:0,0:0:0
108,232,55553,1,2,0:0:0
192,296,55753,1,0,0:0:0
296,296,55953,1,0,0:0:0
324,284,56053,1,0,0:0:0
348,264,56153,1,0,0:0:0
368,240,56253,1,0,0:0:0
376,208,56353,1,8,0:0:0
372,176,56453,1,0,0:0:0
364,144,56553,1,0,0:0:0
284,76,56753,6,0,B|180:52|112:76,1,160,4|8,0:0|0:0,0:0:0
76,164,57353,1,0,0:0:0
100,184,57453,1,0,0:0:0
124,204,57553,2,0,B|228:228|296:204,1,160,0|8,0:0|0:0,0:0:0
384,184,58153,1,0,0:0:0
360,284,58353,2,0,B|352:332|304:360,1,80,2|2,0:0|0:0,0:0:0
152,284,58753,2,0,B|160:332|208:360,1,80,2|2,0:0|0:0,0:0:0
72,152,59353,6,0,B|72:88,2,40
164,200,59953,6,0,B|128:252|56:256,1,120,4|0,0:0|0:0,0:0:0
28,296,60353,2,0,B|16:348|24:384,1,80,8|0,0:0|0:0,0:0:0
124,348,60753,1,0,0:0:0
124,348,60853,1,0,0:0:0
124,348,60953,1,0,0:0:0
224,316,61153,2,0,B|280:312|320:284,1,80,8|0,0:0|0:0,0:0:0
344,200,61553,6,0,B|368:128|408:84,1,120
432,72,61953,1,8,0:0:0
240,172,62153,2,0,B|188:204|140:188,1,80,8|0,0:0|0:0,0:0:0
128,196,62453,1,0,0:0:0
96,192,62553,2,0,B|44:188|28:124,1,80,0|8,0:0|0:0,0:0:0
252,120,62953,1,0,0:0:0
324,44,63153,6,0,B|396:36|456:44,2,120,0|8|0,0:0|0:0|0:0,0:0:0
252,120,63953,1,0,0:0:0
248,224,64153,1,0,0:0:0
148,248,64353,1,8,0:0:0
92,168,64553,1,0,0:0:0
48,80,64753,6,0,B|-4:120|-4:164|4:196,1,120,2|0,0:0|0:0,0:0:0
4,236,65153,2,0,B|32:292|104:300|152:284,1,160,2|0,0:0|0:0,0:0:0
232,240,65753,6,0,B|308:212,2,80,0|8|0,0:0|0:0|0:0,0:0:0
160,136,66353,1,4,0:0:0
148,108,66453,1,0,0:0:0
132,80,66553,2,0,B|108:32|40:28,1,80,0|8,0:0|0:0,0:0:0
24,192,66953,1,0,0:0:0
96,316,67153,2,0,B|136:348|216:348,1,120
240,344,67553,2,0,B|280:328|332:336,1,80,8|0,0:0|0:0,0:0:0
352,244,67953,6,0,B|368:188|352:108,1,120
352,84,68353,1,8,0:0:0
264,32,68553,1,8,0:0:0
172,96,68753,1,0,0:0:0
156,124,68853,1,0,0:0:0
148,156,68953,1,0,0:0:0
240,204,69153,6,0,B|220:248|236:308,1,80,8|0,0:0|0:0,0:0:0
308,352,69553,1,0,0:0:0
384,284,69753,2,0,B|404:240|388:180,1,80,0|8,0:0|0:0,0:0:0
332,120,70153,1,2,0:0:0
236,80,70353,2,0,B|200:60|136:72,1,80,2|0,0:0|0:0,0:0:0
152,172,70753,2,0,B|152:236|120:272,1,80,8|0,0:0|0:0,0:0:0
236,384,71153,6,0,B|276:324|292:224,1,160,0|8,0:0|0:0,0:0:0
396,240,71753,2,0,B|400:192|380:156,1,80,2|2,0:0|0:0,0:0:0
372,132,72053,1,0,0:0:0
352,108,72153,1,0,0:0:0
324,92,72253,1,0,0:0:0
292,80,72353,1,8,0:0:0
12,108,72753,5,2,0:0:0
24,76,72853,1,2,0:0:0
48,56,72953,1,2,0:0:0
80,52,73053,1,2,0:0:0
112,60,73153,1,0,0:0:0
204,224,73553,2,0,B|224:292|224:368,1,120
172,360,73953,2,0,B|112:372|56:348,1,80,8|0,0:0|0:0,0:0:0
308,260,74353,5,0,0:0:0
340,268,74453,1,2,0:0:0
372,264,74553,1,2,0:0:0
396,244,74653,1,2,0:0:0
408,212,74753,1,2,0:0:0
252,76,75153,2,0,B|192:76|120:96,1,120
84,108,75553,2,0,B|48:48|8:28,1,80,8|0,0:0|0:0,0:0:0
120,184,75953,5,2,0:0:0
116,216,76053,1,2,0:0:0
112,248,76153,1,2,0:0:0
108,280,76253,1,2,0:0:0
104,312,76353,1,0,0:0:0
228,352,76753,2,0,B|256:312|328:312,1,80
328,320,77053,1,0,0:0:0
360,316,77153,2,0,B|412:288|416:248,1,80,8|0,0:0|0:0,0:0:0
364,56,77553,5,0,0:0:0
376,192,77753,1,0,0:0:0
240,208,77953,1,8,0:0:0
220,72,78153,2,0,B|176:48,2,40
300,124,78553,1,2,0:0:0
300,124,78653,1,0,0:0:0
300,124,78753,1,2,0:0:0
300,124,79153,6,0,B|332:176|384:224,1,120,6|0,0:0|0:0,0:0:0
408,256,79553,2,0,B|436:304|432:344,1,80,10|0,0:0|0:0,0:0:0
332,352,79953,1,0,0:0:0
248,292,80153,1,0,0:0:0
220,280,80253,1,0,0:0:0
188,276,80353,1,8,0:0:0
160,288,80453,1,0,0:0:0
136,312,80553,1,0,0:0:0
48,260,80753,6,0,B|52:200|72:116,1,120,2|2,0:0|0:0,0:0:0
60,88,81153,2,0,B|112:60|152:64,1,80,10|0,0:0|0:0,0:0:0
228,116,81553,1,0,0:0:0
332,132,81753,1,0,0:0:0
360,156,81853,1,0,0:0:0
380,184,81953,1,8,0:0:0
388,220,82053,1,0,0:0:0
380,256,82153,1,0,0:0:0
296,316,82353,6,0,B|244:336|152:312,1,120,2|0,0:0|0:0,0:0:0
144,312,82753,2,0,B|100:288|104:208,1,80,10|0,0:0|0:0,0:0:0
68,148,83153,1,0,0:0:0
164,108,83353,1,0,0:0:0
196,104,83453,1,0,0:0:0
228,100,83553,1,8,0:0:0
260,96,83653,1,0,0:0:0
292,92,83753,1,0,0:0:0
396,100,83953,5,2,0:0:0
444,192,84153,1,2,0:0:0
408,288,84353,2,0,B|336:344,1,80
320,356,84653,1,0,0:0:0
