osu file format v10

[General]
AudioFilename: Shinryaku!! Ika Musume (OAD) Opening Let'sShinryaku Time!.mp3
AudioLeadIn: 2000
PreviewTime: 59353
Countdown: 0
SampleSet: Normal
StackLeniency: 0.7
Mode: 0
LetterboxInBreaks: 0

[Editor]
DistanceSpacing: 1
BeatDivisor: 4
GridSize: 4

[Metadata]
Title:Let's*Shinryaku Time! (TV Size)
TitleUnicode:Let's*Shinryaku Time! (TV Size)
Artist:ULTRA-PRISM
ArtistUnicode:ULTRA-PRISM
Creator:Flask
Version:Easy
Source:Shinryaku!! Ika Musume
Tags:OVA OAD ikamusume Diomedea Kanemoto Hisako Regou opening squid girl invasion! [kirisame-marisa] yia
BeatmapID:177711
BeatmapSetID:59234

[Difficulty]
HPDrainRate:2
CircleSize:3
OverallDifficulty:2
ApproachRate:3
SliderMultiplier:0.8
SliderTickRate:1

[Events]
//Background and Video events
0,0,"ikamusume.jpg"
Video,100,"Shinryaku!! Ika Musume (OAD) Lets Shinryaku Time!.avi"
//Break Periods
//Storyboard Layer 0 (Background)
//Storyboard Layer 1 (Fail)
//Storyboard Layer 2 (Pass)
//Storyboard Layer 3 (Foreground)
//Storyboard Sound Samples
//Background Colour Transformations
3,100,163,162,255

[TimingPoints]
753,400,4,1,1,50,1,0
1053,-100,4,1,2,50,0,0
1253,-100,4,1,1,50,0,0
2653,-100,4,1,2,50,0,0
2853,-100,4,1,1,50,0,0
4253,-100,4,1,2,50,0,0
4453,-100,4,1,1,50,0,0
7453,-100,4,1,2,50,0,0
7653,-100,4,1,1,50,0,0
8753,-100,4,1,1,60,0,0
10653,-100,4,1,2,60,0,0
10853,-100,4,1,1,60,0,0
15453,-100,4,1,2,60,0,0
15653,-100,4,1,1,60,0,0
17053,-100,4,1,2,60,0,0
17253,-100,4,1,1,60,0,0
18353,-100,4,1,1,50,0,0
21853,-100,4,1,2,50,0,0
22053,-100,4,1,1,50,0,0
22653,-100,4,1,2,50,0,0
22853,-100,4,1,1,50,0,0
23453,-100,4,1,2,50,0,0
23653,-100,4,1,1,50,0,0
34653,-100,4,1,2,50,0,0
34853,-100,4,1,1,50,0,0
37853,-100,4,1,2,50,0,0
38053,-100,4,1,1,50,0,0
41053,-100,4,1,2,50,0,0
41253,-100,4,1,1,50,0,0
43953,-100,4,1,1,70,0,0
46703,-100,4,1,2,70,0,0
46803,-100,4,1,1,70,0,0
48253,-100,4,1,2,70,0,0
48453,-100,4,1,1,70,0,0
49053,-100,4,1,2,70,0,0
49253,-100,4,1,1,70,0,0
50653,-100,4,1,2,70,0,0
50853,-100,4,1,1,70,0,0
53853,-100,4,1,2,70,0,0
54453,-100,4,1,1,70,0,0
57053,-100,4,1,2,70,0,0
57253,-100,4,1,1,70,0,0
58653,-100,4,1,2,70,0,0
58853,-100,4,1,1,70,0,0
59953,-100,4,1,1,80,0,1
61853,-100,4,1,2,80,0,1
62253,-100,4,1,1,80,0,1
66253,-100,4,1,1,80,0,0
66353,-100,4,1,1,80,0,1
68253,-100,4,1,2,80,0,1
68653,-100,4,1,1,80,0,1
69853,-100,4,1,2,80,0,1
70053,-100,4,1,1,80,0,1
71453,-100,4,1,2,80,0,1
71653,-100,4,1,1,80,0,1
73053,-100,4,1,2,80,0,1
73253,-100,4,1,1,80,0,1
74653,-100,4,1,2,80,0,1
74853,-100,4,1,1,80,0,1
76253,-100,4,1,2,80,0,1
76453,-100,4,1,1,80,0,1
79153,-100,4,1,1,60,0,0
84653,-100,4,1,1,15,0,0

[Colours]
Combo1 : 143,213,233
Combo2 : 0,128,192
Combo3 : 255,179,142
Combo4 : 101,140,243

[HitObjects]
108,84,753,2,0,B|48:196|88:332,1,240,4|8,0:0|0:0,0:0:0
164,336,2353,2,0,B|276:396|412:356,1,240,0|8,0:0|0:0,0:0:0
436,288,3953,2,0,B|496:176|456:40,1,240,0|8,0:0|0:0,0:0:0
380,72,5553,5,4,0:0:0
256,172,6353,1,4,0:0:0
148,288,7153,2,0,B|140:328|96:356|36:340|12:288|28:228|80:220,1,240,4|8,0:0|0:0,0:0:0
104,144,8753,5,4,0:0:0
164,92,9153,1,8,0:0:0
244,100,9553,2,0,B|292:96|340:108,1,80,0|8,0:0|0:0,0:0:0
348,180,10353,2,0,B|416:216|424:296|396:356|360:380|328:380,1,240,0|8,0:0|0:0,0:0:0
268,364,11953,6,0,B|228:364|184:364,2,80,0|8|0,0:0|0:0|0:0,0:0:0
272,284,13153,1,8,0:0:0
196,260,13553,2,0,B|216:208|260:204,1,80,0|8,0:0|0:0,0:0:0
276,128,14353,2,0,B|320:148|332:184,1,80,0|8,0:0|0:0,0:0:0
344,260,15153,6,0,B|376:320|420:336|488:316|512:276|500:212,2,240,0|8|2,0:0|0:0|0:0,0:0:0
240,136,18353,5,6,0:0:0
164,112,18753,2,0,B|108:100|56:120|40:180|52:208|52:208,1,160,8|8,0:0|0:0,0:0:0
64,272,19953,1,0,0:0:0
124,324,20353,2,0,B|180:336|232:316|248:256|236:228|236:228,1,160,8|8,0:0|0:0,0:0:0
284,180,21553,6,0,B|292:108|320:64|376:48|432:44|496:80,1,280,0|2,0:0|0:0,0:0:0
484,156,23353,2,0,B|492:220|460:276,1,120,2|2,0:0|0:0,0:0:0
392,308,24353,1,8,0:0:0
312,324,24753,6,0,B|264:336|216:316,1,80,4|8,0:0|0:0,0:0:0
140,192,25953,1,8,0:0:0
148,112,26353,2,0,B|188:96|220:100,2,60,2|2|2,0:0|0:0|0:0,0:0:0
40,164,27553,1,8,0:0:0
32,244,27953,6,0,B|20:304|28:336,1,80,0|8,0:0|0:0,0:0:0
184,340,29153,1,8,0:0:0
264,332,29553,2,0,B|312:328|340:320,2,60,2|2|2,0:0|0:0|0:0,0:0:0
220,220,30753,1,10,0:0:0
236,140,31153,6,0,B|240:96|292:76,1,80,4|8,0:0|0:0,0:0:0
352,40,31953,2,0,B|440:40,1,80,0|8,0:0|0:0,0:0:0
464,112,32753,1,0,0:0:0
472,192,33153,1,8,0:0:0
456,272,33553,2,0,B|456:320|424:352,1,80,0|8,0:0|0:0,0:0:0
352,324,34353,6,0,B|284:340|244:288|244:288|204:340|136:324,1,240,2|8,0:0|0:0,0:0:0
72,280,35953,2,0,B|32:272|8:224,1,80,0|8,0:0|0:0,0:0:0
88,204,36753,2,0,B|116:172|176:164,1,80,2|8,0:0|0:0,0:0:0
236,184,37553,6,0,B|276:144|360:136|400:144,1,160,4|0,0:0|0:0,0:0:0
460,176,38753,1,8,0:0:0
480,252,39153,2,0,B|496:292|496:320,2,60,2|2|2,0:0|0:0|0:0,0:0:0
368,296,40353,1,8,0:0:0
288,312,40753,6,0,B|208:336|124:300,1,160
68,252,41953,1,8,0:0:0
40,176,42353,2,0,B|24:136|24:112,2,60,2|2|2,0:0|0:0|0:0,0:0:0
160,168,43553,1,8,0:0:0
240,184,43953,6,0,B|280:216|332:208,1,80,4|8,0:0|0:0,0:0:0
304,128,44753,1,0,0:0:0
380,156,45153,1,8,0:0:0
448,200,45553,6,0,B|472:248|464:288,1,80,0|8,0:0|0:0,0:0:0
388,260,46353,2,0,B|324:276|264:260|232:216,1,160
300,172,47553,6,0,B|312:96|256:44|172:56|132:124,2,240,8|0|8,0:0|0:0|0:0,0:0:0
296,252,50353,6,0,B|292:312|264:360|184:364,1,160
132,320,51553,1,8,0:0:0
68,272,51953,2,0,B|36:236|32:200,1,80,0|8,0:0|0:0,0:0:0
32,124,52753,1,0,0:0:0
64,52,53153,1,8,0:0:0
144,52,53553,6,8,B|208:40|288:56|320:120|328:184,1,240
348,244,55153,1,8,0:0:0
364,324,55553,2,0,B|320:332|276:296,2,80,8|8|8,0:0|0:0|0:0,0:0:0
400,252,56753,6,0,B|480:272|516:200|500:96|392:128|392:128,1,240,4|8,0:0|0:0,0:0:0
348,188,58353,2,0,B|292:180|244:192|220:216,1,120,2|2,0:0|0:0,0:0:0
36,172,59953,6,0,B|32:112|68:88,1,80,4|8,0:0|0:0,0:0:0
128,64,60753,1,0,0:0:0
208,64,61153,1,8,0:0:0
284,92,61553,2,0,B|324:124|328:152,2,60,0|0|8,0:0|0:0|0:0,0:0:0
200,176,62753,1,8,0:0:0
212,256,63153,6,0,B|200:304|200:348,2,80,0|8|0,0:0|0:0|0:0,0:0:0
292,244,64353,1,8,0:0:0
368,216,64753,1,2,0:0:0
444,192,65153,2,0,B|472:148|468:76|408:36,1,160,10|8,0:0|0:0,0:0:0
344,36,66353,6,0,B|296:24|256:56,1,80,4|8,0:0|0:0,0:0:0
248,124,67153,2,0,B|236:168|180:172,1,80,0|8,0:0|0:0,0:0:0
144,236,67953,2,0,B|136:272|140:304,2,60,0|0|8,0:0|0:0|0:0,0:0:0
256,272,69153,1,8,0:0:0
328,308,69553,6,0,B|368:348|448:336|464:264,1,160,0|2,0:0|0:0,0:0:0
384,248,70753,1,8,0:0:0
440,188,71153,2,0,B|400:148|320:160|304:232,1,160,0|2,0:0|0:0,0:0:0
232,192,72353,1,8,0:0:0
188,124,72753,6,0,B|140:132|92:164|72:236,1,160,4|0,0:0|0:0,0:0:0
180,348,74353,2,0,B|228:340|276:308|296:236,1,160,4|0,0:0|0:0,0:0:0
312,88,75953,6,0,B|320:136|352:184|424:204,1,160,4|0,0:0|0:0,0:0:0
496,340,77553,2,0,B|456:364|408:344,2,80,0|8|0,0:0|0:0|0:0,0:0:0
460,184,79153,5,6,0:0:0
392,140,79553,1,10,0:0:0
312,128,79953,2,0,B|264:128|232:140,2,80,0|0|2,0:0|0:0|0:0,0:0:0
320,208,81153,5,10,0:0:0
260,260,81553,2,0,B|224:292|184:288,2,80,0|8|2,0:0|0:0|0:0,0:0:0
200,208,82753,5,10,0:0:0
188,128,83153,2,0,B|148:136|124:176,2,80,0|8|2,0:0|0:0|0:0,0:0:0
268,128,84353,6,0,B|296:116|332:128,1,60,8|0,0:0|0:0,0:0:0
