osu file format v14

[General]
AudioFilename: UKF Bass Culture 2 (DubstepElectro House CD1 Megamix).mp3
AudioLeadIn: 0
PreviewTime: 219451
Countdown: 0
SampleSet: None
StackLeniency: 0.7
Mode: 0
LetterboxInBreaks: 1
WidescreenStoryboard: 0

[Editor]
DistanceSpacing: 0.8
BeatDivisor: 4
GridSize: 8
TimelineZoom: 2.000006

[Metadata]
Title:Dubstep CD1
TitleUnicode:Dubstep CD1
Artist:UKF
ArtistUnicode:UKF
Creator:bosmen5
Version:Insane
Source:
Tags:
BeatmapID:908580
BeatmapSetID:419891

[Difficulty]
HPDrainRate:6
CircleSize:4
OverallDifficulty:7
ApproachRate:9
SliderMultiplier:2.49999990463257
SliderTickRate:1

[Events]
//Background and Video events
0,0,"ukf_heart_by_ninety_seven97-d4mwg6b.jpg",0,0
//Break Periods
2,134728,139466
2,140266,141312
2,142112,143159
2,143959,145005
2,145805,146851
2,278085,284130
2,332042,338214
2,450141,453144
2,551972,560679
//Storyboard Layer 0 (Background)
//Storyboard Layer 1 (Fail)
//Storyboard Layer 2 (Pass)
//Storyboard Layer 3 (Foreground)
//Storyboard Sound Samples

[TimingPoints]
22.7609921451501,555.555555555556,4,3,0,100,1,0
6620,545.454545454546,4,3,0,100,1,0
17529,545.454545454546,4,3,0,100,1,0
17835,-100,4,3,0,100,0,0
34987,-100,4,3,0,100,0,0
52438,545.454545454546,4,3,0,100,1,0
69892,-50,4,3,0,100,0,0
72892,-100,4,3,0,100,0,0
74256,-50,4,3,0,100,0,0
77528,-100,4,3,0,100,0,0
106836,461.538461538462,4,3,0,100,1,0
112143,-200,4,3,0,100,0,0
114220,-100,4,3,0,100,0,0
119759,461.538461538462,4,3,0,100,1,0
132682,-200,4,3,0,100,0,0
147451,-100,4,3,0,100,0,0
208835,-200,4,3,0,100,0,0
223028,428.571428571429,4,3,0,100,1,0
223885,-133.333333333333,4,3,0,100,0,0
262242,-200,4,3,0,100,0,0
284730,422.535211267606,4,3,0,100,1,0
289812,-200,4,3,0,100,0,0
372618,-133.333333333333,4,3,0,100,0,0
396291,-200,4,3,0,100,0,0
399671,-133.333333333333,4,3,0,100,0,0
507840,-200,4,3,0,100,0,0
521361,-200,4,3,0,100,0,0
560234,-200,4,3,0,100,0,0
588967,-200,4,3,0,100,0,0

[HitObjects]
96,224,17529,5,8,0:0:0:0:
120,56,17835,2,0,P|184:88|216:120,1,62.4999976158143
208,120,18108,1,0,0:0:0:0:
256,96,18244,1,0,0:0:0:0:
304,112,18381,2,0,P|321:140|368:176,1,62.4999976158143
416,232,18654,2,0,L|338:276,1,62.4999976158143,8|0,0:0|0:0,0:0:0:0:
328,288,18926,2,0,L|233:247,1,62.4999976158143
216,248,19199,1,0,0:0:0:0:
296,192,19472,1,0,0:0:0:0:
368,120,19744,5,8,0:0:0:0:
342,160,19881,1,0,0:0:0:0:
296,176,20017,1,0,0:0:0:0:
272,128,20154,1,0,0:0:0:0:
232,104,20290,1,0,0:0:0:0:
192,128,20426,1,0,0:0:0:0:
128,208,20699,5,0,0:0:0:0:
144,256,20835,1,8,0:0:0:0:
240,280,21108,1,0,0:0:0:0:
264,240,21244,1,0,0:0:0:0:
312,232,21381,1,0,0:0:0:0:
352,208,21517,1,0,0:0:0:0:
352,160,21654,1,0,0:0:0:0:
232,160,21926,1,8,0:0:0:0:
136,176,22199,6,0,L|200:240,1,62.4999976158143
200,264,22472,1,0,0:0:0:0:
248,272,22608,1,0,0:0:0:0:
296,256,22744,2,0,L|376:192,1,62.4999976158143
320,176,23017,1,8,0:0:0:0:
280,152,23154,2,0,B|256:152|248:112|232:80,2,62.4999976158143
320,176,23563,1,0,0:0:0:0:
400,112,23835,5,0,0:0:0:0:
223,96,24108,1,8,0:0:0:0:
267,73,24244,1,0,0:0:0:0:
313,93,24381,1,0,0:0:0:0:
348,128,24517,1,0,0:0:0:0:
337,177,24654,1,0,0:0:0:0:
301,212,24790,1,0,0:0:0:0:
256,320,25063,5,0,0:0:0:0:
304,328,25199,1,8,0:0:0:0:
480,256,25472,5,0,0:0:0:0:
444,220,25608,1,0,0:0:0:0:
396,205,25744,1,0,0:0:0:0:
368,162,25881,1,0,0:0:0:0:
325,135,26017,1,0,0:0:0:0:
268,266,26290,1,8,0:0:0:0:
160,160,26563,5,0,0:0:0:0:
160,209,26699,1,0,0:0:0:0:
178,255,26835,1,0,0:0:0:0:
213,290,26972,1,0,0:0:0:0:
260,305,27108,1,0,0:0:0:0:
308,294,27244,1,0,0:0:0:0:
350,267,27381,5,8,0:0:0:0:
377,225,27517,1,0,0:0:0:0:
385,175,27654,1,0,0:0:0:0:
363,129,27790,1,0,0:0:0:0:
319,104,27926,1,0,0:0:0:0:
160,128,28199,5,0,0:0:0:0:
384,192,28472,5,8,0:0:0:0:
320,192,28608,1,0,0:0:0:0:
256,160,28744,2,0,L|216:96,1,62.4999976158143
168,88,29017,2,0,L|96:136,1,62.4999976158143
104,224,29426,1,0,0:0:0:0:
120,272,29563,1,8,0:0:0:0:
240,296,29835,5,0,0:0:0:0:
200,264,29972,1,0,0:0:0:0:
224,224,30108,1,0,0:0:0:0:
264,200,30244,1,0,0:0:0:0:
312,176,30380,1,0,0:0:0:0:
200,264,30654,1,8,0:0:0:0:
64,192,30926,6,0,L|147:168,1,62.4999976158143
176,104,31199,2,0,L|254:129,1,62.4999976158143
312,128,31472,2,0,L|382:203,1,62.4999976158143
392,240,31744,2,0,L|328:260,1,62.4999976158143,8|0,0:0|0:0,0:0:0:0:
296,320,32017,6,0,L|222:323,1,62.4999976158143
160,272,32290,1,0,0:0:0:0:
192,176,32563,1,0,0:0:0:0:
320,256,32835,1,8,0:0:0:0:
416,80,33381,5,8,0:0:0:0:
216,72,33926,5,8,0:0:0:0:
120,88,34199,1,8,0:0:0:0:
128,184,34471,1,8,0:0:0:0:
128,284,34744,2,0,B|168:332|176:300|244:277,1,124.999995231629
320,256,35290,1,0,0:0:0:0:
336,160,35563,6,0,P|368:160|384:104,1,62.4999976158143,8|0,0:0|0:0,0:0:0:0:
400,88,35835,2,0,P|376:80|328:96,1,62.4999976158143
240,104,36244,1,0,0:0:0:0:
192,96,36381,1,0,0:0:0:0:
144,120,36517,1,0,0:0:0:0:
128,168,36654,1,8,0:0:0:0:
184,248,36926,1,0,0:0:0:0:
288,248,37199,6,0,L|224:248,1,62.4999976158143
176,248,37472,2,0,L|144:184,1,62.4999976158143
176,152,37744,2,0,L|240:120,1,62.4999976158143,8|0,0:0|0:0,0:0:0:0:
328,96,38154,1,0,0:0:0:0:
328,96,38290,1,0,0:0:0:0:
304,192,38563,2,0,P|304:224|276:231,1,62.4999976158143
240,192,38835,1,8,0:0:0:0:
269,144,38972,2,0,P|301:176|302:208,1,62.4999976158143
256,280,39381,1,0,0:0:0:0:
160,272,39654,5,0,0:0:0:0:
96,160,39926,2,0,P|128:128|160:128,1,62.4999976158143,8|0,0:0|0:0,0:0:0:0:
248,136,40199,2,0,P|265:172|248:200,1,62.4999976158143
224,288,40608,5,0,0:0:0:0:
160,160,40744,1,0,0:0:0:0:
288,96,40881,1,0,0:0:0:0:
352,224,41017,1,8,0:0:0:0:
224,192,41290,1,0,0:0:0:0:
224,88,41563,6,0,P|192:120|192:152,1,62.4999976158143
216,176,41835,2,0,P|240:232|272:232,1,62.4999976158143
256,272,42108,2,0,P|320:304|344:277,1,62.4999976158143,8|0,0:0|0:0,0:0:0:0:
400,312,42517,1,0,0:0:0:0:
408,264,42654,1,0,0:0:0:0:
336,152,42926,5,0,0:0:0:0:
312,112,43063,1,0,0:0:0:0:
264,104,43199,1,8,0:0:0:0:
216,112,43335,1,0,0:0:0:0:
184,152,43471,1,0,0:0:0:0:
224,248,43744,1,0,0:0:0:0:
192,192,44017,1,0,0:0:0:0:
192,192,44290,5,8,0:0:0:0:
256,256,44426,1,0,0:0:0:0:
320,192,44563,1,0,0:0:0:0:
256,128,44699,1,0,0:0:0:0:
128,160,44972,2,0,B|128:96|192:96|192:128,1,62.4999976158143
200,88,45244,2,0,P|264:120|264:152,1,62.4999976158143,0|8,0:0|0:0,0:0:0:0:
320,184,45654,1,0,0:0:0:0:
384,264,45926,1,0,0:0:0:0:
336,280,46063,1,0,0:0:0:0:
288,280,46199,6,0,L|232:216,1,62.4999976158143
224,192,46472,1,8,0:0:0:0:
184,160,46608,1,0,0:0:0:0:
88,144,46881,1,0,0:0:0:0:
80,192,47017,1,0,0:0:0:0:
184,200,47290,2,0,P|184:136|168:112,1,62.4999976158143
168,88,47563,2,0,B|136:88|216:96|216:96|224:96|240:112,1,62.4999976158143,8|0,0:0|0:0,0:0:0:0:
256,120,47835,1,0,0:0:0:0:
256,224,48108,5,0,0:0:0:0:
288,320,48381,1,0,0:0:0:0:
160,192,48654,6,0,B|224:192|224:192|192:192,1,62.4999976158143,8|0,0:0|0:0,0:0:0:0:
352,192,48926,2,0,L|288:192,1,62.4999976158143,0|0,0:0|0:0,0:0:0:0:
224,160,49335,1,0,0:0:0:0:
224,160,49472,1,0,0:0:0:0:
288,224,49608,1,0,0:0:0:0:
288,224,49744,1,8,0:0:0:0:
160,96,50017,2,0,P|224:64|256:128,1,124.999995231629
160,224,50563,5,0,0:0:0:0:
288,320,50835,2,0,L|352:352,1,62.4999976158143,8|0,0:0|0:0,0:0:0:0:
448,224,51244,1,0,0:0:0:0:
320,160,51517,2,0,B|320:128|224:128|256:96,2,62.4999976158143
320,160,51926,1,8,0:0:0:0:
288,192,52438,6,0,B|192:160|144:213|160:224|160:256|160:288|256:320,1,249.999990463257
276,308,53119,1,8,0:0:0:0:
326,308,53256,2,8,L|304:190,1,62.4999976158143
232,128,53801,5,0,0:0:0:0:
152,184,54074,1,8,0:0:0:0:
168,232,54210,2,8,L|232:264,1,62.4999976158143
272,264,54483,2,0,L|336:200,1,62.4999976158143,8|0,0:0|0:0,0:0:0:0:
344,176,54756,6,0,L|248:144,1,62.4999976158143
240,136,55028,1,0,0:0:0:0:
224,184,55165,1,8,0:0:0:0:
232,232,55301,2,8,L|168:264,1,62.4999976158143
144,224,55574,1,8,0:0:0:0:
144,176,55710,2,0,B|208:208|208:240|240:272|287:251,1,124.999995231629
336,232,56256,2,8,B|367:186|336:168|304:136|240:104,1,124.999995231629
216,72,56801,6,0,B|184:104|88:136|88:168|88:168|88:168|71:202|103:228|155:230,1,249.999990463257
184,240,57483,1,8,0:0:0:0:
232,224,57619,2,8,P|200:192|147:181,1,62.4999976158143
40,224,58165,6,8,P|22:261|80:308,1,124.999995231629
128,312,58574,1,8,0:0:0:0:
176,304,58710,1,8,0:0:0:0:
224,296,58847,1,8,0:0:0:0:
272,272,58983,1,0,0:0:0:0:
312,240,59120,1,0,0:0:0:0:
336,192,59256,1,0,0:0:0:0:
336,144,59392,5,0,0:0:0:0:
312,104,59529,1,8,0:0:0:0:
272,72,59665,1,8,0:0:0:0:
224,64,59801,1,8,0:0:0:0:
176,72,59938,1,8,0:0:0:0:
144,104,60074,1,0,0:0:0:0:
208,184,60347,5,8,0:0:0:0:
256,168,60483,1,8,0:0:0:0:
312,256,60756,1,0,0:0:0:0:
272,288,60892,1,0,0:0:0:0:
160,288,61165,2,8,B|256:288|256:288|224:224|224:224|320:224,1,249.999990463257
339,224,61847,2,8,P|288:192|288:160,2,62.4999976158143
320,72,62529,5,0,0:0:0:0:
224,64,62801,2,8,L|128:128,1,62.4999976158143
144,144,63074,1,8,0:0:0:0:
168,192,63210,1,8,0:0:0:0:
200,232,63347,2,0,L|304:256,1,62.4999976158143
400,240,63620,6,0,P|399:228|335:228,1,62.4999976158143
320,192,63892,1,8,0:0:0:0:
280,224,64029,1,8,0:0:0:0:
256,264,64165,2,8,L|160:232,1,62.4999976158143
160,216,64438,1,0,0:0:0:0:
192,120,64710,1,0,0:0:0:0:
288,152,64983,1,8,0:0:0:0:
272,248,65256,1,8,0:0:0:0:
360,296,65529,1,0,0:0:0:0:
384,64,66074,6,8,L|320:96,1,62.4999976158143
328,91,66347,2,8,L|384:64,1,62.4999976158143
104,216,66892,5,0,0:0:0:0:
144,304,67165,1,0,0:0:0:0:
312,336,67438,1,0,0:0:0:0:
448,200,67710,1,8,0:0:0:0:
256,40,68256,5,0,0:0:0:0:
96,192,68801,5,8,0:0:0:0:
400,280,69347,5,0,0:0:0:0:
160,64,69892,5,8,0:0:0:0:
296,208,70165,1,0,0:0:0:0:
120,312,70438,1,8,0:0:0:0:
280,64,70983,5,8,0:0:0:0:
384,256,71256,1,0,0:0:0:0:
200,184,71529,1,8,0:0:0:0:
264,312,72074,5,8,0:0:0:0:
424,192,72347,1,0,0:0:0:0:
272,56,72620,1,8,0:0:0:0:
299,128,72892,6,0,L|352:128,3,41.6666650772095
220,193,73256,2,0,L|160:192,3,41.6666650772095
303,256,73620,2,0,L|352:256,4,41.6666650772095
432,104,74256,1,8,0:0:0:0:
216,80,74801,5,0,0:0:0:0:
392,240,75347,1,8,0:0:0:0:
256,200,75620,1,0,0:0:0:0:
432,104,75892,1,8,0:0:0:0:
216,88,76438,5,8,0:0:0:0:
304,304,76710,1,0,0:0:0:0:
152,168,76983,1,8,0:0:0:0:
312,48,77256,1,0,0:0:0:0:
128,96,77529,6,8,P|170:91|192:128,1,62.4999976158143
224,136,77801,2,8,L|160:232,1,62.4999976158143
224,224,78074,1,0,0:0:0:0:
144,288,78347,1,0,0:0:0:0:
128,64,78620,6,8,B|192:128|224:96|256:96|320:128|288:160|192:192,1,249.999990463257
96,288,79710,6,8,B|160:320|192:192|256:256|288:320|256:352|288:224|320:288|320:288|352:256,1,249.999990463257
160,32,80801,6,0,B|224:96|128:96|256:160,1,124.999995231629
320,192,81347,2,8,B|384:224|384:256|313:273,1,124.999995231629
192,288,81892,2,0,B|128:288|96:320|136:224,1,124.999995231629
192,96,82438,2,8,B|224:64|288:128|320:64|352:128,1,124.999995231629
314,97,82983,1,0,0:0:0:0:
216,232,83256,1,8,0:0:0:0:
320,104,83529,1,8,0:0:0:0:
128,288,84074,5,0,0:0:0:0:
288,336,84347,1,8,0:0:0:0:
424,184,84620,1,8,0:0:0:0:
256,96,85165,5,0,0:0:0:0:
256,192,85710,6,8,P|192:160|184:208,1,124.999995231629
192,320,86256,2,8,P|288:352|320:224,1,249.999990463257
192,224,87347,6,0,B|184:200|200:180|244:144|276:176,3,124.999995231629,0|0|0|0,0:0|0:0|0:0|0:0,0:0:0:0:
376,288,88438,2,8,P|416:256|376:168,1,124.999995231629
320,64,88983,1,0,0:0:0:0:
256,152,89256,2,8,B|346:111|437:228|281:285,1,249.999990463257
368,192,90074,1,0,0:0:0:0:
297,278,90347,2,8,B|185:276|138:206|182:143|242:109,1,249.999990463257
223,127,91165,5,0,0:0:0:0:
311,299,91438,2,8,B|380:236|334:234|352:160|224:128,1,249.999990463257
160,64,92256,1,0,0:0:0:0:
288,64,92529,2,0,B|352:64|384:128|352:184,1,124.999995231629
288,288,93074,2,8,B|304:234|280:240|264:160,2,124.999995231629
192,320,93892,2,0,B|128:256|61:163|180:121,1,249.999990463257
264,144,94710,1,0,0:0:0:0:
343,169,94983,6,8,B|372:192|400:172|452:204|456:232,2,124.999995231629
176,88,95801,1,0,0:0:0:0:
248,272,96074,1,0,0:0:0:0:
263,186,96347,2,8,B|320:160|352:170|393:189|396:215,2,124.999995231629
192,224,97165,2,0,B|128:224|128:224|195:296,1,124.999995231629
240,328,97710,5,8,0:0:0:0:
384,288,97983,1,8,0:0:0:0:
304,216,98256,1,0,0:0:0:0:
184,176,98529,2,0,P|140:104|184:56,1,124.999995231629,0|8,0:0|0:0,0:0:0:0:
285,41,99074,2,0,P|328:96|296:160,1,124.999995231629,8|0,0:0|0:0,0:0:0:0:
320,256,99619,2,8,B|448:256|391:208,2,124.999995231629,0|8|8,0:0|0:0|0:0,0:0:0:0:
132,104,100983,6,0,B|146:42|227:106|230:104|256:128|256:64,1,124.999995231629
444,208,102074,6,8,B|512:160|436:96,1,124.999995231629
377,43,102620,1,0,0:0:0:0:
288,96,102892,2,0,B|252:152|320:224,1,124.999995231629,0|8,0:0|0:0,0:0:0:0:
384,320,103438,1,8,0:0:0:0:
288,288,103710,1,0,0:0:0:0:
192,288,103983,2,8,B|136:326|89:329|116:234,1,124.999995231629,0|8,0:0|0:0,0:0:0:0:
96,192,104528,2,8,B|60:136|128:120,1,62.4999976158143,8|0,0:0|0:0,0:0:0:0:
128,96,104801,1,0,0:0:0:0:
256,192,105074,12,0,106836,0:0:0:0:
352,224,107297,5,0,0:0:0:0:
448,160,107528,1,0,0:0:0:0:
352,64,107759,6,0,P|256:64|288:160,1,124.999995231629
256,192,108220,1,8,0:0:0:0:
160,96,108682,1,8,0:0:0:0:
352,288,109143,5,8,0:0:0:0:
160,288,109605,1,8,0:0:0:0:
352,96,110066,5,8,0:0:0:0:
256,192,110528,1,8,0:0:0:0:
352,320,110989,1,0,0:0:0:0:
256,224,111220,2,0,B|320:160|248:112,2,124.999995231629,0|0|8,0:0|0:0|0:0,0:0:0:0:
64,256,111912,5,8,0:0:0:0:
256,192,112143,12,0,113759,0:0:0:0:
228,180,114221,6,0,B|242:118|323:182|326:180|416:256|427:141,1,249.999990463257,0|0,0:0|0:0,0:0:0:0:
416,48,114912,1,0,0:0:0:0:
304,80,115143,1,0,0:0:0:0:
256,288,115605,6,0,B|204:310|64:256|256:160,1,249.999990463257
320,96,116528,1,0,0:0:0:0:
167,115,116759,1,0,0:0:0:0:
106,243,116990,1,0,0:0:0:0:
384,320,117451,6,0,B|416:288|448:192,1,124.999995231629
448,104,117912,1,0,0:0:0:0:
112,104,119759,5,0,0:0:0:0:
120,200,119989,1,0,0:0:0:0:
152,296,120220,1,0,0:0:0:0:
248,304,120451,1,0,0:0:0:0:
320,232,120682,1,0,0:0:0:0:
328,136,120912,1,0,0:0:0:0:
168,56,121143,5,0,0:0:0:0:
136,96,121259,1,0,0:0:0:0:
144,144,121374,1,0,0:0:0:0:
208,216,121605,2,0,B|264:240|264:240|288:192|304:248,1,124.999995231629
384,304,122066,1,0,0:0:0:0:
440,224,122297,2,0,B|400:176|424:176|408:160|440:144|408:128|424:112|400:104,1,124.999995231629
320,56,122759,1,0,0:0:0:0:
232,96,122989,1,0,0:0:0:0:
192,72,123105,6,0,L|120:40,2,62.4999976158143
232,96,123451,1,0,0:0:0:0:
336,208,123682,2,0,B|328:272|288:272|272:288|240:264,1,124.999995231629
176,200,124143,1,0,0:0:0:0:
104,128,124374,1,0,0:0:0:0:
80,224,124605,2,0,B|64:288|80:288|112:304|136:304|128:320|144:320,1,124.999995231629
184,312,124951,1,0,0:0:0:0:
224,288,125067,1,0,0:0:0:0:
312,240,125297,5,0,0:0:0:0:
376,160,125528,2,0,B|336:112|352:104|328:88|280:88,1,124.999995231629
184,72,125989,1,0,0:0:0:0:
176,168,126220,1,0,0:0:0:0:
208,264,126451,1,0,0:0:0:0:
312,240,126682,1,0,0:0:0:0:
360,256,126797,1,0,0:0:0:0:
400,224,126913,1,0,0:0:0:0:
376,176,127028,1,0,0:0:0:0:
352,136,127143,6,0,B|304:80|280:80|264:104|256:96|248:80|248:72,1,124.999995231629
152,56,127605,1,0,0:0:0:0:
136,152,127835,2,0,B|104:216|128:232|136:232|104:248|128:272|152:272,1,124.999995231629
232,304,128297,1,0,0:0:0:0:
328,272,128528,2,0,L|392:232,2,62.4999976158143
312,72,128989,5,0,0:0:0:0:
232,128,129220,1,0,0:0:0:0:
144,88,129451,1,0,0:0:0:0:
96,176,129682,1,0,0:0:0:0:
176,232,129912,1,0,0:0:0:0:
280,224,130143,1,0,0:0:0:0:
384,224,130374,6,0,L|432:264,2,62.4999976158143
256,160,130720,1,0,0:0:0:0:
248,48,130835,1,0,0:0:0:0:
344,80,131066,2,0,B|408:104|400:112|416:136|432:160|424:168,1,124.999995231629
392,256,131528,1,0,0:0:0:0:
296,272,131759,1,0,0:0:0:0:
200,256,131989,1,0,0:0:0:0:
200,152,132220,2,0,B|248:144|264:128|280:136,2,62.4999976158143
64,192,132682,2,0,P|256:56|446:194,1,499.999980926514
256,192,140066,5,0,0:0:0:0:
88,64,141912,5,0,0:0:0:0:
416,128,143759,5,0,0:0:0:0:
408,336,145605,5,0,0:0:0:0:
256,192,147451,12,0,148835,0:0:0:0:
384,288,149297,5,0,0:0:0:0:
256,96,149989,5,0,0:0:0:0:
168,48,150220,1,0,0:0:0:0:
128,160,150451,1,8,0:0:0:0:
128,160,150566,1,8,0:0:0:0:
128,160,150682,1,8,0:0:0:0:
256,96,150912,1,0,0:0:0:0:
160,96,151143,6,0,B|128:128|128:128|160:128|160:128|128:160|128:160|160:160|160:160|128:192|128:192|160:192|160:192|128:224|128:224|160:224|160:224|160:224|160:224|160:224,1,249.999990463257
96,288,151835,1,0,0:0:0:0:
200,288,152066,1,0,0:0:0:0:
360,176,152297,1,8,0:0:0:0:
376,224,152412,1,8,0:0:0:0:
360,272,152528,1,8,0:0:0:0:
264,240,152759,1,0,0:0:0:0:
120,288,152989,1,0,0:0:0:0:
352,104,153681,5,0,0:0:0:0:
256,80,153912,1,0,0:0:0:0:
304,168,154143,1,8,0:0:0:0:
304,168,154258,1,8,0:0:0:0:
304,168,154374,1,8,0:0:0:0:
392,128,154604,1,0,0:0:0:0:
320,96,154835,6,0,P|288:64|224:112,1,124.999995231629
240,200,155297,2,0,B|260:253|179:206|172:290,1,124.999995231629
102,346,155759,2,0,B|43:347|67:256|121:279,1,124.999995231629
216,304,156220,2,8,P|248:336|312:304,2,124.999995231629
256,192,156912,12,0,158528,0:0:0:0:
256,128,158759,5,8,0:0:0:0:
256,64,158989,1,8,0:0:0:0:
160,128,159451,1,0,0:0:0:0:
288,224,159912,1,0,0:0:0:0:
224,288,160374,5,8,0:0:0:0:
320,280,160605,1,8,0:0:0:0:
376,200,160835,1,8,0:0:0:0:
216,80,161297,1,0,0:0:0:0:
104,240,161759,1,0,0:0:0:0:
280,336,162220,6,8,P|349:370|408:304,1,124.999995231629
448,272,162682,2,8,B|471:222|513:217|434:148,1,124.999995231629
384,88,163143,2,8,B|367:136|338:113|274:126,1,124.999995231629
184,112,163605,2,8,B|184:48|122:79|85:129|97:174,1,124.999995231629
80,224,164066,5,0,0:0:0:0:
320,160,164758,5,0,0:0:0:0:
264,248,164989,1,0,0:0:0:0:
225,133,165220,1,8,0:0:0:0:
237,178,165335,1,8,0:0:0:0:
278,160,165451,1,8,0:0:0:0:
320,72,165681,1,0,0:0:0:0:
416,128,165912,2,0,B|384:128|384:128|416:160|416:160|384:160|384:160|416:192|416:192|384:192|384:192|416:224|416:224|384:224|384:224|416:256|416:256|416:256|416:256|416:256,1,249.999990463257
320,280,166605,1,0,0:0:0:0:
120,192,166835,5,0,0:0:0:0:
184,112,167066,2,8,P|216:80|248:112,2,62.4999976158143
120,192,167528,1,0,0:0:0:0:
192,264,167758,1,0,0:0:0:0:
384,160,168451,6,8,B|384:224|352:224|352:256|320:256,1,124.999995231629
64,256,168912,1,8,0:0:0:0:
128,256,169028,2,8,L|192:256,1,62.4999976158143
280,216,169373,1,8,0:0:0:0:
336,136,169604,6,0,B|304:104|268:101|208:136,1,124.999995231629
221,128,170066,2,0,P|221:192|157:160,1,124.999995231629
173,192,170528,2,8,B|109:160|133:109|237:96|237:96,1,124.999995231629
191,107,170989,2,8,B|223:75|319:171|287:107,2,124.999995231629
416,304,172143,5,0,0:0:0:0:
328,264,172374,1,0,0:0:0:0:
144,232,172605,1,8,0:0:0:0:
160,184,172720,1,8,0:0:0:0:
192,144,172836,1,8,0:0:0:0:
280,96,173066,1,8,0:0:0:0:
192,144,173297,6,0,B|160:176|160:176|192:176|192:176|160:208|160:208|192:208|192:208|160:240|160:240|192:240|192:240|192:304,1,249.999990463257
280,304,173989,1,0,0:0:0:0:
344,232,174220,1,0,0:0:0:0:
344,232,174451,2,8,P|376:264|408:232,2,62.4999976158143
336,128,174913,1,8,0:0:0:0:
240,144,175143,1,0,0:0:0:0:
136,64,175835,6,0,B|72:64|168:128|72:160|136:224,1,124.999995231629
142,268,176297,2,8,P|190:260|224:224,2,62.4999976158143
232,232,176759,1,8,0:0:0:0:
320,184,176989,6,8,B|320:248|256:152|256:152|256:216,1,124.999995231629
208,256,177451,2,0,B|272:192|176:224|208:128|176:128|176:192,1,124.999995231629
224,64,177913,2,8,B|224:128|288:64|320:96|327:127|327:127|323:127|323:127|324:126|324:126|320:128|320:128,1,124.999995231629
320,224,178374,2,8,B|384:256|384:256|448:256|480:160|352:160,1,249.999990463257
320,224,179297,5,0,0:0:0:0:
192,256,179528,1,0,0:0:0:0:
128,256,179989,1,0,0:0:0:0:
128,128,180220,6,8,L|192:128,1,62.4999976158143
288,128,180451,2,8,L|320:192,1,62.4999976158143
256,256,180682,1,8,0:0:0:0:
384,256,181143,6,0,B|416:192|384:192|384:160|352:144,1,124.999995231629
272,56,181835,5,0,0:0:0:0:
192,120,182066,1,8,0:0:0:0:
176,168,182182,1,8,0:0:0:0:
184,216,182297,1,8,0:0:0:0:
216,256,182412,1,8,0:0:0:0:
256,280,182528,1,8,0:0:0:0:
408,144,182989,5,0,0:0:0:0:
320,96,183220,1,0,0:0:0:0:
160,64,183682,2,0,B|96:96|100:119|64:128|81:189|92:195,1,124.999995231629
104,232,184028,2,8,L|136:296,1,62.4999976158143
192,352,184259,2,8,L|256:320,1,62.4999976158143
352,224,184835,2,0,P|320:160|288:192,2,124.999995231629
160,288,185759,1,0,0:0:0:0:
256,192,186220,1,0,0:0:0:0:
352,128,186682,6,8,B|352:192|384:160|448:192|399:234,1,124.999995231629
344,328,187374,1,0,0:0:0:0:
256,192,187605,2,8,P|235:152|194:131,2,62.4999976158143
288,256,188066,1,0,0:0:0:0:
320,160,188528,1,8,0:0:0:0:
224,96,188759,1,8,0:0:0:0:
352,288,189220,5,0,0:0:0:0:
376,192,189451,5,8,0:0:0:0:
328,208,189566,1,8,0:0:0:0:
288,240,189682,1,8,0:0:0:0:
192,220,189912,2,0,B|160:160|131:137|139:100|156:78|187:107|220:124|230:138|257:102|285:93|326:133,1,249.999990463257
384,136,190605,1,0,0:0:0:0:
224,256,191066,1,8,0:0:0:0:
192,160,191297,5,0,0:0:0:0:
216,112,191412,1,0,0:0:0:0:
264,104,191528,1,0,0:0:0:0:
304,128,191643,1,0,0:0:0:0:
328,176,191759,2,8,B|352:270|224:174|224:174|160:206|205:248,1,249.999990463257
280,304,192451,1,0,0:0:0:0:
280,304,192682,2,0,B|376:208|303:258|348:309|408:307|443:293|492:251|408:176,1,249.999990463257
352,40,193605,1,8,0:0:0:0:
256,216,194066,5,8,0:0:0:0:
200,136,194297,1,8,0:0:0:0:
400,168,194758,1,0,0:0:0:0:
312,112,194989,1,8,0:0:0:0:
264,120,195105,1,8,0:0:0:0:
224,152,195220,2,8,P|224:184|256:216,1,62.4999976158143
280,240,195451,1,8,0:0:0:0:
256,96,195912,5,0,0:0:0:0:
128,160,196143,1,0,0:0:0:0:
96,288,196604,1,8,0:0:0:0:
233,275,196835,2,8,P|233:211|265:211,1,62.4999976158143
256,192,197066,1,8,0:0:0:0:
288,160,197182,2,8,P|288:96|256:96,1,62.4999976158143
192,64,197758,5,0,0:0:0:0:
288,160,197989,1,0,0:0:0:0:
224,192,198451,2,8,B|224:256|164:247|128:256|128:224|96:192,1,124.999995231629
120,184,198797,2,8,P|120:152|152:120,1,62.4999976158143
192,64,199028,1,8,0:0:0:0:
192,64,199143,1,8,0:0:0:0:
328,208,199604,6,0,B|357:276|378:301|334:328|291:267,2,124.999995231629
192,64,200528,1,8,0:0:0:0:
256,248,200989,1,8,0:0:0:0:
112,112,201451,6,0,B|112:176|144:144|80:208|176:208,1,124.999995231629
368,200,202143,1,8,0:0:0:0:
224,72,202374,1,8,0:0:0:0:
208,120,202489,2,8,L|240:184,1,62.4999976158143
320,120,202835,1,0,0:0:0:0:
296,216,203066,1,0,0:0:0:0:
200,184,203297,1,0,0:0:0:0:
248,96,203528,1,0,0:0:0:0:
352,224,203989,5,8,0:0:0:0:
288,64,204220,5,8,0:0:0:0:
232,56,204335,1,8,0:0:0:0:
176,64,204451,1,8,0:0:0:0:
128,184,204682,1,8,0:0:0:0:
352,256,205143,1,0,0:0:0:0:
384,160,205374,1,0,0:0:0:0:
225,170,205835,1,8,0:0:0:0:
161,74,206066,6,8,B|193:138|127:115|132:131,2,62.4999976158143
193,74,206412,1,8,0:0:0:0:
225,74,206528,1,8,0:0:0:0:
128,64,206874,2,0,P|160:64|194:128,1,62.4999976158143
224,192,207220,1,0,0:0:0:0:
96,224,207451,2,0,B|125:295|87:306|132:357|192:355|227:341|276:299|278:289,1,249.999990463257
320,288,208374,1,0,0:0:0:0:
288,224,208835,6,0,B|448:320|352:160|256:160|288:64|160:128|192:192,1,343.749986886978
192,224,210220,2,8,L|288:288,1,93.7499964237214
320,288,210682,2,0,B|384:256|352:192|416:192|448:192|448:128|384:96|224:160,1,374.999985694885
128,192,212297,5,8,0:0:0:0:
160,224,212412,1,8,0:0:0:0:
288,304,212643,1,8,0:0:0:0:
320,272,212759,1,8,0:0:0:0:
240,160,212989,1,0,0:0:0:0:
256,56,213220,1,0,0:0:0:0:
128,72,213451,1,0,0:0:0:0:
192,160,213912,6,0,B|224:224|160:256|128:224,1,124.999995231629
128,128,214605,1,0,0:0:0:0:
224,96,214835,2,8,L|288:32,1,62.4999976158143
384,144,215297,2,8,L|448:80,1,62.4999976158143
360,160,215759,1,8,0:0:0:0:
461,207,216220,6,0,B|365:207|429:303|397:303|333:335|269:207|269:207|206:262,1,343.749986886978
160,288,217605,2,0,B|160:224|116:222|122:176|160:192|160:192,1,93.7499964237214
192,160,218066,2,0,B|239:146|234:108|270:126|320:128|352:160|384:224|298:257,1,249.999990463257
256,192,219451,12,0,223028,0:0:0:0:
256,192,223456,5,0,0:0:0:0:
304,288,223885,1,0,0:0:0:0:
336,272,223992,1,0,0:0:0:0:
360,240,224099,1,0,0:0:0:0:
376,208,224206,1,0,0:0:0:0:
376,168,224313,1,0,0:0:0:0:
352,136,224420,1,0,0:0:0:0:
328,112,224528,1,0,0:0:0:0:
296,96,224635,1,0,0:0:0:0:
264,80,224742,6,0,B|168:48|232:80|168:144|264:112,1,140.625,8|0,0:0|0:0,0:0:0:0:
296,160,225170,2,0,B|296:192|392:160|360:224|296:256,1,140.625,8|0,0:0|0:0,0:0:0:0:
248,264,225599,2,0,B|216:200|152:232|152:168,1,140.625,8|0,0:0|0:0,0:0:0:0:
152,96,226028,2,0,P|248:96|248:128,1,140.625,8|0,0:0|0:0,0:0:0:0:
320,128,226456,2,0,L|288:224,1,93.7500000000001,8|0,0:0|0:0,0:0:0:0:
320,288,226885,2,0,L|224:352,1,93.7500000000001,8|0,0:0|0:0,0:0:0:0:
72,112,227313,5,0,0:0:0:0:
88,144,227420,1,0,0:0:0:0:
104,176,227528,1,0,0:0:0:0:
120,208,227635,1,0,0:0:0:0:
144,232,227742,1,0,0:0:0:0:
176,224,227849,1,0,0:0:0:0:
208,208,227956,1,8,0:0:0:0:
320,128,228170,2,0,B|384:96|384:160|416:256|320:256,1,187.5,0|8,0:0|0:0,0:0:0:0:
353,249,228813,1,8,0:0:0:0:
257,311,229028,2,0,P|129:279|129:215,1,187.5,0|8,0:0|0:0,0:0:0:0:
392,168,229885,5,0,0:0:0:0:
375,134,229992,1,0,0:0:0:0:
344,112,230099,1,0,0:0:0:0:
309,96,230206,1,0,0:0:0:0:
271,90,230313,1,0,0:0:0:0:
233,92,230420,1,0,0:0:0:0:
198,107,230528,1,0,0:0:0:0:
169,130,230635,1,0,0:0:0:0:
192,256,230956,5,8,0:0:0:0:
224,288,231063,1,0,0:0:0:0:
320,288,231278,1,0,0:0:0:0:
352,256,231385,1,8,0:0:0:0:
208,168,231599,5,0,0:0:0:0:
224,136,231706,1,0,0:0:0:0:
240,104,231813,1,0,0:0:0:0:
272,88,231920,1,0,0:0:0:0:
312,88,232028,1,0,0:0:0:0:
352,96,232135,1,0,0:0:0:0:
392,104,232242,1,0,0:0:0:0:
384,192,232456,5,8,0:0:0:0:
384,224,232563,1,8,0:0:0:0:
352,256,232670,1,8,0:0:0:0:
320,288,232778,1,8,0:0:0:0:
288,288,232885,1,8,0:0:0:0:
128,256,233313,6,0,B|96:192|160:192|96:160|160:160|192:128,1,140.625
288,96,233742,2,0,P|352:96|406:158,1,140.625
208,128,234170,2,0,P|163:114|88:176,1,140.625
312,160,234599,2,0,P|358:142|432:200,1,140.625
192,192,235028,2,0,P|144:176|72:229,1,140.625
128,272,235457,2,0,B|96:336|160:272|224:240|192:304,1,140.625
248,336,235885,2,0,P|336:288|320:224,1,140.625
320,192,236313,2,8,L|256:128,2,46.875
256,288,236742,5,0,0:0:0:0:
128,192,237170,1,0,0:0:0:0:
416,192,237599,5,8,0:0:0:0:
388,194,237706,1,8,0:0:0:0:
356,199,237813,1,0,0:0:0:0:
324,192,237920,1,0,0:0:0:0:
292,176,238028,1,8,0:0:0:0:
265,167,238135,1,8,0:0:0:0:
232,160,238242,1,0,0:0:0:0:
192,160,238349,1,0,0:0:0:0:
160,160,238456,6,0,B|64:128|64:160|64:224|96:224,1,140.625
160,270,238884,2,0,B|160:302|236:294|224:334|254:245,1,140.625
292,145,239313,2,0,B|260:113|228:177|164:177,1,140.625
134,261,239742,2,0,P|166:293|262:293,1,140.625
288,160,240170,2,0,P|224:160|231:125,1,93.7500000000001
288,64,240599,2,0,P|352:64|352:96,1,93.7500000000001
408,304,241028,5,0,0:0:0:0:
400,264,241135,1,0,0:0:0:0:
416,232,241242,1,0,0:0:0:0:
424,192,241349,1,0,0:0:0:0:
416,152,241456,1,0,0:0:0:0:
424,112,241563,1,0,0:0:0:0:
400,88,241670,1,8,0:0:0:0:
320,96,241885,6,0,B|377:150|256:96|192:64|314:166|177:146,1,187.5,0|8,0:0|0:0,0:0:0:0:
288,224,242527,1,8,0:0:0:0:
384,160,242742,2,0,P|347:116|283:146,2,93.7500000000001,0|0|8,0:0|0:0|0:0,0:0:0:0:
304,288,243599,5,0,0:0:0:0:
272,264,243706,1,0,0:0:0:0:
248,240,243813,1,0,0:0:0:0:
232,208,243920,1,0,0:0:0:0:
208,184,244028,1,0,0:0:0:0:
232,160,244135,1,0,0:0:0:0:
256,128,244242,1,0,0:0:0:0:
256,88,244349,1,0,0:0:0:0:
96,64,244670,2,8,L|128:128,1,46.875
96,256,244992,2,8,L|160:256,1,46.875
320,256,245313,1,8,0:0:0:0:
320,224,245420,5,8,0:0:0:0:
320,192,245528,1,0,0:0:0:0:
288,160,245635,1,0,0:0:0:0:
256,128,245742,1,0,0:0:0:0:
224,128,245849,1,0,0:0:0:0:
192,96,245956,1,8,0:0:0:0:
64,128,246170,6,0,L|128:192,1,46.875
112,224,246385,1,8,0:0:0:0:
128,288,246492,2,8,L|192:320,1,46.875
288,288,247027,6,0,B|320:256|320:256|352:256|352:160|352:160,1,140.625
256,128,247456,2,0,B|245:170|224:256|297:218,1,140.625
384,160,247884,2,0,B|416:128|349:97|288:64,1,140.625
160,64,248313,2,0,B|185:93|64:128|217:169|149:185,1,140.625
151,184,248742,2,0,B|168:170|168:170|128:128|136:103|181:68|158:65,1,140.625
352,96,249171,2,0,B|384:96|384:96|410:44|474:108|378:140|416:128,1,140.625
320,224,249599,6,0,B|285:210|384:192|320:160|230:212,1,140.625
128,160,250027,2,8,L|64:96,2,46.875
224,128,250456,2,0,B|224:192|352:256|224:288,1,187.5
128,288,251099,5,8,0:0:0:0:
202,222,251313,1,0,0:0:0:0:
96,160,251528,1,8,0:0:0:0:
192,128,251742,1,0,0:0:0:0:
300,129,251956,1,8,0:0:0:0:
320,224,252170,1,0,0:0:0:0:
288,320,252385,6,8,L|192:256,1,93.7500000000001,8|0,0:0|0:0,0:0:0:0:
96,224,252813,2,0,L|192:192,1,93.7500000000001,8|0,0:0|0:0,0:0:0:0:
288,160,253242,1,8,0:0:0:0:
416,128,253456,2,0,L|384:224,1,93.7500000000001,0|8,0:0|0:0,0:0:0:0:
320,192,253885,2,0,P|288:256|256:256,1,93.7500000000001,0|8,0:0|0:0,0:0:0:0:
224,128,254528,5,0,0:0:0:0:
133,179,254742,1,0,0:0:0:0:
128,288,254956,2,0,B|192:256|192:288|224:288,1,93.7500000000001
320,320,255385,2,0,P|320:256|352:256,1,93.7500000000001
384,192,255813,2,0,P|320:128|288:160,1,93.7500000000001
224,64,256135,2,8,L|288:64,3,46.875
243,147,256670,5,0,0:0:0:0:
113,159,256885,1,0,0:0:0:0:
192,256,257099,2,0,P|256:224|288:256,1,93.7500000000001
416,160,257956,2,0,P|416:128|352:96,1,93.7500000000001
288,96,258385,2,0,L|256:192,1,93.7500000000001
256,288,258813,2,8,P|192:256|192:224,1,93.7500000000001
224,160,259242,6,8,P|288:128|320:160,1,93.7500000000001
384,224,259670,6,0,B|342:260|320:224|320:288|277:284,1,93.7500000000001
160,224,260099,2,0,L|256:160,1,93.7500000000001
238,171,260528,2,8,L|160:224,1,93.7500000000001
320,128,261385,2,0,P|384:160|352:224,1,140.625
320,256,261813,2,0,P|224:224|224:192,1,140.625
160,192,262242,2,0,B|160:128|224:96|256:160|288:192|288:224|320:224|320:192|352:160|352:96,1,312.499988079071,0|8,0:0|0:0,0:0:0:0:
373,256,263742,5,8,0:0:0:0:
128,256,264170,1,8,0:0:0:0:
160,128,264385,6,0,P|200:159|192:192,1,62.4999976158143
200,166,264813,1,0,0:0:0:0:
200,166,265028,2,8,P|193:140|150:132,1,62.4999976158143
224,96,265456,1,8,0:0:0:0:
352,128,265670,5,8,0:0:0:0:
384,272,266313,5,0,0:0:0:0:
360,264,266420,1,0,0:0:0:0:
336,248,266528,1,0,0:0:0:0:
320,232,266635,1,0,0:0:0:0:
312,208,266742,1,0,0:0:0:0:
368,152,266956,1,0,0:0:0:0:
280,96,267170,1,8,0:0:0:0:
209,146,267385,2,8,L|177:178,1,31.2499988079071
160,192,267706,1,8,0:0:0:0:
96,128,268028,6,0,L|96:160,2,31.2499988079071
192,96,268456,1,8,0:0:0:0:
256,192,268670,1,8,0:0:0:0:
368,270,268885,1,8,0:0:0:0:
256,192,269099,1,8,0:0:0:0:
320,128,269635,6,0,B|364:150|320:160|320:160|320:160,3,31.2499988079071
320,256,270170,2,8,L|256:256,1,62.4999976158143
128,256,270599,1,8,0:0:0:0:
96,160,270813,1,8,0:0:0:0:
192,96,271242,6,0,L|256:160,1,62.4999976158143
160,224,271670,2,0,L|224:288,1,62.4999976158143
320,320,272099,2,0,L|400:289,1,62.4999976158143
320,96,272742,6,8,P|326:125|288:128,1,62.4999976158143
160,192,273170,2,0,P|192:192|207:228,1,62.4999976158143
288,320,273599,2,8,P|334:332|337:305,1,62.4999976158143
256,192,274456,12,8,277885,0:0:0:0:
64,128,284730,5,8,0:0:0:0:
184,288,285152,1,0,0:0:0:0:
232,96,285575,1,8,0:0:0:0:
312,280,285997,1,0,0:0:0:0:
408,104,286420,1,8,0:0:0:0:
480,288,286842,1,0,0:0:0:0:
280,280,287265,1,8,0:0:0:0:
272,80,287687,1,0,0:0:0:0:
224,160,288110,5,8,0:0:0:0:
224,160,288321,1,0,0:0:0:0:
160,256,288532,1,0,0:0:0:0:
160,256,288744,1,0,0:0:0:0:
376,269,288955,1,8,0:0:0:0:
376,269,289166,1,0,0:0:0:0:
291,136,289377,1,0,0:0:0:0:
291,136,289589,1,0,0:0:0:0:
160,128,289800,5,8,0:0:0:0:
160,160,289906,1,0,0:0:0:0:
160,192,290011,1,0,0:0:0:0:
181,205,290117,1,0,0:0:0:0:
198,222,290222,1,0,0:0:0:0:
215,239,290328,1,0,0:0:0:0:
239,259,290434,1,0,0:0:0:0:
267,274,290539,1,0,0:0:0:0:
288,256,290645,6,8,B|384:224|384:256|416:256|437:304|416:192|288:192,1,249.999990463257
192,224,291913,1,0,0:0:0:0:
201,147,292335,2,8,B|162:191|162:191|201:275,1,124.999995231629
256,256,292969,1,0,0:0:0:0:
320,256,293180,2,8,B|361:188|361:188|320:128,1,124.999995231629
256,64,293814,5,0,0:0:0:0:
136,146,294025,2,8,B|97:190|97:190|136:274,1,124.999995231629
256,352,294659,1,0,0:0:0:0:
394,260,294870,2,8,B|435:192|435:192|394:132,1,124.999995231629
352,81,295504,1,0,0:0:0:0:
192,64,295715,2,0,L|128:96,1,62.4999976158143
128,192,296349,6,0,P|96:256|128:288,1,124.999995231629
288,256,297194,2,0,L|224:288,2,62.4999976158143
150,238,297828,1,0,0:0:0:0:
288,192,298039,1,0,0:0:0:0:
448,128,298251,2,0,P|352:128|320:160,1,124.999995231629
256,128,299096,6,8,P|192:128|192:192,1,124.999995231629
288,256,299730,1,0,0:0:0:0:
416,160,299941,2,8,B|480:288|369:253|369:253,1,124.999995231629
256,256,300575,1,0,0:0:0:0:
128,192,300786,2,8,P|128:128|195:140,1,124.999995231629
224,256,301631,6,0,B|288:256|256:192|320:160,1,124.999995231629
352,96,302476,2,0,P|416:160|416:192,1,124.999995231629
256,320,303321,2,0,P|160:288|160:256,1,124.999995231629
256,128,304166,2,0,P|320:128|384:96,1,124.999995231629
480,128,305011,2,0,L|448:192,1,62.4999976158143
384,256,305434,2,0,P|352:224|320:224,1,62.4999976158143
224,288,305856,5,8,0:0:0:0:
224,192,306068,1,8,0:0:0:0:
224,192,306173,1,8,0:0:0:0:
224,192,306279,1,8,0:0:0:0:
352,160,306490,1,8,0:0:0:0:
416,224,306701,2,0,P|448:224|456:229,4,31.2499988079071
352,192,307335,5,8,0:0:0:0:
256,192,307546,1,8,0:0:0:0:
227,264,307758,1,8,0:0:0:0:
194,231,307863,1,8,0:0:0:0:
183,194,307969,1,8,0:0:0:0:
259,109,308180,1,8,0:0:0:0:
160,64,308391,6,0,L|160:96,1,31.2499988079071
160,160,308603,2,0,L|192:192,1,31.2499988079071
224,224,308814,1,0,0:0:0:0:
352,288,309025,1,8,0:0:0:0:
256,224,309237,5,8,0:0:0:0:
278,233,309342,1,8,0:0:0:0:
302,226,309448,1,8,0:0:0:0:
316,205,309553,1,8,0:0:0:0:
326,182,309659,1,8,0:0:0:0:
320,96,309870,2,0,P|288:64|267:82,1,62.4999976158143
192,160,310293,2,0,P|160:160|136:186,1,62.4999976158143
128,288,310715,1,0,0:0:0:0:
320,256,310927,6,8,L|352:256,3,31.2499988079071
351,256,311349,1,8,0:0:0:0:
320,192,311560,1,0,0:0:0:0:
224,192,311772,1,0,0:0:0:0:
160,64,311983,2,0,L|160:96,1,31.2499988079071
135,153,312194,2,0,L|103:185,1,31.2499988079071
96,224,312406,2,0,L|128:256,1,31.2499988079071
224,320,312828,5,8,0:0:0:0:
224,320,312934,1,8,0:0:0:0:
224,320,313039,1,8,0:0:0:0:
288,224,313251,1,8,0:0:0:0:
256,128,313462,1,0,0:0:0:0:
352,192,313673,2,0,L|384:224,2,31.2499988079071
298,129,314096,5,0,0:0:0:0:
226,173,314307,1,0,0:0:0:0:
192,96,314518,1,8,0:0:0:0:
192,96,314624,1,8,0:0:0:0:
192,96,314729,1,8,0:0:0:0:
128,128,314941,1,8,0:0:0:0:
160,256,315152,5,0,0:0:0:0:
96,128,315575,5,0,0:0:0:0:
96,128,315680,1,0,0:0:0:0:
96,128,315786,2,8,L|160:160,1,62.4999976158143
384,128,316420,5,0,0:0:0:0:
384,128,316525,1,0,0:0:0:0:
384,128,316631,6,8,L|320:160,1,62.4999976158143
256,320,317265,5,0,0:0:0:0:
256,320,317370,1,0,0:0:0:0:
256,320,317476,6,8,B|256:256|256:256|256:256,1,62.4999976158143
128,192,318532,5,0,0:0:0:0:
192,64,318955,2,8,L|224:128,1,62.4999976158143
256,224,319377,2,0,P|288:256|352:224,1,124.999995231629
320,96,320011,1,8,0:0:0:0:
192,96,320222,2,8,P|153:116|160:192,1,124.999995231629
224,288,321068,5,0,0:0:0:0:
416,192,321490,2,8,L|352:256,1,62.4999976158143
352,320,321913,2,8,B|288:288|352:256|288:256|256:224,1,124.999995231629
256,64,322546,1,0,0:0:0:0:
160,96,322758,2,0,B|128:96|128:160|96:192|128:224,1,124.999995231629
256,288,323391,5,8,0:0:0:0:
324,281,323497,1,8,0:0:0:0:
384,256,323603,1,8,0:0:0:0:
352,128,324025,1,0,0:0:0:0:
256,96,324448,2,0,L|192:96,1,62.4999976158143
58,131,324870,1,0,0:0:0:0:
115,255,325082,1,0,0:0:0:0:
159,151,325293,2,0,B|192:64|324:102|256:128|320:192,1,218.74999165535
320,256,326138,6,0,B|351:205|303:169|191:173|192:288,1,218.74999165535
160,288,326983,2,0,P|128:256|96:162,1,124.999995231629
160,128,327617,2,8,P|200:97|233:112,1,62.4999976158143
352,192,328251,2,8,L|416:160,1,62.4999976158143
384,160,328673,6,0,B|320:256|256:192|320:96|256:96|224:160,1,218.74999165535
229,203,329518,2,0,B|165:203|69:171|133:107|186:69,1,218.74999165535
217,70,330363,2,0,B|313:38|281:166|310:156|409:134|382:205,1,218.74999165535
384,224,331208,1,8,0:0:0:0:
320,304,331420,1,8,0:0:0:0:
144,320,331631,1,8,0:0:0:0:
64,64,331842,1,8,0:0:0:0:
256,64,338814,6,0,L|288:128,1,62.4999976158143
320,192,339237,2,8,L|256:224,1,62.4999976158143
226,307,339659,2,0,L|290:339,1,62.4999976158143
416,288,340082,2,8,L|352:256,1,62.4999976158143
256,224,340504,1,0,0:0:0:0:
160,160,340715,6,8,L|128:224,1,62.4999976158143,0|8,0:0|0:0,0:0:0:0:
160,320,341138,2,0,L|230:282,1,62.4999976158143,8|0,0:0|0:0,0:0:0:0:
96,160,341560,2,0,L|160:160,1,62.4999976158143,0|8,0:0|0:0,0:0:0:0:
160,64,341983,1,8,0:0:0:0:
256,96,342194,5,0,0:0:0:0:
280,101,342300,1,0,0:0:0:0:
297,119,342406,1,0,0:0:0:0:
312,138,342511,1,0,0:0:0:0:
321,161,342617,1,8,0:0:0:0:
327,185,342722,1,0,0:0:0:0:
330,209,342828,1,8,0:0:0:0:
330,234,342934,1,0,0:0:0:0:
318,256,343039,1,0,0:0:0:0:
298,271,343145,5,0,0:0:0:0:
273,276,343251,1,0,0:0:0:0:
251,264,343356,1,0,0:0:0:0:
237,242,343462,1,8,0:0:0:0:
230,217,343568,1,0,0:0:0:0:
229,192,343673,1,8,0:0:0:0:
231,167,343779,1,0,0:0:0:0:
224,128,343884,6,0,L|160:64,2,62.4999976158143
288,224,344730,1,8,0:0:0:0:
288,224,345152,1,8,0:0:0:0:
352,160,345575,2,0,L|224:224,1,124.999995231629
256,96,346420,5,8,0:0:0:0:
146,100,346631,1,8,0:0:0:0:
128,224,347053,2,0,P|160:256|224:224,1,124.999995231629
256,256,347899,5,8,0:0:0:0:
320,192,348110,1,0,0:0:0:0:
256,128,348321,1,8,0:0:0:0:
256,288,348744,5,8,0:0:0:0:
160,192,348955,1,0,0:0:0:0:
256,96,349166,1,8,0:0:0:0:
256,256,349589,5,8,0:0:0:0:
160,192,349800,1,0,0:0:0:0:
352,192,350011,1,8,0:0:0:0:
384,192,350434,5,8,0:0:0:0:
256,64,350645,1,0,0:0:0:0:
128,192,350856,1,8,0:0:0:0:
352,192,351279,2,8,B|320:224|352:256|320:256,1,62.4999976158143
256,288,351701,1,8,0:0:0:0:
128,224,351913,2,0,B|160:192|192:192|192:160|256:160,1,124.999995231629
256,96,353180,2,8,L|224:128,1,41.6666650772095
224,192,353462,2,8,L|288:224,1,41.6666650772095
288,288,354025,5,0,0:0:0:0:
192,288,354166,1,0,0:0:0:0:
121,239,354307,1,0,0:0:0:0:
160,160,354448,1,0,0:0:0:0:
320,128,354870,5,8,0:0:0:0:
391,174,355011,1,8,0:0:0:0:
384,256,355152,1,8,0:0:0:0:
343,324,355293,1,8,0:0:0:0:
128,256,355715,2,0,L|224:160,1,124.999995231629
288,96,356560,6,0,L|256:32,2,41.6666650772095
384,96,356983,1,0,0:0:0:0:
288,288,357406,2,8,L|247:253,2,41.6666650772095
256,160,357828,1,8,0:0:0:0:
96,192,358251,5,0,0:0:0:0:
128,256,358391,1,8,0:0:0:0:
175,307,358532,2,8,L|239:275,1,41.6666650772095
384,256,359096,2,0,B|320:224|288:224|256:192,1,124.999995231629
160,96,359941,2,0,L|100:140,1,62.4999976158143
64,288,360575,5,8,0:0:0:0:
192,224,360997,1,8,0:0:0:0:
256,96,361420,2,0,P|288:128|288:160,2,62.4999976158143
128,224,362476,2,0,P|160:256|224:224,1,124.999995231629
256,96,363321,5,8,0:0:0:0:
320,160,363533,1,8,0:0:0:0:
352,256,363955,2,0,P|320:320|256:320,1,124.999995231629
96,160,364800,1,8,0:0:0:0:
256,128,365222,1,8,0:0:0:0:
384,128,365434,1,8,0:0:0:0:
256,192,365856,5,8,0:0:0:0:
256,96,366701,2,0,L|224:128,1,31.2499988079071
256,160,366913,2,0,L|288:192,1,31.2499988079071
256,224,367124,2,0,L|224:256,1,31.2499988079071
256,320,367546,6,8,L|224:288,1,31.2499988079071
256,224,367757,2,8,L|288:192,1,31.2499988079071
256,96,367969,2,8,L|224:64,1,31.2499988079071
256,192,368391,2,0,B|234:180|205:157|256:128|296:167|301:190|270:188|241:199,1,124.999995231629
256,192,369237,1,0,0:0:0:0:
236,98,370082,6,8,L|204:130,1,31.2499988079071,8|0,0:0|0:0,0:0:0:0:
192,160,370293,2,0,L|224:192,1,31.2499988079071,8|0,0:0|0:0,0:0:0:0:
256,192,370504,2,0,L|288:160,1,31.2499988079071
320,160,370716,2,0,L|352:192,1,31.2499988079071
384,192,370927,2,0,L|352:224,1,31.2499988079071,8|0,0:0|0:0,0:0:0:0:
341,241,371138,2,0,L|309:273,1,31.2499988079071,8|0,0:0|0:0,0:0:0:0:
302,276,371349,2,0,L|256:256,1,31.2499988079071
256,256,371560,2,0,L|256:224,1,31.2499988079071
256,192,371772,5,8,0:0:0:0:
256,192,372194,1,8,0:0:0:0:
256,192,372617,2,0,B|245:152|224:115|176:111|184:187,1,124.999995231629
192,256,373303,5,0,0:0:0:0:
224,288,373462,1,0,0:0:0:0:
416,288,373726,1,8,0:0:0:0:
418,243,373884,1,8,0:0:0:0:
352,160,374149,1,0,0:0:0:0:
316,128,374307,1,0,0:0:0:0:
192,96,374589,6,8,P|141:124|126:138,1,62.5
192,224,374994,1,0,0:0:0:0:
229,255,375152,1,0,0:0:0:0:
192,64,375416,1,8,0:0:0:0:
192,64,375575,1,8,0:0:0:0:
352,96,375839,1,0,0:0:0:0:
352,96,375997,1,0,0:0:0:0:
384,192,376367,5,8,0:0:0:0:
359,226,376525,1,8,0:0:0:0:
320,192,376684,1,8,0:0:0:0:
293,231,376842,1,8,0:0:0:0:
256,64,377212,6,0,L|192:96,1,70.3125
164,105,377529,1,0,0:0:0:0:
280,54,377687,1,0,0:0:0:0:
160,192,378057,5,8,0:0:0:0:
96,192,378215,1,0,0:0:0:0:
128,160,378374,1,0,0:0:0:0:
128,224,378532,1,8,0:0:0:0:
192,128,378902,1,0,0:0:0:0:
224,192,379060,1,0,0:0:0:0:
288,224,379219,1,0,0:0:0:0:
352,192,379377,1,0,0:0:0:0:
160,256,379800,5,8,0:0:0:0:
288,288,380064,1,0,0:0:0:0:
277,240,380222,1,0,0:0:0:0:
132,161,380487,1,8,0:0:0:0:
159,137,380645,1,8,0:0:0:0:
288,96,380909,1,0,0:0:0:0:
310,139,381068,1,0,0:0:0:0:
160,256,381332,5,8,0:0:0:0:
199,280,381490,1,8,0:0:0:0:
416,288,381754,1,0,0:0:0:0:
430,247,381913,1,0,0:0:0:0:
367,138,382177,1,8,0:0:0:0:
326,137,382335,1,8,0:0:0:0:
224,64,382599,1,0,0:0:0:0:
196,89,382758,1,0,0:0:0:0:
192,312,383127,5,8,0:0:0:0:
152,280,383286,1,0,0:0:0:0:
152,280,383444,1,0,0:0:0:0:
176,224,383603,1,0,0:0:0:0:
240,112,383972,5,0,0:0:0:0:
296,112,384131,1,0,0:0:0:0:
296,112,384289,1,0,0:0:0:0:
424,240,384448,1,0,0:0:0:0:
320,256,384659,1,0,0:0:0:0:
256,192,384870,5,0,0:0:0:0:
128,128,385293,2,0,P|160:96|212:138,1,93.7500000000001
256,192,385715,1,0,0:0:0:0:
256,307,385927,1,0,0:0:0:0:
384,288,386138,1,0,0:0:0:0:
352,96,386560,5,0,0:0:0:0:
191,114,386983,1,8,0:0:0:0:
224,256,387194,1,8,0:0:0:0:
320,160,387406,1,8,0:0:0:0:
128,256,387828,1,0,0:0:0:0:
192,64,388251,1,0,0:0:0:0:
384,288,388673,1,0,0:0:0:0:
352,96,389096,5,8,0:0:0:0:
352,96,389307,1,8,0:0:0:0:
192,128,389941,2,0,L|205:193,3,62.5
255,272,390504,2,0,L|287:304,3,31.25
256,160,390786,2,0,L|288:160,5,31.25
156,195,391208,2,0,L|92:163,5,62.5
256,192,392053,1,0,0:0:0:0:
128,288,392687,5,8,0:0:0:0:
256,192,393321,1,0,0:0:0:0:
352,256,393743,5,8,0:0:0:0:
412,144,393955,1,8,0:0:0:0:
285,114,394166,1,8,0:0:0:0:
317,262,394589,1,0,0:0:0:0:
217,185,395011,1,0,0:0:0:0:
256,128,395434,1,0,0:0:0:0:
352,224,395856,1,0,0:0:0:0:
224,288,396068,1,0,0:0:0:0:
224,224,396279,6,0,B|288:192|288:160|352:128,1,140.625
352,96,396701,2,0,P|290:75|256:96,1,93.7499964237214
288,128,397124,2,0,B|288:160|256:192|224:192,1,93.7499964237214
224,160,397546,2,0,P|224:224|256:256,1,93.7499964237214
288,288,397969,2,0,P|160:288|128:160,1,249.999990463257
320,256,399237,5,0,0:0:0:0:
256,64,399659,2,0,P|290:97|288:128,1,62.4999976158143
288,160,400082,2,0,P|311:191|298:246,1,93.7500000000001
256,320,400504,1,0,0:0:0:0:
128,256,400927,6,8,P|160:256|192:224,2,62.5
160,128,401349,2,0,P|164:77|224:96,1,125
320,192,401772,2,8,P|352:192|384:256,2,62.5
256,320,402194,2,0,P|160:320|160:224,1,187.5
256,224,403039,5,0,0:0:0:0:
352,96,403251,2,0,B|314:43|303:105|232:57|232:57|197:107,1,187.5
64,192,403884,2,0,L|96:256,1,62.5
158,280,404166,2,0,L|200:341,1,62.5
256,320,404448,6,0,L|319:283,1,62.5
317,221,404730,2,0,L|387:159,1,62.5
359,130,405011,2,0,L|292:127,1,62.5
228,115,405293,2,0,L|163:153,1,62.5
204,209,405575,2,0,P|172:273|268:305,2,187.5
352,96,406842,1,0,0:0:0:0:
96,128,407265,5,0,0:0:0:0:
160,256,407687,1,8,0:0:0:0:
160,256,407828,1,8,0:0:0:0:
160,256,407969,1,8,0:0:0:0:
256,288,408109,2,0,P|270:248|215:195,1,125
192,96,408532,5,8,0:0:0:0:
192,96,408673,1,8,0:0:0:0:
192,96,408814,1,8,0:0:0:0:
256,192,408954,2,0,B|320:128|338:171|384:224|304:250,1,187.5
192,256,409800,2,0,B|224:320|288:320|288:288,2,125
96,224,410645,6,0,L|160:160,1,62.5
192,160,410927,2,0,L|256:192,1,62.5
307,213,411208,2,0,L|371:149,1,62.5
384,128,411490,2,0,L|288:96,1,62.5
256,96,411772,2,0,L|192:160,1,62.5
160,192,412053,2,0,L|192:256,1,62.5
256,288,412335,2,0,P|352:320|384:224,1,187.5
256,192,413180,5,0,0:0:0:0:
256,192,413603,1,0,0:0:0:0:
128,224,414025,2,0,P|128:160|224:160,1,125
224,128,414448,1,8,0:0:0:0:
264,160,414589,1,8,0:0:0:0:
304,128,414730,1,8,0:0:0:0:
352,136,414870,2,0,P|384:200|320:232,1,125
344,280,415293,5,8,0:0:0:0:
312,240,415434,1,8,0:0:0:0:
336,200,415575,1,8,0:0:0:0:
360,160,415715,2,0,P|263:138|200:160,1,125
200,112,416138,2,0,L|136:144,1,62.5
144,139,416420,1,0,0:0:0:0:
160,184,416560,6,0,P|224:184|256:248,1,125
160,320,417406,2,0,L|128:256,1,62.5
128,224,417687,2,0,L|192:192,1,62.5
224,192,417969,2,0,L|192:128,1,62.5
192,96,418251,2,0,L|256:96,1,62.5
288,96,418532,2,0,L|352:160,1,62.5
352,160,418814,2,0,L|320:224,1,62.5
224,192,419096,6,0,B|192:192|256:224|260:298|97:232,2,187.5
384,96,420363,1,0,0:0:0:0:
128,224,420786,2,0,P|196:211|224:160,1,125
224,128,421209,1,8,0:0:0:0:
160,128,421350,1,8,0:0:0:0:
160,192,421491,1,8,0:0:0:0:
174,255,421631,2,0,P|206:319|260:320,1,125
296,288,422054,5,8,0:0:0:0:
264,248,422195,1,8,0:0:0:0:
280,200,422336,1,8,0:0:0:0:
304,152,422476,2,0,P|380:198|350:255,1,125
378,220,422899,1,8,0:0:0:0:
304,152,423039,1,0,0:0:0:0:
192,128,423180,1,8,0:0:0:0:
192,192,423321,6,0,P|225:247|288:256,2,125
192,128,424166,2,0,L|146:134,1,46.875
128,192,424377,2,0,L|173:240,1,46.875
192,256,424589,2,0,L|256:224,1,46.875
288,192,424800,2,0,L|256:128,1,46.875
256,96,425011,6,0,L|320:128,1,46.875
352,128,425222,2,0,L|320:192,1,46.875
352,224,425434,2,0,L|288:256,1,46.875
256,256,425645,2,0,L|192:192,1,46.875
224,160,425856,2,0,P|160:160|160:224,1,140.625
192,256,426279,2,0,B|224:192|288:320|320:224|288:160,1,187.5
224,96,426913,5,8,0:0:0:0:
128,64,427124,1,8,0:0:0:0:
160,192,427546,2,0,B|128:256|192:288|224:224|256:288|256:320,1,187.5
256,320,428391,2,0,L|352:256,1,93.7500000000001
320,192,428814,2,0,L|224:160,1,93.7500000000001
384,128,429237,1,8,0:0:0:0:
224,96,429659,1,8,0:0:0:0:
256,192,430082,12,8,432617,0:0:0:0:
154,267,432828,5,0,0:0:0:0:
82,242,433039,1,8,0:0:0:0:
224,288,433251,1,0,0:0:0:0:
288,192,433462,2,0,L|192:96,1,93.7500000000001
320,96,433884,2,0,P|352:160|352:192,1,93.7500000000001
288,192,434307,2,0,B|192:192|192:224|224:288|288:320,1,187.5
390,294,435152,6,0,P|454:262|454:230,1,93.7500000000001
427,147,435575,2,0,P|363:179|331:147,1,93.7500000000001
160,160,435997,1,0,0:0:0:0:
320,96,436420,1,0,0:0:0:0:
120,160,436842,5,0,0:0:0:0:
144,232,437053,2,0,P|166:277|206:297,1,93.7500000000001
280,304,437476,1,8,0:0:0:0:
352,280,437687,1,8,0:0:0:0:
400,224,437899,5,8,0:0:0:0:
392,152,438110,2,0,B|377:139|384:136|413:102|355:80|312:80,1,93.7500000000001
272,88,438532,1,8,0:0:0:0:
208,128,438744,1,8,0:0:0:0:
240,192,438955,1,8,0:0:0:0:
296,240,439166,1,0,0:0:0:0:
296,280,439272,1,0,0:0:0:0:
264,288,439377,1,0,0:0:0:0:
192,304,439589,5,8,0:0:0:0:
128,264,439800,2,8,P|95:232|122:186,1,93.7500000000001
168,144,440222,2,0,P|200:128|232:176,2,93.7500000000001
240,112,440856,1,0,0:0:0:0:
168,144,441068,2,0,B|104:144|104:240|168:304|200:272,1,187.5
256,224,441913,2,8,L|352:160,1,93.7500000000001
334,171,442335,6,8,L|256:224,1,93.7500000000001
256,128,442758,1,0,0:0:0:0:
192,96,442969,1,0,0:0:0:0:
128,192,443180,6,0,B|128:256|192:256|288:256,1,187.5
320,128,443814,1,0,0:0:0:0:
224,96,444025,2,0,B|224:160|160:96|128:96|160:160|94:210,1,187.5
120,280,444659,1,0,0:0:0:0:
192,296,444870,2,0,P|288:264|288:168,1,187.5
256,128,445504,1,0,0:0:0:0:
136,224,445927,5,8,0:0:0:0:
176,160,446138,1,8,0:0:0:0:
232,112,446349,1,8,0:0:0:0:
328,224,446560,1,8,0:0:0:0:
160,224,446983,2,0,B|192:256|224:224|253:271,2,93.7500000000001
192,192,447617,2,8,L|256:192,1,46.875
288,192,447828,2,0,B|347:169|347:169|403:166|424:182|423:248|320:256|428:322|320:288|256:224|256:320|207:291,1,375
192,256,448884,6,0,P|140:280|128:224,1,93.7500000000001
192,192,449307,1,0,0:0:0:0:
288,160,449518,1,0,0:0:0:0:
288,128,449941,1,0,0:0:0:0:
128,64,453744,6,0,B|192:96|160:160|160:192,1,140.625
216,288,454377,5,0,0:0:0:0:
224,136,454800,1,0,0:0:0:0:
296,112,455011,1,0,0:0:0:0:
352,160,455222,1,0,0:0:0:0:
352,232,455434,1,8,0:0:0:0:
288,328,455751,1,8,0:0:0:0:
192,272,456068,1,8,0:0:0:0:
200,120,456490,5,0,0:0:0:0:
256,64,456701,1,0,0:0:0:0:
304,120,456913,1,0,0:0:0:0:
256,176,457124,1,8,0:0:0:0:
184,88,457441,2,8,B|120:120|120:152|152:216|120:248,1,140.625
216,328,458180,6,0,L|312:264,1,93.7500000000001
352,232,458603,2,0,L|256:136,1,93.7500000000001,0|8,0:0|0:0,0:0:0:0:
208,80,459131,1,8,0:0:0:0:
240,192,459448,2,8,P|208:224|149:199,1,93.7500000000001
112,120,459976,1,8,0:0:0:0:
224,136,460293,1,8,0:0:0:0:
128,256,460504,2,0,B|64:224|128:192|156:134,1,140.625
200,48,461137,1,0,0:0:0:0:
224,224,461560,5,0,0:0:0:0:
256,192,461771,1,0,0:0:0:0:
192,256,461982,1,0,0:0:0:0:
288,160,462194,1,8,0:0:0:0:
288,224,462511,1,8,0:0:0:0:
352,96,462828,1,8,0:0:0:0:
224,96,463250,5,0,0:0:0:0:
288,192,463461,1,0,0:0:0:0:
288,288,463673,1,0,0:0:0:0:
224,256,463884,1,8,0:0:0:0:
224,256,464201,1,8,0:0:0:0:
224,256,464518,1,8,0:0:0:0:
280,120,464940,5,0,0:0:0:0:
344,152,465151,1,0,0:0:0:0:
328,224,465362,1,0,0:0:0:0:
256,192,465574,1,8,0:0:0:0:
168,264,465891,1,8,0:0:0:0:
160,96,466208,1,8,0:0:0:0:
160,96,466419,1,8,0:0:0:0:
272,96,466736,1,8,0:0:0:0:
328,184,467053,5,8,0:0:0:0:
352,96,467265,2,0,B|352:128|352:192|320:224|294:136,1,140.625
256,64,467899,1,0,0:0:0:0:
192,128,468321,2,0,B|288:128|128:128|224:192|192:224,1,93.7500000000001
232,248,468743,1,0,0:0:0:0:
304,232,468955,2,8,P|272:168|182:174,1,140.625
160,256,469589,2,8,B|256:288|256:224|288:160,1,187.5,8|0,0:0|0:0,0:0:0:0:
328,104,470222,5,0,0:0:0:0:
264,144,470433,1,0,0:0:0:0:
208,96,470645,2,8,L|279:94|304:160,1,140.625
344,264,471279,1,8,0:0:0:0:
200,288,471701,5,0,0:0:0:0:
240,224,471913,1,0,0:0:0:0:
200,160,472124,1,0,0:0:0:0:
200,88,472335,2,8,B|271:86|232:152|328:120|323:184,1,140.625
408,224,472969,1,8,0:0:0:0:
336,232,473180,2,8,P|368:296|289:316,1,140.625
216,280,473814,1,8,0:0:0:0:
248,208,474025,6,0,B|344:208|312:240|280:304|248:272,1,140.625
152,264,474658,5,0,0:0:0:0:
184,120,475081,1,0,0:0:0:0:
256,112,475292,1,0,0:0:0:0:
304,176,475503,1,0,0:0:0:0:
272,248,475715,1,8,0:0:0:0:
160,96,476032,1,8,0:0:0:0:
272,88,476349,1,8,0:0:0:0:
176,200,476771,5,0,0:0:0:0:
248,176,476982,1,0,0:0:0:0:
320,208,477194,1,0,0:0:0:0:
256,248,477405,1,8,0:0:0:0:
192,152,477722,2,8,B|128:184|128:216|160:280|128:312,1,140.625
264,360,478461,6,0,P|296:328|336:283,1,93.7500000000001
352,224,478884,2,0,P|310:202|352:160,1,93.7500000000001,0|8,0:0|0:0,0:0:0:0:
384,72,479412,1,8,0:0:0:0:
328,168,479729,2,8,P|296:200|237:175,1,93.7500000000001
144,160,480257,1,8,0:0:0:0:
240,96,480574,1,8,0:0:0:0:
368,48,480786,6,0,P|400:112|336:112,1,140.625
240,120,481420,1,0,0:0:0:0:
216,272,481842,2,8,B|256:277|256:277|280:208,1,93.7500000000001
312,160,482265,1,0,0:0:0:0:
352,96,482476,1,0,0:0:0:0:
416,192,482793,1,0,0:0:0:0:
336,272,483110,5,0,0:0:0:0:
208,200,483532,2,0,P|161:202|176:168,2,93.7500000000001,8|8|0,0:0|0:0|0:0,0:0:0:0:
296,120,484166,1,0,0:0:0:0:
280,232,484483,1,0,0:0:0:0:
176,184,484800,1,0,0:0:0:0:
256,320,485222,6,8,P|288:288|256:256,1,93.7500000000001
192,224,485645,2,0,P|150:202|192:160,1,93.7500000000001
224,96,486173,1,0,0:0:0:0:
128,64,486490,1,0,0:0:0:0:
203,161,486701,1,0,0:0:0:0:
288,88,487018,2,0,B|394:101|288:152|426:186|352:184,1,140.625
384,256,487546,5,8,0:0:0:0:
256,192,487863,1,8,0:0:0:0:
192,256,488179,5,8,0:0:0:0:
224,128,488602,1,0,0:0:0:0:
296,120,488813,1,0,0:0:0:0:
360,160,489024,1,0,0:0:0:0:
328,224,489236,1,0,0:0:0:0:
232,280,489553,1,0,0:0:0:0:
152,200,489870,1,0,0:0:0:0:
152,48,490292,5,8,0:0:0:0:
224,56,490503,1,8,0:0:0:0:
296,80,490715,1,8,0:0:0:0:
320,152,490926,1,0,0:0:0:0:
192,96,491243,2,0,B|128:128|128:160|160:224|128:256,1,140.625
192,288,491772,1,0,0:0:0:0:
192,288,491983,6,0,L|288:224,1,93.7500000000001
384,192,492405,2,0,P|361:150|286:197,1,140.625
272,216,492828,2,0,P|240:248|181:223,1,93.7500000000001
128,96,493462,1,0,0:0:0:0:
384,96,493884,2,8,L|320:96,2,46.875
352,192,494307,5,0,0:0:0:0:
192,128,494624,2,0,L|128:160,1,46.875
128,224,494941,1,0,0:0:0:0:
192,288,495152,2,0,P|256:320|298:301,1,93.7500000000001
320,256,495575,2,0,L|352:160,1,93.7500000000001
288,192,495997,2,8,L|224:192,3,46.875
256,224,496420,2,0,P|192:256|160:256,1,93.7500000000001,8|0,0:0|0:0,0:0:0:0:
160,160,496842,5,0,0:0:0:0:
224,224,497265,2,0,P|224:256|288:288,1,93.7500000000001
320,160,497687,2,0,P|313:204|288:224,2,46.875
224,96,498110,2,0,B|160:96|160:128|128:160,1,93.7500000000001
192,224,498532,2,0,P|224:320|256:288,1,187.5
320,224,499166,1,0,0:0:0:0:
384,96,499377,1,0,0:0:0:0:
256,128,500222,5,8,0:0:0:0:
224,192,500434,1,8,0:0:0:0:
192,256,500645,1,0,0:0:0:0:
319,229,500856,1,8,0:0:0:0:
256,64,501068,1,8,0:0:0:0:
352,256,501490,6,0,P|352:320|320:320,1,93.7500000000001
288,288,501913,2,0,P|256:256|288:224,1,93.7500000000001
384,192,502335,2,0,P|416:160|384:128,1,93.7500000000001
192,64,502758,2,8,L|256:128,2,46.875
224,160,503075,6,8,L|224:224,2,46.875
288,128,503391,2,8,L|352:96,2,46.875
320,224,503814,5,0,0:0:0:0:
128,96,504237,2,0,L|128:192,1,93.7500000000001
224,128,504870,2,0,B|256:160|224:192|192:224|224:256|288:288,1,187.5
288,288,505399,5,8,0:0:0:0:
352,256,505610,1,8,0:0:0:0:
352,192,505927,1,8,0:0:0:0:
256,96,506138,1,8,0:0:0:0:
384,256,506560,2,0,B|320:192|256:160|224:192,1,187.5
192,256,507089,2,0,L|128:256,3,46.875
320,256,507511,2,0,L|384:256,2,46.875
256,192,507828,2,0,P|291:163|259:99,2,93.7500000000001
256,96,508674,5,0,0:0:0:0:
320,96,508885,1,0,0:0:0:0:
352,160,509096,1,0,0:0:0:0:
352,224,509307,1,0,0:0:0:0:
192,96,509518,2,8,B|96:96|96:192|256:224|192:288|128:256,1,249.999990463257
288,192,510786,5,0,0:0:0:0:
352,224,510997,1,0,0:0:0:0:
288,320,511208,2,8,B|224:288|256:256|288:256|256:224|224:224|192:192|256:160|288:160|288:128|256:96,1,249.999990463257
192,192,512476,1,0,0:0:0:0:
128,276,512899,2,8,B|160:256|192:256|172:204|172:204|224:192|267:188|224:128|256:128|276:100,1,249.999990463257
352,192,514166,1,0,0:0:0:0:
256,192,514589,6,8,L|224:256,1,62.4999976158143
160,160,515222,1,0,0:0:0:0:
224,96,515434,1,0,0:0:0:0:
384,128,515856,1,0,0:0:0:0:
384,288,516279,2,8,L|320:320,1,62.4999976158143
160,224,516913,1,0,0:0:0:0:
96,160,517124,1,0,0:0:0:0:
224,96,517546,1,0,0:0:0:0:
256,192,517969,12,0,519448,0:0:0:0:
256,96,519659,6,8,L|320:160,1,62.4999976158143
352,224,520082,2,0,L|288:256,1,62.4999976158143
224,320,520504,2,8,L|160:288,1,62.4999976158143
96,224,520927,2,0,L|160:192,1,62.4999976158143
224,96,521349,1,8,0:0:0:0:
96,64,521560,2,0,B|128:160|160:128|160:192|200:178|161:158,1,124.999995231629,8|0,0:0|0:0,0:0:0:0:
256,128,522194,1,0,0:0:0:0:
352,96,522617,1,0,0:0:0:0:
416,224,523039,5,8,0:0:0:0:
384,184,523250,1,8,0:0:0:0:
240,288,523673,1,0,0:0:0:0:
200,256,523884,1,0,0:0:0:0:
144,96,524307,1,0,0:0:0:0:
296,80,524730,5,8,0:0:0:0:
328,112,524941,1,8,0:0:0:0:
224,160,525363,1,0,0:0:0:0:
272,168,525574,1,0,0:0:0:0:
384,128,525997,1,0,0:0:0:0:
256,256,526420,5,8,0:0:0:0:
216,224,526631,1,8,0:0:0:0:
152,96,527053,1,0,0:0:0:0:
200,104,527264,1,0,0:0:0:0:
376,128,527687,1,0,0:0:0:0:
264,96,528110,6,8,P|232:96|229:139,1,62.4999976158143
280,200,528744,2,0,P|312:215|293:243,1,62.4999976158143
248,320,529377,2,0,B|186:334|216:256|152:269|144:240|144:240|142:243|142:243|144:240|144:240|152:240,1,124.999995231629,0|8,0:0|0:0,0:0:0:0:
128,160,530011,2,0,B|170:173|221:223|256:192|233:180,1,124.999995231629,8|0,0:0|0:0,0:0:0:0:
352,160,530645,2,0,P|330:137|298:165,1,62.4999976158143
264,240,531068,2,0,B|168:208|168:176|200:176|177:192|175:163|189:183|200:176,1,124.999995231629,0|8,0:0|0:0,0:0:0:0:
264,240,531701,5,8,0:0:0:0:
352,64,532124,5,0,0:0:0:0:
360,112,532335,1,0,0:0:0:0:
184,120,532757,1,0,0:0:0:0:
288,224,533180,1,8,0:0:0:0:
328,200,533391,1,8,0:0:0:0:
240,64,533814,5,0,0:0:0:0:
272,104,534025,1,0,0:0:0:0:
192,224,534447,1,0,0:0:0:0:
392,152,534871,1,8,0:0:0:0:
360,120,535082,1,8,0:0:0:0:
288,288,535504,1,0,0:0:0:0:
264,240,535716,1,0,0:0:0:0:
224,128,536139,1,0,0:0:0:0:
360,208,536561,5,8,0:0:0:0:
328,248,536772,1,8,0:0:0:0:
192,320,537195,1,0,0:0:0:0:
200,272,537406,1,0,0:0:0:0:
384,192,537829,1,0,0:0:0:0:
256,96,538251,1,8,0:0:0:0:
320,96,538462,6,8,B|320:160|320:160|307:153|352:192|288:192,1,124.999995231629
224,160,539096,1,0,0:0:0:0:
160,192,539519,1,0,0:0:0:0:
352,128,539941,5,8,0:0:0:0:
384,160,540152,1,8,0:0:0:0:
280,288,540575,1,0,0:0:0:0:
232,288,540786,1,0,0:0:0:0:
88,168,541209,1,0,0:0:0:0:
248,104,541631,1,8,0:0:0:0:
240,152,541842,5,8,0:0:0:0:
224,288,542265,1,0,0:0:0:0:
288,288,542476,1,0,0:0:0:0:
320,192,542899,1,0,0:0:0:0:
320,64,543321,1,8,0:0:0:0:
256,64,543532,1,8,0:0:0:0:
192,184,543955,1,0,0:0:0:0:
224,224,544166,1,0,0:0:0:0:
320,232,544589,5,0,0:0:0:0:
220,63,545011,1,8,0:0:0:0:
96,64,545222,2,8,B|128:64|160:64|192:64|196:53|231:67,1,124.999995231629
352,64,545856,1,0,0:0:0:0:
416,192,546279,1,0,0:0:0:0:
312,256,546701,5,8,0:0:0:0:
288,224,546912,1,8,0:0:0:0:
152,248,547335,1,8,0:0:0:0:
192,224,547546,1,8,0:0:0:0:
256,160,547969,1,8,0:0:0:0:
256,192,548391,12,0,551772,0:0:0:0:
224,192,561279,6,0,P|186:177|158:192,2,62.4999976158143
224,288,561913,1,8,0:0:0:0:
384,288,562335,1,8,0:0:0:0:
288,96,562758,1,8,0:0:0:0:
160,96,563180,1,0,0:0:0:0:
256,224,563391,1,0,0:0:0:0:
320,160,563603,1,0,0:0:0:0:
196,136,563814,2,8,P|171:125|160:160,2,62.4999976158143
256,224,564448,6,0,P|284:245|307:208,1,62.4999976158143
256,96,565293,1,8,0:0:0:0:
384,160,565504,2,0,L|326:222,1,62.4999976158143
228,198,565927,2,0,L|288:160,2,62.4999976158143
221,206,566772,2,8,B|128:128|256:96|416:128|276:213|276:213,1,249.999990463257
256,256,567828,5,0,0:0:0:0:
320,288,568039,2,0,P|366:286|359:268,1,62.4999976158143
288,192,568462,1,0,0:0:0:0:
192,256,568673,1,0,0:0:0:0:
160,96,569096,1,8,0:0:0:0:
288,96,569518,2,0,L|348:153,1,62.4999976158143
416,256,569941,2,0,P|361:259|357:247,1,62.4999976158143
352,192,570363,6,8,B|315:171|328:151|301:149,1,62.4999976158143
192,128,570786,2,8,B|132:151|135:186|128:160,1,62.4999976158143
160,288,571208,2,0,P|209:312|231:291,1,62.4999976158143
352,192,571842,1,0,0:0:0:0:
256,192,572265,2,0,P|256:224|220:238,2,62.4999976158143
256,192,572899,2,0,P|256:224|299:241,2,62.4999976158143
256,64,573533,1,8,0:0:0:0:
352,128,573744,1,8,0:0:0:0:
256,96,574166,5,8,0:0:0:0:
192,224,574377,2,0,L|128:265,1,62.4999976158143
288,288,574800,2,0,P|316:272|342:234,1,62.4999976158143
416,160,575222,2,0,B|384:147|366:154|346:149|352:128,1,62.4999976158143
229,322,575856,6,0,B|228:270|219:269|229:226|225:274,1,62.4999976158143
128,224,576279,1,8,0:0:0:0:
320,256,576701,6,0,B|352:192|306:181|322:197,1,62.4999976158143
288,96,577124,1,8,0:0:0:0:
128,96,577546,2,0,P|91:128|64:160,1,62.4999976158143
160,256,577969,2,0,B|192:288|256:288|210:283,1,62.4999976158143
352,256,578391,1,8,0:0:0:0:
416,128,578603,5,8,0:0:0:0:
288,128,578814,1,8,0:0:0:0:
128,192,579448,1,0,0:0:0:0:
96,288,579659,1,0,0:0:0:0:
416,288,580082,5,0,0:0:0:0:
352,160,580293,1,0,0:0:0:0:
96,224,581138,2,8,P|96:192|121:172,1,62.4999976158143
256,128,581560,2,0,B|288:96|323:143|320:160,1,62.4999976158143
320,256,581983,2,0,P|368:175|319:96,1,187.499992847443
256,192,582828,5,8,0:0:0:0:
256,192,582934,1,8,0:0:0:0:
256,192,583039,1,8,0:0:0:0:
256,192,583251,1,0,0:0:0:0:
192,192,583462,1,0,0:0:0:0:
320,192,583673,1,8,0:0:0:0:
384,256,584096,6,0,L|313:282,1,62.4999976158143
192,320,584518,2,0,L|141:265,1,62.4999976158143
142,137,584941,2,8,L|224:160,2,62.4999976158143
256,192,585575,12,0,588955,0:0:0:0:
384,64,589377,6,0,B|379:113|379:113|356:144|288:160,1,124.999995231629
128,160,590222,2,0,P|96:224|140:283,1,124.999995231629
288,288,591068,2,0,P|352:256|320:224,1,124.999995231629
192,160,591913,2,0,P|160:96|192:96,1,124.999995231629
352,96,592758,2,0,B|384:128|384:160|416:192|384:224,1,124.999995231629
352,320,593603,2,0,B|320:288|256:320|224:288,1,124.999995231629
128,288,594448,5,0,0:0:0:0:
128,128,594870,1,0,0:0:0:0:
256,192,595293,1,0,0:0:0:0:
352,160,595504,6,8,L|384:192,2,31.2499988079071
288,80,595927,1,0,0:0:0:0:
256,152,596138,1,0,0:0:0:0:
304,208,596349,1,0,0:0:0:0:
320,280,596560,1,8,0:0:0:0:
376,328,596772,1,8,0:0:0:0:
376,256,596983,6,0,P|344:224|312:224,1,62.4999976158143
160,232,597406,2,8,P|192:200|192:168,1,62.4999976158143
240,96,597828,2,0,P|272:96|304:128,1,62.4999976158143
352,192,598251,2,8,P|288:224|276:223,1,62.4999976158143
224,288,598673,2,0,P|192:288|154:264,1,62.4999976158143
128,184,599096,6,8,P|160:152|160:120,1,62.4999976158143
216,56,599518,1,0,0:0:0:0:
280,88,599730,1,0,0:0:0:0:
352,104,599941,1,8,0:0:0:0:
400,160,600152,1,8,0:0:0:0:
352,320,600363,5,0,0:0:0:0:
280,288,600575,1,0,0:0:0:0:
240,224,600786,1,8,0:0:0:0:
232,152,600997,2,0,P|296:184|307:198,1,62.4999976158143,8|0,0:0|0:0,0:0:0:0:
288,176,601420,1,0,0:0:0:0:
288,176,601631,6,8,P|256:154|224:156,1,62.4999976158143
144,112,602053,1,0,0:0:0:0:
176,176,602265,1,8,0:0:0:0:
200,200,602370,1,8,0:0:0:0:
232,216,602476,1,8,0:0:0:0:
272,152,602687,2,0,P|304:184|320:192,1,62.4999976158143
376,272,603110,2,0,P|344:272|296:304,1,62.4999976158143,0|8,0:0|0:0,0:0:0:0:
240,352,603532,1,8,0:0:0:0:
184,304,603744,1,0,0:0:0:0:
152,240,603955,6,0,L|216:208,1,62.4999976158143,0|8,0:0|0:0,0:0:0:0:
288,152,604377,1,8,0:0:0:0:
288,152,604589,2,0,P|268:187|288:216,1,62.4999976158143
368,240,605011,1,8,0:0:0:0:
392,168,605222,1,8,0:0:0:0:
424,104,605434,6,0,P|447:92|424:72,1,62.4999976158143
328,56,605856,1,8,0:0:0:0:
272,112,606068,2,0,P|304:112|336:144,1,62.4999976158143,8|0,0:0|0:0,0:0:0:0:
376,216,606490,1,0,0:0:0:0:
336,280,606701,1,8,0:0:0:0:
264,256,606913,1,8,0:0:0:0:
256,184,607124,1,0,0:0:0:0:
240,112,607335,6,0,P|208:80|176:80,1,62.4999976158143,0|8,0:0|0:0,0:0:0:0:
192,77,607758,2,0,P|192:109|184:152,1,62.4999976158143,8|0,0:0|0:0,0:0:0:0:
168,232,608180,2,0,L|104:232,1,62.4999976158143,0|8,0:0|0:0,0:0:0:0:
105,232,608603,1,8,0:0:0:0:
105,232,608814,2,0,L|169:232,1,62.4999976158143,0|8,0:0|0:0,0:0:0:0:
168,232,609131,1,8,0:0:0:0:
167,232,609237,1,8,0:0:0:0:
248,296,609448,2,0,P|280:264|280:232,1,62.4999976158143
272,120,609870,6,8,B|240:88|208:120|196:119,1,62.4999976158143,0|8,0:0|0:0,0:0:0:0:
136,168,610293,2,0,P|169:189|168:224,1,62.4999976158143,8|0,0:0|0:0,0:0:0:0:
168,304,610715,2,0,P|210:312|232:288,1,62.4999976158143,0|8,0:0|0:0,0:0:0:0:
288,208,611138,2,0,P|305:236|352:256,1,62.4999976158143,8|0,0:0|0:0,0:0:0:0:
440,256,611560,2,0,P|408:256|384:288,1,62.4999976158143,0|8,0:0|0:0,0:0:0:0:
304,328,611983,2,0,L|233:263,1,62.4999976158143,8|0,0:0|0:0,0:0:0:0:
160,64,612406,5,0,0:0:0:0:
128,160,612617,1,8,0:0:0:0:
128,256,612828,1,8,0:0:0:0:
192,320,613039,1,0,0:0:0:0:
288,320,613251,1,0,0:0:0:0:
352,256,613462,1,8,0:0:0:0:
384,160,613673,2,0,P|352:128|320:128,1,62.4999976158143,8|0,0:0|0:0,0:0:0:0:
256,224,614096,6,0,P|224:256|192:256,1,62.4999976158143
96,160,614518,2,8,P|128:96|192:96,1,124.999995231629
256,192,615152,12,0,615997,0:0:0:0:
128,128,616208,6,0,L|192:192,1,62.4999976158143
256,256,616631,2,0,L|320:320,1,62.4999976158143
288,64,617687,6,8,L|331:100,2,31.2499988079071
440,152,618110,1,0,0:0:0:0:
392,248,618321,1,0,0:0:0:0:
320,144,618533,2,8,L|336:96,2,31.2499988079071
264,264,618955,2,0,L|191:216,1,62.4999976158143
136,120,619377,2,8,L|104:120,2,31.2499988079071
264,264,619800,1,0,0:0:0:0:
320,144,620011,1,0,0:0:0:0:
128,96,621068,5,8,0:0:0:0:
148,109,621173,1,8,0:0:0:0:
134,130,621279,1,8,0:0:0:0:
160,288,621490,2,0,L|224:288,1,62.4999976158143
384,288,621913,1,8,0:0:0:0:
357,277,622018,1,8,0:0:0:0:
363,241,622124,1,8,0:0:0:0:
416,128,622335,6,0,L|352:128,1,62.4999976158143
220,44,622758,1,8,0:0:0:0:
191,71,622863,1,8,0:0:0:0:
199,107,622969,1,8,0:0:0:0:
256,192,623180,1,0,0:0:0:0:
256,320,623391,1,0,0:0:0:0:
64,128,624448,6,8,L|96:160,2,31.2499988079071
152,272,624870,1,0,0:0:0:0:
312,288,625082,2,0,P|360:272|360:240,1,62.4999976158143
384,128,625504,1,0,0:0:0:0:
224,96,625715,2,0,L|160:160,1,62.4999976158143
192,288,626138,1,8,0:0:0:0:
235,273,626244,1,8,0:0:0:0:
288,256,626349,2,0,L|320:192,2,62.4999976158143,8|0|0,0:0|0:0|0:0,0:0:0:0:
256,192,626983,12,0,629096,0:0:0:0:
256,352,629518,6,0,B|224:320|256:288|160:256,1,124.999995231629
160,192,630786,6,8,B|128:160|128:160|96:160,1,62.4999976158143
256,192,631420,6,0,L|256:160|256:128,1,62.4999976158143
352,192,632053,6,8,B|384:160|384:160|416:160,1,62.4999976158143
256,256,632476,2,0,L|256:320,1,62.4999976158143
392,144,632899,1,8,0:0:0:0:
120,144,633321,1,8,0:0:0:0:
256,192,633744,12,0,636279,0:0:0:0:
256,192,636701,5,0,0:0:0:0:
424,128,637546,2,8,P|398:99|365:114,1,62.4999976158143
192,312,638180,2,8,P|152:312|136:272,1,62.4999976158143
104,88,638814,2,8,P|119:60|164:73,1,62.4999976158143
256,192,639659,12,0,642617,0:0:0:0:
128,64,643039,6,0,L|205:78,1,62.4999976158143
464,56,643673,2,0,P|455:86|425:102,1,62.4999976158143
256,192,644096,1,8,0:0:0:0:
64,288,644307,2,0,P|58:330|90:340,1,62.4999976158143
320,352,644730,2,0,P|384:256|383:238,1,124.999995231629
352,64,645575,2,8,B|320:64|320:96|288:96|288:128|256:128|256:160,1,124.999995231629
128,288,646420,6,0,L|129:218,1,62.4999976158143
128,96,647053,1,0,0:0:0:0:
256,256,647265,2,8,B|288:256|288:256|256:224|256:224|288:224|288:224|256:192|256:192|288:192|288:192|256:160|256:160|288:160|288:160|288:160,2,249.999990463257
160,288,649166,1,8,0:0:0:0:
376,208,649377,1,8,0:0:0:0:
192,96,649800,6,0,P|160:96|160:128,1,62.4999976158143
320,288,650434,2,0,P|352:288|371:244,1,62.4999976158143
384,96,651068,2,8,L|320:64,1,62.4999976158143
160,32,651490,1,8,0:0:0:0:
96,192,651913,1,0,0:0:0:0:
384,192,652335,1,8,0:0:0:0:
313,288,652546,5,8,0:0:0:0:
160,288,652758,1,8,0:0:0:0:
256,224,652969,2,0,L|256:160,1,62.4999976158143
128,38,654025,6,8,B|128:288|128:288|384:288|384:288|383:23,1,749.999971389771
