osu file format v14

[General]
AudioFilename: 09 ().mp3
AudioLeadIn: 0
PreviewTime: 155973
Countdown: 1
SampleSet: None
StackLeniency: 0.7
Mode: 1
LetterboxInBreaks: 1
WidescreenStoryboard: 0

[Editor]
DistanceSpacing: 2
BeatDivisor: 4
GridSize: 32
TimelineZoom: 2.5

[Metadata]
Title:Ura-Omote Lovers
TitleUnicode:裏表ラバーズ
Artist:UK Rampage
ArtistUnicode:有形ランペイジ
Creator:-[ ix Ishida xi ]-
Version:-[ ix Ura-Omote Taiko xi ]-
Source:
Tags:
BeatmapID:840740
BeatmapSetID:384808

[Difficulty]
HPDrainRate:5
CircleSize:5
OverallDifficulty:5
ApproachRate:5
SliderMultiplier:1.4
SliderTickRate:1

[Events]
//Background and Video events
0,0,"1256134524.jpg",0,0
//Break Periods
//Storyboard Layer 0 (Background)
//Storyboard Layer 1 (Fail)
//Storyboard Layer 2 (Pass)
//Storyboard Layer 3 (Foreground)
//Storyboard Sound Samples

[TimingPoints]
503,37.7358490566038,4,1,0,30,1,0
503,-50,4,1,0,30,0,0
2012,251.572327044025,4,1,0,30,1,0
2012,-50,4,1,0,30,0,0
4276,377.358490566038,4,1,0,30,1,0
4276,-83.3333333333333,4,1,0,30,0,0
5030,377.358490566038,4,1,0,70,1,0
5030,-83.3333333333333,4,1,0,70,0,0
77482,-66.6666666666667,4,1,0,90,0,1
89558,-66.6666666666667,4,1,0,90,0,0
89652,-83.3333333333333,4,1,0,70,0,0
155973,-41.6666666666667,4,3,0,5,0,0
156350,377.358490566038,4,1,0,90,1,1
156350,-66.6666666666667,4,1,0,90,0,1
168425,-57.1428571428571,4,1,0,90,0,1
180500,-40,4,1,0,90,0,1
182010,-100,4,1,0,90,0,0

[HitObjects]
252,192,503,6,0,L|252:200,1,8.75
252,192,1257,2,0,L|252:200,1,8.75
480,64,2012,2,0,B|-64:352|-64:352|480:32|480:32|64:192,1,1680.00006408692
256,192,4276,1,2,0:0:0:0:
256,160,4464,1,8,0:0:0:0:
224,160,4653,1,8,0:0:0:0:
224,160,4842,1,8,0:0:0:0:
288,128,5030,1,4,0:0:0:0:
288,128,5218,1,0,0:0:0:0:
288,128,5313,1,0,0:0:0:0:
288,128,5407,1,8,0:0:0:0:
288,128,5501,1,0,0:0:0:0:
288,128,5596,1,8,0:0:0:0:
288,128,5690,1,8,0:0:0:0:
288,128,5784,1,0,0:0:0:0:
288,128,5879,1,8,0:0:0:0:
288,128,5973,1,0,0:0:0:0:
288,128,6162,1,8,0:0:0:0:
320,96,6350,1,8,0:0:0:0:
320,96,6445,1,8,0:0:0:0:
320,96,6539,1,4,0:0:0:0:
288,96,6728,1,0,0:0:0:0:
288,96,6822,1,0,0:0:0:0:
288,96,6916,1,8,0:0:0:0:
288,96,7011,1,0,0:0:0:0:
288,96,7105,1,8,0:0:0:0:
288,96,7199,1,8,0:0:0:0:
288,96,7294,1,0,0:0:0:0:
288,96,7388,1,0,0:0:0:0:
288,96,7482,1,8,0:0:0:0:
288,96,7577,1,0,0:0:0:0:
288,96,7671,1,8,0:0:0:0:
288,96,7765,1,8,0:0:0:0:
288,96,7860,1,8,0:0:0:0:
288,96,7954,1,8,0:0:0:0:
288,96,8048,1,4,0:0:0:0:
288,96,8237,1,0,0:0:0:0:
288,96,8331,1,0,0:0:0:0:
288,96,8426,1,8,0:0:0:0:
288,96,8520,1,0,0:0:0:0:
288,96,8614,1,8,0:0:0:0:
288,96,8709,1,8,0:0:0:0:
288,96,8803,1,0,0:0:0:0:
288,96,8897,1,8,0:0:0:0:
288,96,8992,1,0,0:0:0:0:
288,96,9086,1,0,0:0:0:0:
288,96,9180,1,8,0:0:0:0:
288,96,9369,1,8,0:0:0:0:
288,96,9463,1,8,0:0:0:0:
288,96,9558,1,4,0:0:0:0:
288,96,9746,1,0,0:0:0:0:
288,96,9841,1,0,0:0:0:0:
288,96,9935,1,8,0:0:0:0:
288,96,10030,1,0,0:0:0:0:
288,96,10124,1,8,0:0:0:0:
288,96,10218,1,8,0:0:0:0:
288,96,10313,1,0,0:0:0:0:
288,96,10407,1,8,0:0:0:0:
288,96,10501,1,0,0:0:0:0:
288,96,10596,1,0,0:0:0:0:
384,128,10690,1,8,0:0:0:0:
416,160,10753,1,0,0:0:0:0:
416,160,10816,1,0,0:0:0:0:
416,160,10879,1,8,0:0:0:0:
416,160,10941,1,8,0:0:0:0:
384,128,11004,1,0,0:0:0:0:
384,128,11067,1,4,0:0:0:0:
288,96,11256,1,0,0:0:0:0:
288,96,11350,1,0,0:0:0:0:
288,96,11445,1,8,0:0:0:0:
320,64,11539,1,0,0:0:0:0:
320,96,11633,1,8,0:0:0:0:
320,96,11728,1,8,0:0:0:0:
320,96,11822,1,0,0:0:0:0:
352,96,11916,1,8,0:0:0:0:
320,128,12011,1,0,0:0:0:0:
320,128,12074,1,0,0:0:0:0:
320,128,12136,1,0,0:0:0:0:
320,128,12199,1,8,0:0:0:0:
384,128,12294,1,8,0:0:0:0:
384,128,12388,1,8,0:0:0:0:
384,128,12482,1,8,0:0:0:0:
416,128,12577,1,4,0:0:0:0:
480,160,12765,1,0,0:0:0:0:
480,160,12828,1,0,0:0:0:0:
480,160,12891,1,0,0:0:0:0:
480,160,12954,1,8,0:0:0:0:
416,128,13048,1,0,0:0:0:0:
416,128,13143,1,8,0:0:0:0:
416,128,13237,1,8,0:0:0:0:
416,128,13331,1,0,0:0:0:0:
416,128,13426,1,8,0:0:0:0:
352,160,13520,1,0,0:0:0:0:
480,128,13614,1,0,0:0:0:0:
352,160,13709,1,8,0:0:0:0:
448,128,13772,1,8,0:0:0:0:
448,128,13835,1,8,0:0:0:0:
448,128,13897,1,8,0:0:0:0:
448,128,13960,1,8,0:0:0:0:
448,128,14023,1,8,0:0:0:0:
448,128,14086,1,4,0:0:0:0:
384,160,14275,1,0,0:0:0:0:
384,160,14369,1,0,0:0:0:0:
384,160,14463,1,8,0:0:0:0:
384,160,14558,1,0,0:0:0:0:
384,160,14652,1,8,0:0:0:0:
384,160,14746,1,8,0:0:0:0:
384,160,14841,1,0,0:0:0:0:
384,160,14935,1,8,0:0:0:0:
416,160,15030,1,0,0:0:0:0:
416,160,15092,1,0,0:0:0:0:
416,160,15155,1,0,0:0:0:0:
416,160,15218,1,8,0:0:0:0:
320,128,15313,1,8,0:0:0:0:
320,128,15407,1,8,0:0:0:0:
320,128,15501,1,8,0:0:0:0:
320,128,15596,1,4,0:0:0:0:
416,96,15784,1,0,0:0:0:0:
416,128,15847,1,0,0:0:0:0:
416,128,15910,1,0,0:0:0:0:
416,128,15973,1,8,0:0:0:0:
448,128,16067,1,0,0:0:0:0:
448,128,16162,1,8,0:0:0:0:
416,160,16224,1,8,0:0:0:0:
416,160,16287,1,8,0:0:0:0:
416,160,16350,1,0,0:0:0:0:
448,96,16445,1,8,0:0:0:0:
448,160,16539,1,0,0:0:0:0:
448,160,16602,1,0,0:0:0:0:
448,160,16665,1,0,0:0:0:0:
448,160,16728,1,8,0:0:0:0:
416,160,16916,1,8,0:0:0:0:
416,160,17011,1,8,0:0:0:0:
416,160,17105,1,4,0:0:0:0:
256,96,17294,1,0,0:0:0:0:
256,96,17388,1,0,0:0:0:0:
256,96,17482,1,8,0:0:0:0:
256,96,17671,1,0,0:0:0:0:
352,160,17955,1,8,0:0:0:0:
352,160,18049,1,0,0:0:0:0:
352,160,18238,1,8,0:0:0:0:
256,160,18331,1,0,0:0:0:0:
256,160,18426,1,0,0:0:0:0:
256,160,18614,1,4,0:0:0:0:
320,96,18803,1,0,0:0:0:0:
320,96,18897,1,0,0:0:0:0:
320,96,18992,1,8,0:0:0:0:
256,128,19086,1,8,0:0:0:0:
256,128,19180,1,0,0:0:0:0:
352,128,19369,1,0,0:0:0:0:
384,96,19558,1,8,0:0:0:0:
416,160,19621,1,0,0:0:0:0:
416,160,19684,1,0,0:0:0:0:
416,160,19746,1,8,0:0:0:0:
512,64,19841,1,8,0:0:0:0:
512,96,19935,1,8,0:0:0:0:
512,96,20030,1,8,0:0:0:0:
320,160,20124,1,4,0:0:0:0:
320,160,20313,1,8,0:0:0:0:
320,160,20407,1,0,0:0:0:0:
352,160,20596,1,8,0:0:0:0:
352,160,20690,1,0,0:0:0:0:
352,160,20784,1,0,0:0:0:0:
352,160,20879,1,0,0:0:0:0:
352,160,20973,1,8,0:0:0:0:
352,160,21067,1,0,0:0:0:0:
352,160,21256,1,8,0:0:0:0:
352,160,21350,1,8,0:0:0:0:
352,160,21445,1,0,0:0:0:0:
352,128,21539,1,0,0:0:0:0:
320,128,21728,1,0,0:0:0:0:
320,128,21822,1,0,0:0:0:0:
320,128,21916,1,0,0:0:0:0:
320,128,22011,1,8,0:0:0:0:
320,128,22105,1,8,0:0:0:0:
320,128,22199,1,0,0:0:0:0:
320,128,22294,1,0,0:0:0:0:
288,96,22388,1,8,0:0:0:0:
288,96,22482,1,0,0:0:0:0:
288,96,22577,1,0,0:0:0:0:
288,96,22671,1,8,0:0:0:0:
288,96,22765,1,0,0:0:0:0:
288,96,22860,1,8,0:0:0:0:
288,96,22954,1,8,0:0:0:0:
288,96,23048,1,8,0:0:0:0:
288,96,23143,1,4,0:0:0:0:
288,96,23331,1,8,0:0:0:0:
288,96,23426,1,0,0:0:0:0:
288,96,23614,1,0,0:0:0:0:
288,96,23709,1,8,0:0:0:0:
288,96,23803,1,0,0:0:0:0:
288,96,23897,1,0,0:0:0:0:
288,96,23992,1,8,0:0:0:0:
288,96,24086,1,0,0:0:0:0:
288,96,24275,1,8,0:0:0:0:
288,96,24369,1,0,0:0:0:0:
288,96,24463,1,0,0:0:0:0:
224,128,24841,1,0,0:0:0:0:
384,160,25124,1,8,0:0:0:0:
384,160,25218,1,0,0:0:0:0:
224,128,25313,1,0,0:0:0:0:
384,160,25407,1,8,0:0:0:0:
384,160,25501,1,0,0:0:0:0:
384,160,25690,1,0,0:0:0:0:
384,160,25784,1,8,0:0:0:0:
384,160,25879,1,8,0:0:0:0:
384,160,25973,1,0,0:0:0:0:
384,160,26067,1,0,0:0:0:0:
384,160,26162,1,8,0:0:0:0:
384,160,26256,1,0,0:0:0:0:
384,160,26350,1,0,0:0:0:0:
384,160,26445,1,8,0:0:0:0:
384,160,26539,1,0,0:0:0:0:
384,160,26633,1,0,0:0:0:0:
384,160,26728,1,8,0:0:0:0:
384,160,26822,1,0,0:0:0:0:
384,160,26916,1,0,0:0:0:0:
384,160,27011,1,0,0:0:0:0:
384,160,27105,1,8,0:0:0:0:
384,160,27199,1,0,0:0:0:0:
384,160,27294,1,0,0:0:0:0:
384,160,27388,1,8,0:0:0:0:
384,160,27482,1,8,0:0:0:0:
352,128,27577,1,0,0:0:0:0:
352,128,27671,1,8,0:0:0:0:
352,128,27765,1,0,0:0:0:0:
352,128,27860,1,8,0:0:0:0:
352,128,27954,1,8,0:0:0:0:
352,128,28048,1,0,0:0:0:0:
352,128,28143,1,8,0:0:0:0:
352,128,28237,1,8,0:0:0:0:
352,128,28331,1,0,0:0:0:0:
352,128,28426,1,8,0:0:0:0:
352,128,28520,1,8,0:0:0:0:
352,128,28614,1,0,0:0:0:0:
352,128,28709,1,8,0:0:0:0:
352,128,28803,1,0,0:0:0:0:
352,128,28897,1,8,0:0:0:0:
352,128,28992,1,8,0:0:0:0:
288,160,29086,1,8,0:0:0:0:
288,160,29180,1,4,0:0:0:0:
352,160,29369,1,8,0:0:0:0:
352,160,29432,1,8,0:0:0:0:
352,160,29495,1,8,0:0:0:0:
352,160,29558,1,0,0:0:0:0:
352,160,29746,1,0,0:0:0:0:
416,128,29841,1,0,0:0:0:0:
384,160,29935,1,8,0:0:0:0:
384,160,29998,1,8,0:0:0:0:
384,160,30061,1,0,0:0:0:0:
384,160,30124,1,0,0:0:0:0:
384,160,30313,1,0,0:0:0:0:
416,96,30501,1,8,0:0:0:0:
416,96,30564,1,8,0:0:0:0:
416,96,30627,1,8,0:0:0:0:
416,96,30690,1,0,0:0:0:0:
416,128,30879,1,0,0:0:0:0:
448,128,30973,1,0,0:0:0:0:
448,64,31067,1,8,0:0:0:0:
352,128,31130,1,8,0:0:0:0:
352,128,31193,1,0,0:0:0:0:
352,128,31256,1,0,0:0:0:0:
352,128,31445,1,4,0:0:0:0:
288,160,31633,1,0,0:0:0:0:
288,160,31728,1,0,0:0:0:0:
288,160,31822,1,0,0:0:0:0:
288,160,31916,1,0,0:0:0:0:
256,128,32011,1,12,0:0:0:0:
192,64,32294,1,0,0:0:0:0:
192,64,32388,1,0,0:0:0:0:
192,64,32482,1,0,0:0:0:0:
224,96,32577,1,8,0:0:0:0:
192,64,32765,1,0,0:0:0:0:
192,64,32860,1,0,0:0:0:0:
192,64,32954,1,0,0:0:0:0:
192,64,33048,1,0,0:0:0:0:
192,64,33143,1,8,0:0:0:0:
224,128,33331,1,8,0:0:0:0:
224,128,33426,1,0,0:0:0:0:
256,128,33520,1,0,0:0:0:0:
224,128,33614,1,0,0:0:0:0:
224,128,33709,1,12,0:0:0:0:
224,128,33803,1,0,0:0:0:0:
224,128,33897,1,0,0:0:0:0:
224,128,33992,1,0,0:0:0:0:
224,128,34086,1,12,0:0:0:0:
224,128,34180,1,0,0:0:0:0:
224,128,34275,1,0,0:0:0:0:
224,128,34369,1,0,0:0:0:0:
224,128,34463,1,12,0:0:0:0:
224,128,34558,1,0,0:0:0:0:
224,128,34652,1,0,0:0:0:0:
224,128,34746,1,0,0:0:0:0:
256,128,34841,1,12,0:0:0:0:
256,128,34935,1,8,0:0:0:0:
224,128,35030,1,0,0:0:0:0:
256,128,35124,1,0,0:0:0:0:
288,128,35218,1,12,0:0:0:0:
288,128,35313,1,0,0:0:0:0:
288,128,35407,1,0,0:0:0:0:
288,128,35501,1,8,0:0:0:0:
288,128,35596,1,12,0:0:0:0:
288,128,35690,1,0,0:0:0:0:
288,128,35784,1,0,0:0:0:0:
288,128,35879,1,8,0:0:0:0:
288,128,35973,1,12,0:0:0:0:
288,128,36067,1,0,0:0:0:0:
288,128,36162,1,0,0:0:0:0:
288,128,36256,1,8,0:0:0:0:
288,128,36350,1,12,0:0:0:0:
288,128,36445,1,0,0:0:0:0:
288,128,36539,1,0,0:0:0:0:
256,96,36633,1,8,0:0:0:0:
256,96,36822,1,0,0:0:0:0:
256,96,36916,1,0,0:0:0:0:
256,96,37011,1,0,0:0:0:0:
256,96,37105,1,8,0:0:0:0:
256,128,37199,1,0,0:0:0:0:
256,96,37388,1,8,0:0:0:0:
256,96,37482,1,0,0:0:0:0:
256,96,37577,1,0,0:0:0:0:
256,96,37671,1,0,0:0:0:0:
256,96,37765,1,0,0:0:0:0:
256,96,37860,1,8,0:0:0:0:
384,96,37954,1,8,0:0:0:0:
384,96,38048,1,0,0:0:0:0:
384,96,38143,1,8,0:0:0:0:
384,96,38237,1,4,0:0:0:0:
384,96,38331,1,0,0:0:0:0:
384,96,38426,1,0,0:0:0:0:
384,96,38520,1,0,0:0:0:0:
384,96,38614,1,12,0:0:0:0:
384,96,38709,1,0,0:0:0:0:
384,96,38803,1,0,0:0:0:0:
384,96,38897,1,0,0:0:0:0:
384,96,38992,1,12,0:0:0:0:
384,96,39086,1,8,0:0:0:0:
384,96,39180,1,0,0:0:0:0:
384,96,39275,1,0,0:0:0:0:
384,96,39369,1,12,0:0:0:0:
320,64,39463,1,0,0:0:0:0:
320,64,39558,1,0,0:0:0:0:
384,128,39621,1,0,0:0:0:0:
384,128,39684,1,0,0:0:0:0:
384,128,39746,1,12,0:0:0:0:
416,128,39809,1,0,0:0:0:0:
416,128,39872,1,0,0:0:0:0:
416,128,39935,1,8,0:0:0:0:
416,128,39998,1,0,0:0:0:0:
416,128,40061,1,0,0:0:0:0:
416,128,40124,1,0,0:0:0:0:
416,128,40187,1,8,0:0:0:0:
416,128,40250,1,0,0:0:0:0:
416,128,40313,1,8,0:0:0:0:
416,128,40375,1,0,0:0:0:0:
416,128,40438,1,0,0:0:0:0:
416,128,40501,1,8,0:0:0:0:
416,128,40564,1,8,0:0:0:0:
416,128,40627,1,0,0:0:0:0:
416,128,40690,1,0,0:0:0:0:
416,128,40753,1,0,0:0:0:0:
256,160,40816,1,0,0:0:0:0:
416,128,40879,1,8,0:0:0:0:
416,128,40941,1,8,0:0:0:0:
256,160,41004,1,0,0:0:0:0:
416,128,41067,1,0,0:0:0:0:
416,128,41130,1,8,0:0:0:0:
416,128,41193,1,8,0:0:0:0:
416,128,41256,1,4,0:0:0:0:
224,96,41445,1,0,0:0:0:0:
224,96,41539,1,0,0:0:0:0:
224,96,41633,1,8,0:0:0:0:
224,96,41728,1,0,0:0:0:0:
224,96,41822,1,8,0:0:0:0:
224,96,41916,1,8,0:0:0:0:
224,96,42011,1,0,0:0:0:0:
224,96,42105,1,8,0:0:0:0:
224,96,42199,1,0,0:0:0:0:
224,96,42388,1,8,0:0:0:0:
224,96,42577,1,8,0:0:0:0:
224,96,42671,1,8,0:0:0:0:
224,160,42765,1,4,0:0:0:0:
256,128,42954,1,0,0:0:0:0:
256,128,43048,1,0,0:0:0:0:
256,128,43143,1,8,0:0:0:0:
256,128,43237,1,0,0:0:0:0:
256,128,43331,1,8,0:0:0:0:
256,128,43426,1,8,0:0:0:0:
256,128,43520,1,0,0:0:0:0:
256,128,43614,1,8,0:0:0:0:
256,128,43709,1,0,0:0:0:0:
256,128,43803,1,0,0:0:0:0:
256,128,43897,1,8,0:0:0:0:
256,128,43992,1,8,0:0:0:0:
256,128,44086,1,8,0:0:0:0:
256,128,44180,1,8,0:0:0:0:
256,128,44275,1,4,0:0:0:0:
288,96,44463,1,0,0:0:0:0:
288,96,44558,1,0,0:0:0:0:
288,96,44652,1,8,0:0:0:0:
288,96,44746,1,0,0:0:0:0:
288,96,44841,1,8,0:0:0:0:
288,96,44935,1,8,0:0:0:0:
288,96,45030,1,0,0:0:0:0:
288,96,45124,1,8,0:0:0:0:
288,96,45218,1,0,0:0:0:0:
288,96,45407,1,8,0:0:0:0:
288,96,45596,1,8,0:0:0:0:
288,96,45690,1,8,0:0:0:0:
288,96,45784,1,4,0:0:0:0:
288,96,45973,1,0,0:0:0:0:
288,96,46067,1,0,0:0:0:0:
288,96,46162,1,8,0:0:0:0:
288,96,46256,1,0,0:0:0:0:
288,96,46350,1,8,0:0:0:0:
288,96,46445,1,8,0:0:0:0:
288,96,46539,1,0,0:0:0:0:
288,96,46633,1,8,0:0:0:0:
288,96,46728,1,0,0:0:0:0:
288,96,46822,1,0,0:0:0:0:
288,96,46916,1,8,0:0:0:0:
288,96,47011,1,8,0:0:0:0:
416,128,47105,1,8,0:0:0:0:
384,96,47168,1,8,0:0:0:0:
384,96,47231,1,8,0:0:0:0:
384,96,47294,1,4,0:0:0:0:
352,160,47388,1,8,0:0:0:0:
352,160,47482,1,0,0:0:0:0:
352,160,47577,1,0,0:0:0:0:
352,160,47671,1,8,0:0:0:0:
352,160,47765,1,0,0:0:0:0:
352,160,47860,1,8,0:0:0:0:
352,160,47954,1,8,0:0:0:0:
352,160,48048,1,0,0:0:0:0:
352,160,48143,1,8,0:0:0:0:
352,160,48237,1,0,0:0:0:0:
384,128,48300,1,0,0:0:0:0:
384,128,48363,1,0,0:0:0:0:
384,128,48426,1,8,0:0:0:0:
416,64,48520,1,8,0:0:0:0:
416,96,48614,1,8,0:0:0:0:
320,128,48677,1,8,0:0:0:0:
320,128,48740,1,8,0:0:0:0:
416,128,48803,1,4,0:0:0:0:
384,128,48897,1,8,0:0:0:0:
384,128,48992,1,0,0:0:0:0:
480,128,49055,1,0,0:0:0:0:
480,128,49118,1,0,0:0:0:0:
480,128,49180,1,8,0:0:0:0:
416,160,49275,1,0,0:0:0:0:
416,160,49369,1,8,0:0:0:0:
416,160,49463,1,8,0:0:0:0:
384,192,49558,1,0,0:0:0:0:
384,192,49652,1,8,0:0:0:0:
384,192,49746,1,0,0:0:0:0:
448,96,49809,1,0,0:0:0:0:
448,128,49872,1,0,0:0:0:0:
448,128,49935,1,8,0:0:0:0:
384,128,50030,1,8,0:0:0:0:
416,192,50124,1,8,0:0:0:0:
384,160,50187,1,8,0:0:0:0:
384,160,50250,1,8,0:0:0:0:
384,160,50313,1,4,0:0:0:0:
416,128,50407,1,8,0:0:0:0:
384,160,50501,1,0,0:0:0:0:
384,160,50564,1,0,0:0:0:0:
384,160,50627,1,0,0:0:0:0:
384,160,50690,1,8,0:0:0:0:
320,160,50784,1,0,0:0:0:0:
480,160,50879,1,8,0:0:0:0:
480,160,50941,1,8,0:0:0:0:
480,160,51004,1,8,0:0:0:0:
480,160,51067,1,0,0:0:0:0:
416,96,51162,1,8,0:0:0:0:
448,128,51256,1,0,0:0:0:0:
448,128,51319,1,0,0:0:0:0:
448,128,51382,1,0,0:0:0:0:
448,128,51445,1,8,0:0:0:0:
480,160,51539,1,8,0:0:0:0:
384,160,51633,1,8,0:0:0:0:
384,160,51696,1,8,0:0:0:0:
384,160,51759,1,8,0:0:0:0:
384,160,51822,1,4,0:0:0:0:
384,160,51916,1,8,0:0:0:0:
384,160,52011,1,0,0:0:0:0:
384,160,52105,1,0,0:0:0:0:
384,160,52199,1,8,0:0:0:0:
384,160,52294,1,0,0:0:0:0:
384,160,52388,1,8,0:0:0:0:
384,160,52482,1,8,0:0:0:0:
384,160,52577,1,0,0:0:0:0:
384,160,52671,1,8,0:0:0:0:
384,160,52765,1,8,0:0:0:0:
384,160,52860,1,0,0:0:0:0:
384,128,52954,1,8,0:0:0:0:
384,128,53048,1,0,0:0:0:0:
384,128,53143,1,8,0:0:0:0:
384,128,53237,1,8,0:0:0:0:
384,128,53331,1,4,0:0:0:0:
256,160,53520,1,0,0:0:0:0:
256,160,53614,1,0,0:0:0:0:
256,160,53709,1,8,0:0:0:0:
256,160,53897,1,0,0:0:0:0:
256,160,53992,1,0,0:0:0:0:
256,160,54086,1,8,0:0:0:0:
256,160,54180,1,8,0:0:0:0:
256,160,54275,1,0,0:0:0:0:
256,160,54463,1,8,0:0:0:0:
256,160,54558,1,0,0:0:0:0:
320,128,54746,1,0,0:0:0:0:
352,128,54935,1,0,0:0:0:0:
352,128,55030,1,0,0:0:0:0:
352,128,55124,1,0,0:0:0:0:
352,128,55218,1,8,0:0:0:0:
352,128,55313,1,8,0:0:0:0:
352,128,55407,1,0,0:0:0:0:
352,128,55501,1,0,0:0:0:0:
352,128,55596,1,8,0:0:0:0:
352,128,55690,1,0,0:0:0:0:
352,128,55784,1,8,0:0:0:0:
352,128,55879,1,8,0:0:0:0:
352,128,55973,1,0,0:0:0:0:
352,128,56067,1,8,0:0:0:0:
352,128,56162,1,0,0:0:0:0:
224,128,56350,1,0,0:0:0:0:
352,160,56539,1,0,0:0:0:0:
352,160,56633,1,0,0:0:0:0:
352,160,56728,1,8,0:0:0:0:
352,160,56822,1,0,0:0:0:0:
352,160,57011,1,0,0:0:0:0:
352,160,57105,1,0,0:0:0:0:
352,160,57199,1,8,0:0:0:0:
352,160,57294,1,0,0:0:0:0:
352,160,57388,1,0,0:0:0:0:
352,160,57482,1,8,0:0:0:0:
192,160,57577,1,0,0:0:0:0:
224,96,57765,1,0,0:0:0:0:
224,96,57860,1,8,0:0:0:0:
320,160,58048,1,0,0:0:0:0:
320,160,58143,1,0,0:0:0:0:
320,160,58237,1,8,0:0:0:0:
320,160,58331,1,0,0:0:0:0:
320,160,58520,1,0,0:0:0:0:
256,160,58709,1,0,0:0:0:0:
256,160,58803,1,0,0:0:0:0:
256,160,58897,1,0,0:0:0:0:
256,160,58992,1,8,0:0:0:0:
256,160,59086,1,8,0:0:0:0:
256,160,59180,1,0,0:0:0:0:
288,160,59275,1,8,0:0:0:0:
288,160,59369,1,4,0:0:0:0:
288,160,59463,1,8,0:0:0:0:
288,160,59558,1,0,0:0:0:0:
288,160,59652,1,0,0:0:0:0:
288,160,59746,1,8,0:0:0:0:
288,96,59935,1,0,0:0:0:0:
288,96,60030,1,0,0:0:0:0:
288,96,60124,1,8,0:0:0:0:
288,96,60218,1,8,0:0:0:0:
288,96,60313,1,0,0:0:0:0:
288,96,60407,1,8,0:0:0:0:
288,96,60596,1,8,0:0:0:0:
288,96,60690,1,0,0:0:0:0:
288,96,60784,1,0,0:0:0:0:
288,96,60879,1,8,0:0:0:0:
288,96,60973,1,0,0:0:0:0:
288,96,61067,1,0,0:0:0:0:
352,160,61162,1,0,0:0:0:0:
352,160,61256,1,8,0:0:0:0:
352,160,61350,1,0,0:0:0:0:
288,96,61445,1,0,0:0:0:0:
384,160,61539,1,8,0:0:0:0:
384,160,61633,1,0,0:0:0:0:
288,128,61728,1,8,0:0:0:0:
384,160,61822,1,8,0:0:0:0:
384,160,61916,1,0,0:0:0:0:
384,160,62011,1,8,0:0:0:0:
320,96,62199,1,0,0:0:0:0:
320,96,62294,1,8,0:0:0:0:
320,96,62388,1,0,0:0:0:0:
320,96,62482,1,0,0:0:0:0:
320,96,62671,1,8,0:0:0:0:
320,96,62765,1,0,0:0:0:0:
320,96,62954,1,0,0:0:0:0:
320,96,63048,1,0,0:0:0:0:
320,96,63237,1,8,0:0:0:0:
320,96,63331,1,0,0:0:0:0:
320,96,63520,1,8,0:0:0:0:
320,96,63614,1,0,0:0:0:0:
320,96,63803,1,0,0:0:0:0:
320,96,63897,1,0,0:0:0:0:
320,96,64086,1,0,0:0:0:0:
320,96,64180,1,0,0:0:0:0:
320,96,64275,1,0,0:0:0:0:
320,96,64369,1,8,0:0:0:0:
320,96,64463,1,0,0:0:0:0:
320,96,64558,1,0,0:0:0:0:
384,128,64652,1,8,0:0:0:0:
384,128,64715,1,8,0:0:0:0:
384,128,64778,1,8,0:0:0:0:
384,128,64841,1,8,0:0:0:0:
384,128,64904,1,8,0:0:0:0:
384,128,64967,1,8,0:0:0:0:
384,128,65030,1,8,0:0:0:0:
384,128,65092,1,8,0:0:0:0:
384,128,65155,1,8,0:0:0:0:
416,128,65218,1,8,0:0:0:0:
448,160,65313,1,0,0:0:0:0:
352,96,65407,1,12,0:0:0:0:
416,128,65596,1,8,0:0:0:0:
416,128,65690,1,0,0:0:0:0:
416,128,65784,1,8,0:0:0:0:
416,128,65879,1,8,0:0:0:0:
416,128,65973,1,8,0:0:0:0:
416,128,66067,1,0,0:0:0:0:
416,128,66162,1,0,0:0:0:0:
416,128,66256,1,8,0:0:0:0:
416,128,66413,1,8,0:0:0:0:
384,128,66633,1,8,0:0:0:0:
384,128,66728,1,8,0:0:0:0:
384,128,66822,1,0,0:0:0:0:
384,128,66916,1,8,0:0:0:0:
384,128,67105,1,8,0:0:0:0:
384,128,67199,1,0,0:0:0:0:
384,128,67294,1,8,0:0:0:0:
384,128,67388,1,8,0:0:0:0:
384,128,67482,1,8,0:0:0:0:
384,128,67577,1,0,0:0:0:0:
384,128,67671,1,8,0:0:0:0:
384,192,67765,1,0,0:0:0:0:
384,192,67923,1,8,0:0:0:0:
384,224,68300,1,8,0:0:0:0:
384,224,68426,1,0,0:0:0:0:
384,224,68614,1,0,0:0:0:0:
384,224,68803,1,8,0:0:0:0:
384,224,68929,1,0,0:0:0:0:
384,224,69118,1,0,0:0:0:0:
384,224,69369,1,8,0:0:0:0:
256,160,69463,1,8,0:0:0:0:
256,160,69558,1,0,0:0:0:0:
384,224,69652,1,0,0:0:0:0:
352,160,69841,1,0,0:0:0:0:
352,160,69935,1,8,0:0:0:0:
352,160,70124,1,0,0:0:0:0:
352,160,70218,1,0,0:0:0:0:
352,160,70313,1,8,0:0:0:0:
352,160,70407,1,8,0:0:0:0:
352,160,70501,1,0,0:0:0:0:
352,160,70596,1,0,0:0:0:0:
352,160,70690,1,8,0:0:0:0:
352,160,70784,1,8,0:0:0:0:
352,160,70879,1,0,0:0:0:0:
352,160,71067,1,0,0:0:0:0:
352,160,71162,1,8,0:0:0:0:
352,160,71256,1,0,0:0:0:0:
352,160,71350,1,8,0:0:0:0:
352,160,71445,1,4,0:0:0:0:
352,160,71633,1,0,0:0:0:0:
352,160,71728,1,0,0:0:0:0:
352,160,71822,1,4,0:0:0:0:
352,160,72011,1,0,0:0:0:0:
352,160,72105,1,0,0:0:0:0:
352,160,72199,1,4,0:0:0:0:
352,160,72388,1,0,0:0:0:0:
352,160,72482,1,0,0:0:0:0:
352,160,72577,1,12,0:0:0:0:
352,160,72765,1,8,0:0:0:0:
352,160,72860,1,8,0:0:0:0:
352,160,72954,1,12,0:0:0:0:
352,160,73143,1,8,0:0:0:0:
352,160,73237,1,8,0:0:0:0:
352,160,73331,1,12,0:0:0:0:
352,160,73520,1,8,0:0:0:0:
352,160,73614,1,8,0:0:0:0:
352,160,73709,1,4,0:0:0:0:
32,160,73897,1,0,0:0:0:0:
224,64,74086,1,0,0:0:0:0:
256,96,74275,1,0,0:0:0:0:
288,128,74463,1,12,0:0:0:0:
288,128,74558,1,0,0:0:0:0:
288,128,74652,1,0,0:0:0:0:
288,128,74746,1,8,0:0:0:0:
288,128,74841,1,8,0:0:0:0:
288,128,74935,1,0,0:0:0:0:
288,128,75030,1,0,0:0:0:0:
288,128,75124,1,8,0:0:0:0:
416,160,75218,1,12,0:0:0:0:
416,160,75313,1,0,0:0:0:0:
416,160,75407,1,0,0:0:0:0:
416,160,75501,1,8,0:0:0:0:
416,160,75596,1,8,0:0:0:0:
416,160,75690,1,0,0:0:0:0:
416,160,75784,1,0,0:0:0:0:
416,160,75879,1,8,0:0:0:0:
416,160,75973,1,12,0:0:0:0:
416,160,76067,1,0,0:0:0:0:
416,160,76162,1,0,0:0:0:0:
416,160,76256,1,0,0:0:0:0:
416,160,76350,1,12,0:0:0:0:
416,160,76445,1,0,0:0:0:0:
416,160,76539,1,0,0:0:0:0:
416,160,76633,1,0,0:0:0:0:
416,160,76728,1,12,0:0:0:0:
416,160,76822,1,0,0:0:0:0:
416,160,76916,1,0,0:0:0:0:
416,160,77011,1,0,0:0:0:0:
384,160,77105,1,12,0:0:0:0:
480,128,77168,1,8,0:0:0:0:
480,128,77231,1,8,0:0:0:0:
480,128,77294,1,8,0:0:0:0:
480,128,77357,1,8,0:0:0:0:
480,128,77419,1,8,0:0:0:0:
480,128,77482,1,4,0:0:0:0:
256,96,77671,1,0,0:0:0:0:
256,96,77765,1,0,0:0:0:0:
256,96,77860,1,8,0:0:0:0:
256,96,77954,1,0,0:0:0:0:
256,96,78048,1,8,0:0:0:0:
256,96,78143,1,8,0:0:0:0:
288,96,78237,1,0,0:0:0:0:
288,96,78331,1,0,0:0:0:0:
288,96,78426,1,8,0:0:0:0:
288,96,78614,1,4,0:0:0:0:
288,96,78803,1,8,0:0:0:0:
288,96,78897,1,8,0:0:0:0:
288,96,78992,1,4,0:0:0:0:
384,128,79180,1,0,0:0:0:0:
384,128,79275,1,0,0:0:0:0:
384,128,79369,1,8,0:0:0:0:
384,128,79463,1,0,0:0:0:0:
384,128,79558,1,8,0:0:0:0:
384,128,79652,1,8,0:0:0:0:
384,128,79746,1,0,0:0:0:0:
384,128,79841,1,0,0:0:0:0:
384,128,79935,1,8,0:0:0:0:
384,128,80124,1,4,0:0:0:0:
384,128,80313,1,8,0:0:0:0:
384,128,80407,1,8,0:0:0:0:
384,128,80501,1,4,0:0:0:0:
384,128,80690,1,0,0:0:0:0:
384,128,80784,1,0,0:0:0:0:
384,128,80879,1,8,0:0:0:0:
384,128,80973,1,0,0:0:0:0:
384,128,81067,1,8,0:0:0:0:
384,128,81162,1,8,0:0:0:0:
384,128,81256,1,0,0:0:0:0:
384,128,81350,1,8,0:0:0:0:
384,128,81445,1,0,0:0:0:0:
384,128,81539,1,0,0:0:0:0:
384,128,81633,1,8,0:0:0:0:
384,128,81728,1,8,0:0:0:0:
384,128,81822,1,0,0:0:0:0:
384,128,81916,1,8,0:0:0:0:
384,128,82011,1,4,0:0:0:0:
384,128,82199,1,0,0:0:0:0:
288,96,82294,1,0,0:0:0:0:
288,96,82388,1,8,0:0:0:0:
288,96,82482,1,0,0:0:0:0:
288,96,82577,1,8,0:0:0:0:
288,96,82671,1,8,0:0:0:0:
288,96,82765,1,0,0:0:0:0:
288,96,82860,1,8,0:0:0:0:
288,96,82954,1,8,0:0:0:0:
288,96,83048,1,0,0:0:0:0:
288,96,83143,1,8,0:0:0:0:
288,96,83237,1,8,0:0:0:0:
288,96,83331,1,0,0:0:0:0:
288,96,83426,1,8,0:0:0:0:
288,96,83520,1,4,0:0:0:0:
288,96,83709,1,0,0:0:0:0:
288,96,83803,1,0,0:0:0:0:
288,96,83897,1,8,0:0:0:0:
288,96,83992,1,0,0:0:0:0:
288,96,84086,1,8,0:0:0:0:
288,96,84180,1,8,0:0:0:0:
288,96,84275,1,0,0:0:0:0:
288,96,84369,1,0,0:0:0:0:
288,96,84463,1,8,0:0:0:0:
288,96,84652,1,4,0:0:0:0:
288,96,84841,1,8,0:0:0:0:
288,96,84935,1,8,0:0:0:0:
288,96,85030,1,4,0:0:0:0:
288,96,85218,1,0,0:0:0:0:
288,96,85313,1,0,0:0:0:0:
288,96,85407,1,8,0:0:0:0:
288,96,85501,1,0,0:0:0:0:
288,96,85596,1,8,0:0:0:0:
288,96,85690,1,8,0:0:0:0:
288,96,85784,1,0,0:0:0:0:
288,96,85879,1,0,0:0:0:0:
288,96,85973,1,8,0:0:0:0:
288,96,86162,1,4,0:0:0:0:
288,96,86350,1,8,0:0:0:0:
288,96,86445,1,8,0:0:0:0:
288,96,86539,1,4,0:0:0:0:
288,96,86728,1,0,0:0:0:0:
288,96,86822,1,0,0:0:0:0:
288,96,86916,1,8,0:0:0:0:
288,96,87011,1,0,0:0:0:0:
288,96,87105,1,8,0:0:0:0:
288,96,87199,1,8,0:0:0:0:
288,96,87294,1,0,0:0:0:0:
288,96,87388,1,0,0:0:0:0:
288,96,87482,1,8,0:0:0:0:
288,96,87577,1,0,0:0:0:0:
288,96,87671,1,8,0:0:0:0:
288,96,87765,1,8,0:0:0:0:
288,96,87860,1,0,0:0:0:0:
288,96,87954,1,0,0:0:0:0:
288,96,88048,1,12,0:0:0:0:
288,96,88143,1,8,0:0:0:0:
288,96,88237,1,0,0:0:0:0:
288,96,88331,1,0,0:0:0:0:
288,96,88426,1,12,0:0:0:0:
288,96,88520,1,8,0:0:0:0:
288,96,88614,1,0,0:0:0:0:
288,96,88709,1,0,0:0:0:0:
288,96,88803,1,12,0:0:0:0:
288,96,88897,1,0,0:0:0:0:
288,96,88992,1,0,0:0:0:0:
288,96,89086,1,0,0:0:0:0:
288,96,89180,1,12,0:0:0:0:
288,96,89275,1,8,0:0:0:0:
288,96,89369,1,8,0:0:0:0:
288,96,89463,1,8,0:0:0:0:
288,96,89558,1,4,0:0:0:0:
416,160,89746,1,0,0:0:0:0:
416,160,89841,1,0,0:0:0:0:
416,160,89935,1,8,0:0:0:0:
416,160,90030,1,8,0:0:0:0:
416,160,90124,1,0,0:0:0:0:
416,160,90218,1,0,0:0:0:0:
416,160,90313,1,8,0:0:0:0:
416,160,90407,1,0,0:0:0:0:
416,160,90501,1,0,0:0:0:0:
416,160,90596,1,8,0:0:0:0:
416,160,90690,1,8,0:0:0:0:
416,160,90784,1,0,0:0:0:0:
416,160,90879,1,0,0:0:0:0:
416,160,90973,1,8,0:0:0:0:
416,160,91067,1,0,0:0:0:0:
416,160,91162,1,0,0:0:0:0:
416,160,91256,1,0,0:0:0:0:
416,160,91350,1,8,0:0:0:0:
416,160,91445,1,8,0:0:0:0:
416,160,91539,1,0,0:0:0:0:
416,160,91633,1,8,0:0:0:0:
416,160,91728,1,8,0:0:0:0:
416,160,91822,1,0,0:0:0:0:
416,160,91916,1,0,0:0:0:0:
416,160,92011,1,0,0:0:0:0:
416,160,92105,1,0,0:0:0:0:
416,160,92199,1,8,0:0:0:0:
352,128,92388,1,8,0:0:0:0:
352,128,92482,1,8,0:0:0:0:
352,128,92577,1,0,0:0:0:0:
352,128,92671,1,0,0:0:0:0:
352,128,92765,1,0,0:0:0:0:
352,128,92860,1,0,0:0:0:0:
352,128,92954,1,0,0:0:0:0:
352,128,93048,1,8,0:0:0:0:
352,128,93143,1,8,0:0:0:0:
352,128,93237,1,0,0:0:0:0:
352,128,93331,1,8,0:0:0:0:
352,128,93520,1,0,0:0:0:0:
352,128,93614,1,0,0:0:0:0:
352,128,93709,1,0,0:0:0:0:
352,128,93803,1,0,0:0:0:0:
352,128,93897,1,8,0:0:0:0:
352,128,93992,1,8,0:0:0:0:
352,128,94086,1,4,0:0:0:0:
352,128,94463,1,4,0:0:0:0:
352,128,94841,1,4,0:0:0:0:
352,128,95218,1,4,0:0:0:0:
352,128,95407,1,8,0:0:0:0:
352,128,95501,1,8,0:0:0:0:
352,128,95596,1,4,0:0:0:0:
192,96,95784,1,0,0:0:0:0:
192,128,95879,1,0,0:0:0:0:
192,128,95973,1,8,0:0:0:0:
192,128,96067,1,0,0:0:0:0:
192,128,96162,1,0,0:0:0:0:
416,128,96256,1,8,0:0:0:0:
416,128,96350,1,0,0:0:0:0:
416,128,96445,1,8,0:0:0:0:
416,128,96539,1,0,0:0:0:0:
416,128,96633,1,0,0:0:0:0:
416,128,96728,1,8,0:0:0:0:
384,160,96822,1,0,0:0:0:0:
384,160,96916,1,0,0:0:0:0:
384,160,97011,1,8,0:0:0:0:
384,160,97105,1,0,0:0:0:0:
384,160,97199,1,0,0:0:0:0:
384,160,97294,1,0,0:0:0:0:
384,160,97388,1,0,0:0:0:0:
384,160,97482,1,8,0:0:0:0:
384,160,97577,1,0,0:0:0:0:
384,160,97671,1,0,0:0:0:0:
384,160,97765,1,8,0:0:0:0:
384,160,97860,1,0,0:0:0:0:
384,160,97954,1,8,0:0:0:0:
384,160,98048,1,0,0:0:0:0:
384,160,98143,1,0,0:0:0:0:
384,160,98237,1,8,0:0:0:0:
384,160,98331,1,0,0:0:0:0:
384,160,98426,1,0,0:0:0:0:
384,160,98520,1,8,0:0:0:0:
320,160,98614,1,0,0:0:0:0:
320,160,98709,1,0,0:0:0:0:
320,160,98803,1,0,0:0:0:0:
320,160,98897,1,0,0:0:0:0:
320,160,98992,1,8,0:0:0:0:
320,160,99086,1,0,0:0:0:0:
320,160,99180,1,0,0:0:0:0:
320,160,99275,1,8,0:0:0:0:
320,160,99369,1,0,0:0:0:0:
320,160,99463,1,8,0:0:0:0:
320,160,99558,1,0,0:0:0:0:
320,160,99652,1,0,0:0:0:0:
320,160,99746,1,8,0:0:0:0:
320,160,99841,1,0,0:0:0:0:
320,160,99935,1,0,0:0:0:0:
320,160,100030,1,8,0:0:0:0:
320,160,100124,1,0,0:0:0:0:
320,160,100218,1,0,0:0:0:0:
320,160,100313,1,8,0:0:0:0:
320,160,100407,1,0,0:0:0:0:
320,160,100501,1,8,0:0:0:0:
288,128,100596,1,0,0:0:0:0:
288,128,100690,1,0,0:0:0:0:
288,128,100784,1,8,0:0:0:0:
288,128,100879,1,0,0:0:0:0:
352,160,100973,1,0,0:0:0:0:
352,160,101067,1,8,0:0:0:0:
352,160,101162,1,0,0:0:0:0:
384,160,101256,1,8,0:0:0:0:
384,160,101350,1,8,0:0:0:0:
384,160,101445,1,0,0:0:0:0:
384,160,101539,1,8,0:0:0:0:
288,32,101633,1,0,0:0:0:0:
288,64,101728,1,0,0:0:0:0:
192,96,101822,1,0,0:0:0:0:
192,128,101917,1,0,0:0:0:0:
192,128,102011,1,8,0:0:0:0:
192,128,102105,1,0,0:0:0:0:
192,128,102200,1,0,0:0:0:0:
416,128,102294,1,8,0:0:0:0:
416,128,102388,1,0,0:0:0:0:
416,128,102483,1,8,0:0:0:0:
416,128,102577,1,0,0:0:0:0:
416,128,102671,1,0,0:0:0:0:
416,128,102766,1,8,0:0:0:0:
384,160,102860,1,0,0:0:0:0:
384,160,102954,1,0,0:0:0:0:
384,160,103049,1,8,0:0:0:0:
384,160,103143,1,0,0:0:0:0:
384,160,103237,1,0,0:0:0:0:
384,160,103332,1,0,0:0:0:0:
384,160,103426,1,0,0:0:0:0:
384,160,103520,1,8,0:0:0:0:
384,160,103615,1,0,0:0:0:0:
384,160,103709,1,0,0:0:0:0:
384,160,103803,1,8,0:0:0:0:
384,160,103898,1,0,0:0:0:0:
384,160,103992,1,8,0:0:0:0:
384,160,104086,1,0,0:0:0:0:
384,160,104181,1,0,0:0:0:0:
384,160,104275,1,8,0:0:0:0:
480,96,104338,1,0,0:0:0:0:
224,128,104401,1,8,0:0:0:0:
448,128,104463,1,0,0:0:0:0:
256,128,104511,1,8,0:0:0:0:
256,128,104558,1,8,0:0:0:0:
256,128,104605,1,8,0:0:0:0:
160,160,104652,1,0,0:0:0:0:
192,96,104715,1,0,0:0:0:0:
192,64,104778,1,8,0:0:0:0:
192,96,104841,1,0,0:0:0:0:
192,96,104904,1,8,0:0:0:0:
192,96,104967,1,0,0:0:0:0:
384,160,105030,1,0,0:0:0:0:
320,160,105092,1,0,0:0:0:0:
320,160,105155,1,0,0:0:0:0:
320,160,105218,1,8,0:0:0:0:
320,160,105281,1,8,0:0:0:0:
320,160,105344,1,8,0:0:0:0:
320,160,105407,1,0,0:0:0:0:
352,96,105470,1,8,0:0:0:0:
352,96,105533,1,8,0:0:0:0:
352,96,105596,1,0,0:0:0:0:
352,96,105658,1,8,0:0:0:0:
352,96,105721,1,0,0:0:0:0:
352,96,105784,1,0,0:0:0:0:
448,128,105831,1,0,0:0:0:0:
448,128,105879,1,8,0:0:0:0:
448,128,105973,1,8,0:0:0:0:
448,128,106020,1,8,0:0:0:0:
448,128,106067,1,8,0:0:0:0:
448,128,106114,1,8,0:0:0:0:
448,128,106162,1,4,0:0:0:0:
320,128,106256,1,0,0:0:0:0:
320,128,106350,1,0,0:0:0:0:
320,128,106445,1,0,0:0:0:0:
320,128,106539,1,8,0:0:0:0:
320,128,106633,1,0,0:0:0:0:
320,128,106728,1,0,0:0:0:0:
320,128,106822,1,8,0:0:0:0:
448,192,106916,1,0,0:0:0:0:
448,192,107011,1,0,0:0:0:0:
448,192,107105,1,8,0:0:0:0:
448,192,107199,1,8,0:0:0:0:
448,192,107294,1,8,0:0:0:0:
448,192,107388,1,8,0:0:0:0:
448,192,107482,1,8,0:0:0:0:
448,192,107577,1,8,0:0:0:0:
448,192,107671,1,4,0:0:0:0:
384,128,107860,1,0,0:0:0:0:
384,128,107954,1,0,0:0:0:0:
384,128,108048,1,8,0:0:0:0:
384,128,108237,1,0,0:0:0:0:
288,160,108520,1,8,0:0:0:0:
288,160,108614,1,0,0:0:0:0:
288,160,108803,1,8,0:0:0:0:
288,160,108992,1,0,0:0:0:0:
352,160,109086,1,0,0:0:0:0:
352,160,109180,1,0,0:0:0:0:
288,160,109369,1,0,0:0:0:0:
384,96,109463,1,0,0:0:0:0:
256,160,109557,1,8,0:0:0:0:
384,96,109652,1,0,0:0:0:0:
224,64,109841,1,0,0:0:0:0:
352,128,110030,1,0,0:0:0:0:
352,128,110124,1,8,0:0:0:0:
352,128,110218,1,0,0:0:0:0:
352,128,110313,1,8,0:0:0:0:
256,128,110501,1,8,0:0:0:0:
256,128,110596,1,8,0:0:0:0:
256,128,110690,1,0,0:0:0:0:
256,128,110784,1,0,0:0:0:0:
256,128,110879,1,8,0:0:0:0:
256,128,110973,1,0,0:0:0:0:
384,96,111162,1,0,0:0:0:0:
384,96,111256,1,8,0:0:0:0:
384,96,111350,1,0,0:0:0:0:
384,96,111445,1,0,0:0:0:0:
384,96,111539,1,0,0:0:0:0:
384,96,111633,1,8,0:0:0:0:
384,96,111822,1,0,0:0:0:0:
384,96,111916,1,0,0:0:0:0:
384,96,112011,1,8,0:0:0:0:
384,96,112105,1,0,0:0:0:0:
384,96,112294,1,0,0:0:0:0:
384,96,112388,1,8,0:0:0:0:
384,96,112482,1,0,0:0:0:0:
384,96,112577,1,0,0:0:0:0:
384,96,112671,1,0,0:0:0:0:
384,96,112765,1,8,0:0:0:0:
384,96,112860,1,0,0:0:0:0:
384,96,112954,1,8,0:0:0:0:
384,96,113048,1,8,0:0:0:0:
384,96,113143,1,0,0:0:0:0:
384,96,113237,1,8,0:0:0:0:
384,96,113331,1,8,0:0:0:0:
384,96,113426,1,0,0:0:0:0:
320,128,113614,1,0,0:0:0:0:
320,128,113709,1,0,0:0:0:0:
256,128,113897,1,0,0:0:0:0:
256,128,113992,1,0,0:0:0:0:
256,128,114086,1,8,0:0:0:0:
288,160,114275,1,0,0:0:0:0:
288,160,114369,1,0,0:0:0:0:
288,160,114463,1,0,0:0:0:0:
288,160,114558,1,8,0:0:0:0:
288,160,114652,1,0,0:0:0:0:
288,160,114746,1,8,0:0:0:0:
288,160,114841,1,8,0:0:0:0:
288,160,114935,1,0,0:0:0:0:
288,160,115030,1,0,0:0:0:0:
320,128,115407,1,0,0:0:0:0:
320,128,115596,1,0,0:0:0:0:
320,128,115690,1,8,0:0:0:0:
320,128,115879,1,8,0:0:0:0:
320,128,115973,1,8,0:0:0:0:
320,128,116067,1,0,0:0:0:0:
320,128,116162,1,0,0:0:0:0:
320,128,116256,1,8,0:0:0:0:
320,128,116350,1,0,0:0:0:0:
320,128,116445,1,0,0:0:0:0:
320,128,116539,1,8,0:0:0:0:
320,128,116633,1,0,0:0:0:0:
320,128,116728,1,8,0:0:0:0:
320,128,116822,1,0,0:0:0:0:
320,128,116916,1,0,0:0:0:0:
320,128,117011,1,8,0:0:0:0:
320,128,117105,1,0,0:0:0:0:
320,128,117199,1,0,0:0:0:0:
320,128,117294,1,8,0:0:0:0:
320,128,117388,1,0,0:0:0:0:
320,128,117482,1,0,0:0:0:0:
320,128,117577,1,8,0:0:0:0:
320,128,117671,1,0,0:0:0:0:
320,128,117765,1,0,0:0:0:0:
320,128,117860,1,8,0:0:0:0:
320,128,117954,1,0,0:0:0:0:
320,128,118048,1,0,0:0:0:0:
320,128,118143,1,8,0:0:0:0:
320,128,118237,1,0,0:0:0:0:
320,128,118331,1,8,0:0:0:0:
320,128,118426,1,8,0:0:0:0:
320,128,118520,1,0,0:0:0:0:
320,128,118614,1,8,0:0:0:0:
320,128,118709,1,8,0:0:0:0:
320,128,118803,1,0,0:0:0:0:
320,128,118897,1,8,0:0:0:0:
320,128,118992,1,0,0:0:0:0:
320,128,119086,1,8,0:0:0:0:
320,128,119180,1,8,0:0:0:0:
320,128,119275,1,0,0:0:0:0:
320,128,119369,1,8,0:0:0:0:
320,128,119463,1,0,0:0:0:0:
320,128,119558,1,8,0:0:0:0:
416,192,119621,1,8,0:0:0:0:
416,192,119684,1,8,0:0:0:0:
416,192,119746,1,4,0:0:0:0:
320,128,120030,1,0,0:0:0:0:
320,128,120124,1,8,0:0:0:0:
320,128,120313,1,0,0:0:0:0:
320,128,120596,1,8,0:0:0:0:
320,128,120690,1,0,0:0:0:0:
320,128,120784,1,0,0:0:0:0:
320,128,120879,1,8,0:0:0:0:
320,128,120973,1,8,0:0:0:0:
320,128,121067,1,0,0:0:0:0:
320,128,121162,1,8,0:0:0:0:
320,128,121256,1,8,0:0:0:0:
320,128,121350,1,0,0:0:0:0:
320,128,121445,1,0,0:0:0:0:
320,128,121539,1,0,0:0:0:0:
320,128,121633,1,8,0:0:0:0:
320,128,121822,1,0,0:0:0:0:
320,128,121916,1,0,0:0:0:0:
320,128,122011,1,0,0:0:0:0:
320,128,122105,1,8,0:0:0:0:
320,128,122199,1,0,0:0:0:0:
384,128,122388,1,8,0:0:0:0:
384,128,122577,1,0,0:0:0:0:
384,128,122671,1,0,0:0:0:0:
384,128,122765,1,8,0:0:0:0:
352,160,123048,1,0,0:0:0:0:
352,160,123143,1,8,0:0:0:0:
352,160,123331,1,0,0:0:0:0:
352,160,123426,1,0,0:0:0:0:
352,160,123520,1,0,0:0:0:0:
352,160,123614,1,8,0:0:0:0:
352,160,123803,1,0,0:0:0:0:
352,160,123897,1,0,0:0:0:0:
352,160,123992,1,0,0:0:0:0:
352,160,124086,1,8,0:0:0:0:
352,160,124180,1,0,0:0:0:0:
352,160,124275,1,12,0:0:0:0:
352,160,124369,1,0,0:0:0:0:
352,160,124463,1,0,0:0:0:0:
352,160,124558,1,8,0:0:0:0:
352,160,124652,1,12,0:0:0:0:
352,160,124746,1,0,0:0:0:0:
352,160,124841,1,0,0:0:0:0:
352,160,124935,1,8,0:0:0:0:
352,160,125030,1,12,0:0:0:0:
352,160,125124,1,0,0:0:0:0:
352,160,125218,1,0,0:0:0:0:
352,160,125313,1,8,0:0:0:0:
352,160,125407,1,12,0:0:0:0:
352,160,125501,1,0,0:0:0:0:
352,160,125596,1,8,0:0:0:0:
352,160,125690,1,0,0:0:0:0:
352,160,125784,1,12,0:0:0:0:
352,160,125879,1,0,0:0:0:0:
352,160,125973,1,0,0:0:0:0:
352,160,126067,1,8,0:0:0:0:
352,160,126162,1,0,0:0:0:0:
352,160,126256,1,8,0:0:0:0:
352,160,126350,1,12,0:0:0:0:
352,160,126445,1,0,0:0:0:0:
352,160,126539,1,0,0:0:0:0:
352,160,126633,1,8,0:0:0:0:
352,160,126728,1,0,0:0:0:0:
352,160,126822,1,8,0:0:0:0:
352,160,126916,1,12,0:0:0:0:
352,160,127011,1,0,0:0:0:0:
352,160,127105,1,0,0:0:0:0:
352,160,127199,1,8,0:0:0:0:
352,160,127294,1,0,0:0:0:0:
352,160,127388,1,8,0:0:0:0:
352,160,127482,1,12,0:0:0:0:
352,160,127577,1,0,0:0:0:0:
352,160,127671,1,0,0:0:0:0:
352,160,127765,1,8,0:0:0:0:
352,160,127860,1,0,0:0:0:0:
352,160,127954,1,8,0:0:0:0:
352,160,128048,1,12,0:0:0:0:
352,160,128143,1,0,0:0:0:0:
352,160,128237,1,0,0:0:0:0:
352,160,128331,1,0,0:0:0:0:
352,160,128426,1,12,0:0:0:0:
352,160,128520,1,8,0:0:0:0:
352,160,128614,1,0,0:0:0:0:
352,160,128709,1,0,0:0:0:0:
320,128,128803,1,12,0:0:0:0:
384,160,128992,1,0,0:0:0:0:
384,160,129086,1,0,0:0:0:0:
384,160,129180,1,12,0:0:0:0:
384,160,129369,1,0,0:0:0:0:
384,160,129463,1,0,0:0:0:0:
384,160,129558,1,0,0:0:0:0:
384,160,129652,1,12,0:0:0:0:
384,160,129841,1,0,0:0:0:0:
384,160,129935,1,0,0:0:0:0:
384,160,130030,1,0,0:0:0:0:
384,160,130124,1,0,0:0:0:0:
384,160,130218,1,12,0:0:0:0:
384,160,130407,1,0,0:0:0:0:
384,160,130501,1,0,0:0:0:0:
384,160,130596,1,0,0:0:0:0:
384,160,130690,1,0,0:0:0:0:
384,160,130784,1,0,0:0:0:0:
384,160,130879,1,12,0:0:0:0:
224,192,131067,1,8,0:0:0:0:
224,192,131162,1,8,0:0:0:0:
384,160,131256,1,0,0:0:0:0:
384,160,131350,1,0,0:0:0:0:
384,160,131445,1,0,0:0:0:0:
384,160,131539,1,0,0:0:0:0:
384,160,131633,1,12,0:0:0:0:
384,160,131728,1,8,0:0:0:0:
384,160,131822,1,4,0:0:0:0:
256,160,132011,1,0,0:0:0:0:
256,160,132105,1,0,0:0:0:0:
256,160,132199,1,8,0:0:0:0:
288,128,132388,1,0,0:0:0:0:
288,128,132482,1,0,0:0:0:0:
288,128,132577,1,0,0:0:0:0:
288,128,132671,1,8,0:0:0:0:
288,128,132765,1,0,0:0:0:0:
288,128,132860,1,0,0:0:0:0:
288,128,132954,1,8,0:0:0:0:
288,128,133143,1,0,0:0:0:0:
288,128,133237,1,0,0:0:0:0:
288,128,133426,1,0,0:0:0:0:
288,128,133520,1,0,0:0:0:0:
288,128,133614,1,0,0:0:0:0:
288,128,133709,1,8,0:0:0:0:
288,128,133897,1,0,0:0:0:0:
288,128,133992,1,0,0:0:0:0:
288,128,134086,1,0,0:0:0:0:
288,128,134180,1,8,0:0:0:0:
288,128,134275,1,0,0:0:0:0:
288,128,134369,1,0,0:0:0:0:
288,128,134463,1,8,0:0:0:0:
288,128,134558,1,8,0:0:0:0:
288,128,134652,1,0,0:0:0:0:
320,128,134841,1,4,0:0:0:0:
320,128,135030,1,0,0:0:0:0:
320,128,135124,1,0,0:0:0:0:
320,128,135218,1,8,0:0:0:0:
320,128,135313,1,8,0:0:0:0:
320,128,135407,1,0,0:0:0:0:
320,128,135501,1,0,0:0:0:0:
256,192,135596,1,8,0:0:0:0:
224,128,135690,1,8,0:0:0:0:
288,192,135784,1,0,0:0:0:0:
320,128,135879,1,0,0:0:0:0:
320,128,135973,1,8,0:0:0:0:
320,128,136067,1,8,0:0:0:0:
320,128,136162,1,0,0:0:0:0:
288,192,136256,1,0,0:0:0:0:
224,160,136350,1,8,0:0:0:0:
320,128,136445,1,0,0:0:0:0:
320,128,136539,1,8,0:0:0:0:
320,128,136633,1,0,0:0:0:0:
320,128,136728,1,0,0:0:0:0:
320,128,136822,1,0,0:0:0:0:
320,128,136916,1,8,0:0:0:0:
320,128,137011,1,0,0:0:0:0:
320,128,137105,1,8,0:0:0:0:
320,128,137199,1,8,0:0:0:0:
320,128,137294,1,0,0:0:0:0:
320,128,137482,1,8,0:0:0:0:
320,128,137671,1,0,0:0:0:0:
320,128,137765,1,0,0:0:0:0:
288,192,137860,1,12,0:0:0:0:
384,160,138048,1,0,0:0:0:0:
384,160,138143,1,8,0:0:0:0:
256,96,138331,1,0,0:0:0:0:
256,96,138426,1,0,0:0:0:0:
256,96,138520,1,0,0:0:0:0:
256,96,138614,1,8,0:0:0:0:
256,96,138709,1,8,0:0:0:0:
256,96,138803,1,0,0:0:0:0:
256,96,138992,1,8,0:0:0:0:
256,96,139086,1,0,0:0:0:0:
256,96,139275,1,0,0:0:0:0:
256,96,139463,1,0,0:0:0:0:
256,96,139558,1,0,0:0:0:0:
256,96,139652,1,0,0:0:0:0:
256,96,139746,1,8,0:0:0:0:
256,96,139841,1,8,0:0:0:0:
256,96,139935,1,0,0:0:0:0:
256,96,140030,1,0,0:0:0:0:
256,96,140124,1,8,0:0:0:0:
256,96,140218,1,8,0:0:0:0:
256,96,140313,1,0,0:0:0:0:
224,160,140407,1,0,0:0:0:0:
224,160,140501,1,8,0:0:0:0:
288,128,140690,1,0,0:0:0:0:
288,128,140784,1,8,0:0:0:0:
288,128,140879,1,0,0:0:0:0:
288,128,140973,1,0,0:0:0:0:
288,128,141162,1,8,0:0:0:0:
288,128,141256,1,0,0:0:0:0:
288,128,141445,1,0,0:0:0:0:
288,128,141539,1,0,0:0:0:0:
192,64,141728,1,8,0:0:0:0:
224,128,141822,1,0,0:0:0:0:
352,128,142011,1,8,0:0:0:0:
352,128,142105,1,0,0:0:0:0:
352,128,142294,1,0,0:0:0:0:
352,128,142388,1,0,0:0:0:0:
352,128,142577,1,0,0:0:0:0:
352,128,142671,1,0,0:0:0:0:
352,128,142765,1,8,0:0:0:0:
352,128,142954,1,0,0:0:0:0:
320,160,143048,1,8,0:0:0:0:
320,160,143143,1,0,0:0:0:0:
320,160,143237,1,8,0:0:0:0:
320,160,143331,1,8,0:0:0:0:
320,160,143426,1,8,0:0:0:0:
320,160,143520,1,8,0:0:0:0:
320,160,143614,1,8,0:0:0:0:
320,160,143709,1,8,0:0:0:0:
320,160,143803,1,8,0:0:0:0:
320,160,143897,1,4,0:0:0:0:
320,160,144086,1,8,0:0:0:0:
320,160,144180,1,0,0:0:0:0:
320,160,144275,1,0,0:0:0:0:
288,96,144369,1,0,0:0:0:0:
288,96,144463,1,8,0:0:0:0:
320,160,144558,1,0,0:0:0:0:
288,96,144652,1,0,0:0:0:0:
288,96,144746,1,8,0:0:0:0:
288,96,144935,1,8,0:0:0:0:
288,96,145218,1,8,0:0:0:0:
288,96,145313,1,0,0:0:0:0:
288,96,145407,1,8,0:0:0:0:
288,96,145596,1,8,0:0:0:0:
224,128,145690,1,0,0:0:0:0:
288,96,145784,1,8,0:0:0:0:
288,96,145879,1,8,0:0:0:0:
288,96,145973,1,8,0:0:0:0:
288,96,146067,1,0,0:0:0:0:
288,96,146162,1,8,0:0:0:0:
288,96,146256,1,0,0:0:0:0:
416,128,146413,1,0,0:0:0:0:
480,192,146791,1,8,0:0:0:0:
480,192,146916,1,0,0:0:0:0:
480,192,147105,1,0,0:0:0:0:
480,192,147294,1,8,0:0:0:0:
480,192,147419,1,0,0:0:0:0:
480,192,147608,1,0,0:0:0:0:
448,192,147860,1,8,0:0:0:0:
448,224,147923,1,8,0:0:0:0:
416,192,147985,1,0,0:0:0:0:
352,160,148080,1,0,0:0:0:0:
416,192,148174,1,0,0:0:0:0:
352,192,148331,1,0,0:0:0:0:
352,192,148426,1,8,0:0:0:0:
352,192,148614,1,8,0:0:0:0:
352,192,148709,1,0,0:0:0:0:
352,192,148803,1,0,0:0:0:0:
352,192,148897,1,8,0:0:0:0:
352,192,148992,1,0,0:0:0:0:
352,192,149086,1,0,0:0:0:0:
256,160,149180,1,8,0:0:0:0:
256,160,149275,1,0,0:0:0:0:
256,160,149369,1,8,0:0:0:0:
256,160,149558,1,8,0:0:0:0:
416,128,149621,1,0,0:0:0:0:
416,128,149684,1,0,0:0:0:0:
416,128,149746,1,8,0:0:0:0:
416,128,149809,1,0,0:0:0:0:
416,128,149872,1,8,0:0:0:0:
416,128,149935,1,4,0:0:0:0:
416,128,150124,1,0,0:0:0:0:
416,128,150218,1,0,0:0:0:0:
416,128,150313,1,4,0:0:0:0:
416,128,150501,1,0,0:0:0:0:
416,128,150596,1,0,0:0:0:0:
416,128,150690,1,4,0:0:0:0:
416,128,150879,1,0,0:0:0:0:
416,128,150973,1,0,0:0:0:0:
416,128,151067,1,12,0:0:0:0:
416,128,151256,1,8,0:0:0:0:
416,128,151350,1,8,0:0:0:0:
416,128,151445,1,12,0:0:0:0:
416,128,151633,1,8,0:0:0:0:
416,128,151728,1,8,0:0:0:0:
416,128,151822,1,12,0:0:0:0:
416,128,152011,1,8,0:0:0:0:
416,128,152105,1,8,0:0:0:0:
416,128,152199,1,4,0:0:0:0:
416,128,152388,1,0,0:0:0:0:
416,128,152577,1,0,0:0:0:0:
416,128,152765,1,0,0:0:0:0:
352,160,152860,1,0,0:0:0:0:
352,160,152954,1,12,0:0:0:0:
352,160,153048,1,0,0:0:0:0:
352,160,153143,1,0,0:0:0:0:
352,160,153237,1,0,0:0:0:0:
352,160,153331,1,12,0:0:0:0:
352,160,153426,1,0,0:0:0:0:
352,160,153520,1,0,0:0:0:0:
352,160,153614,1,8,0:0:0:0:
352,160,153709,1,12,0:0:0:0:
352,160,153803,1,0,0:0:0:0:
352,160,153897,1,0,0:0:0:0:
352,160,153992,1,0,0:0:0:0:
352,160,154086,1,12,0:0:0:0:
352,160,154180,1,0,0:0:0:0:
352,160,154275,1,0,0:0:0:0:
352,160,154369,1,8,0:0:0:0:
352,160,154463,1,12,0:0:0:0:
352,160,154558,1,0,0:0:0:0:
352,160,154652,1,0,0:0:0:0:
352,160,154746,1,8,0:0:0:0:
352,160,154841,1,12,0:0:0:0:
352,160,154935,1,0,0:0:0:0:
352,160,155030,1,0,0:0:0:0:
352,160,155124,1,8,0:0:0:0:
352,160,155218,1,12,0:0:0:0:
352,160,155313,1,0,0:0:0:0:
352,160,155407,1,0,0:0:0:0:
256,96,155501,1,8,0:0:0:0:
352,160,155596,1,12,0:0:0:0:
352,160,155690,1,8,0:0:0:0:
352,160,155784,1,8,0:0:0:0:
352,160,155879,1,8,0:0:0:0:
320,128,156350,1,4,0:0:0:0:
256,96,156538,1,0,0:0:0:0:
256,96,156633,1,0,0:0:0:0:
256,96,156727,1,8,0:0:0:0:
256,96,156821,1,0,0:0:0:0:
256,96,156916,1,8,0:0:0:0:
256,96,157010,1,8,0:0:0:0:
320,96,157104,1,0,0:0:0:0:
320,96,157199,1,0,0:0:0:0:
320,96,157293,1,8,0:0:0:0:
320,96,157387,1,0,0:0:0:0:
320,96,157482,1,12,0:0:0:0:
320,96,157670,1,0,0:0:0:0:
320,96,157765,1,8,0:0:0:0:
320,96,157859,1,4,0:0:0:0:
320,96,158048,1,0,0:0:0:0:
320,96,158142,1,0,0:0:0:0:
320,96,158236,1,8,0:0:0:0:
320,96,158331,1,0,0:0:0:0:
320,96,158425,1,8,0:0:0:0:
320,96,158519,1,8,0:0:0:0:
320,96,158614,1,0,0:0:0:0:
320,96,158708,1,0,0:0:0:0:
320,96,158802,1,8,0:0:0:0:
320,96,158897,1,0,0:0:0:0:
320,96,158991,1,12,0:0:0:0:
320,96,159085,1,8,0:0:0:0:
320,96,159180,1,8,0:0:0:0:
320,96,159274,1,8,0:0:0:0:
320,96,159368,1,4,0:0:0:0:
320,96,159557,1,0,0:0:0:0:
320,96,159651,1,0,0:0:0:0:
320,96,159746,1,8,0:0:0:0:
320,96,159840,1,0,0:0:0:0:
320,96,159934,1,8,0:0:0:0:
320,96,160029,1,8,0:0:0:0:
320,96,160123,1,0,0:0:0:0:
320,96,160217,1,8,0:0:0:0:
320,96,160312,1,0,0:0:0:0:
320,96,160406,1,0,0:0:0:0:
320,96,160500,1,8,0:0:0:0:
320,96,160595,1,8,0:0:0:0:
288,128,160689,1,0,0:0:0:0:
288,128,160783,1,8,0:0:0:0:
288,128,160878,1,4,0:0:0:0:
288,128,161066,1,0,0:0:0:0:
288,128,161161,1,0,0:0:0:0:
256,128,161255,1,0,0:0:0:0:
256,128,161350,1,8,0:0:0:0:
288,128,161444,1,0,0:0:0:0:
288,128,161538,1,0,0:0:0:0:
288,128,161633,1,12,0:0:0:0:
288,128,161821,1,8,0:0:0:0:
288,128,161916,1,0,0:0:0:0:
288,128,162010,1,12,0:0:0:0:
288,128,162104,1,8,0:0:0:0:
288,128,162199,1,0,0:0:0:0:
288,128,162293,1,8,0:0:0:0:
288,128,162387,1,4,0:0:0:0:
256,128,162576,1,0,0:0:0:0:
256,128,162670,1,0,0:0:0:0:
256,128,162765,1,8,0:0:0:0:
256,128,162859,1,0,0:0:0:0:
256,128,162953,1,8,0:0:0:0:
256,128,163048,1,8,0:0:0:0:
256,128,163142,1,0,0:0:0:0:
256,128,163236,1,0,0:0:0:0:
256,128,163331,1,8,0:0:0:0:
256,128,163519,1,4,0:0:0:0:
256,128,163708,1,8,0:0:0:0:
256,128,163802,1,8,0:0:0:0:
256,128,163897,1,4,0:0:0:0:
256,128,164085,1,0,0:0:0:0:
256,128,164180,1,0,0:0:0:0:
256,128,164274,1,8,0:0:0:0:
256,128,164368,1,0,0:0:0:0:
256,128,164463,1,8,0:0:0:0:
256,128,164557,1,8,0:0:0:0:
256,128,164651,1,0,0:0:0:0:
256,128,164746,1,0,0:0:0:0:
256,128,164840,1,8,0:0:0:0:
256,128,164934,1,0,0:0:0:0:
192,96,165029,1,12,0:0:0:0:
192,96,165217,1,0,0:0:0:0:
192,96,165312,1,8,0:0:0:0:
192,96,165406,1,4,0:0:0:0:
352,128,165595,1,0,0:0:0:0:
352,128,165689,1,0,0:0:0:0:
352,128,165783,1,8,0:0:0:0:
352,128,165878,1,0,0:0:0:0:
352,128,165972,1,8,0:0:0:0:
352,128,166066,1,8,0:0:0:0:
352,128,166161,1,0,0:0:0:0:
352,128,166255,1,0,0:0:0:0:
352,128,166350,1,8,0:0:0:0:
352,128,166444,1,8,0:0:0:0:
352,128,166538,1,4,0:0:0:0:
352,128,166633,1,8,0:0:0:0:
352,128,166727,1,0,0:0:0:0:
352,128,166821,1,0,0:0:0:0:
352,128,166916,1,12,0:0:0:0:
320,96,167199,1,0,0:0:0:0:
352,128,167293,1,12,0:0:0:0:
320,96,167482,1,0,0:0:0:0:
320,96,167576,1,0,0:0:0:0:
320,96,167670,1,12,0:0:0:0:
320,96,167859,1,0,0:0:0:0:
320,96,167953,1,0,0:0:0:0:
320,96,168048,1,12,0:0:0:0:
320,96,168142,1,8,0:0:0:0:
320,96,168236,1,8,0:0:0:0:
320,96,168331,1,8,0:0:0:0:
320,96,168425,1,4,0:0:0:0:
320,96,168614,1,0,0:0:0:0:
320,96,168708,1,0,0:0:0:0:
320,96,168802,1,8,0:0:0:0:
320,96,168897,1,0,0:0:0:0:
320,96,168991,1,8,0:0:0:0:
320,96,169085,1,8,0:0:0:0:
320,96,169180,1,0,0:0:0:0:
320,96,169274,1,0,0:0:0:0:
320,96,169368,1,8,0:0:0:0:
320,96,169463,1,0,0:0:0:0:
320,96,169557,1,12,0:0:0:0:
320,96,169651,1,8,0:0:0:0:
320,96,169746,1,8,0:0:0:0:
320,96,169840,1,8,0:0:0:0:
320,96,169934,1,4,0:0:0:0:
320,96,170123,1,0,0:0:0:0:
320,96,170217,1,0,0:0:0:0:
320,96,170312,1,8,0:0:0:0:
320,96,170406,1,0,0:0:0:0:
320,96,170500,1,8,0:0:0:0:
320,96,170595,1,8,0:0:0:0:
320,96,170689,1,0,0:0:0:0:
320,96,170783,1,8,0:0:0:0:
320,96,170878,1,0,0:0:0:0:
320,96,170972,1,0,0:0:0:0:
320,96,171066,1,12,0:0:0:0:
320,96,171161,1,8,0:0:0:0:
320,96,171255,1,0,0:0:0:0:
320,96,171350,1,8,0:0:0:0:
320,96,171444,1,4,0:0:0:0:
320,96,171633,1,0,0:0:0:0:
320,96,171727,1,0,0:0:0:0:
320,96,171821,1,8,0:0:0:0:
320,96,171916,1,0,0:0:0:0:
320,96,172010,1,8,0:0:0:0:
320,96,172104,1,8,0:0:0:0:
320,96,172199,1,0,0:0:0:0:
320,96,172293,1,0,0:0:0:0:
320,96,172387,1,8,0:0:0:0:
320,96,172482,1,0,0:0:0:0:
320,96,172576,1,12,0:0:0:0:
320,96,172765,1,8,0:0:0:0:
320,96,172859,1,8,0:0:0:0:
320,96,172953,1,4,0:0:0:0:
320,128,173142,1,4,0:0:0:0:
320,128,173236,1,0,0:0:0:0:
320,128,173331,1,12,0:0:0:0:
320,128,173519,1,4,0:0:0:0:
320,128,173614,1,0,0:0:0:0:
320,128,173708,1,12,0:0:0:0:
320,128,173802,1,0,0:0:0:0:
320,128,173897,1,4,0:0:0:0:
320,128,173991,1,0,0:0:0:0:
320,128,174085,1,12,0:0:0:0:
320,128,174180,1,0,0:0:0:0:
320,128,174274,1,12,0:0:0:0:
320,128,174368,1,8,0:0:0:0:
320,128,174463,1,4,0:0:0:0:
288,96,174651,1,0,0:0:0:0:
288,96,174746,1,0,0:0:0:0:
288,96,174840,1,8,0:0:0:0:
288,96,174934,1,0,0:0:0:0:
288,96,175029,1,8,0:0:0:0:
288,96,175123,1,8,0:0:0:0:
288,96,175217,1,4,0:0:0:0:
288,96,175406,1,12,0:0:0:0:
288,96,175595,1,4,0:0:0:0:
288,96,175783,1,8,0:0:0:0:
288,96,175878,1,8,0:0:0:0:
288,96,175972,1,4,0:0:0:0:
288,96,176161,1,0,0:0:0:0:
288,96,176255,1,0,0:0:0:0:
288,96,176350,1,8,0:0:0:0:
288,96,176444,1,0,0:0:0:0:
288,96,176538,1,8,0:0:0:0:
288,96,176633,1,8,0:0:0:0:
288,96,176727,1,4,0:0:0:0:
288,96,176916,1,12,0:0:0:0:
288,96,177104,1,4,0:0:0:0:
288,96,177293,1,0,0:0:0:0:
288,96,177387,1,8,0:0:0:0:
288,96,177482,1,4,0:0:0:0:
288,96,177670,1,0,0:0:0:0:
288,96,177765,1,0,0:0:0:0:
288,96,177859,1,8,0:0:0:0:
288,96,177953,1,0,0:0:0:0:
288,96,178048,1,8,0:0:0:0:
288,96,178142,1,8,0:0:0:0:
288,96,178236,1,4,0:0:0:0:
288,96,178425,1,12,0:0:0:0:
288,96,178519,1,8,0:0:0:0:
288,96,178614,1,4,0:0:0:0:
288,96,178708,1,8,0:0:0:0:
288,96,178802,1,0,0:0:0:0:
288,96,178897,1,0,0:0:0:0:
288,96,178991,1,12,0:0:0:0:
288,96,179085,1,0,0:0:0:0:
288,128,179274,1,0,0:0:0:0:
288,128,179368,1,12,0:0:0:0:
288,128,179463,1,0,0:0:0:0:
288,128,179651,1,0,0:0:0:0:
288,128,179746,1,12,0:0:0:0:
288,128,179840,1,0,0:0:0:0:
288,128,180029,1,0,0:0:0:0:
288,128,180123,1,12,0:0:0:0:
288,128,180217,1,0,0:0:0:0:
288,128,180312,1,0,0:0:0:0:
288,128,180500,1,12,0:0:0:0:
