osu file format v9

[General]
AudioFilename: UI-70 & Demetori - Yuuga ni Sakase, Sumizome no Sakura ~ Border of Life (Short ver.).mp3
AudioLeadIn: 0
PreviewTime: 21758
Countdown: 0
SampleSet: Soft
StackLeniency: 0.7
Mode: 0
LetterboxInBreaks: 0

[Editor]
DistanceSpacing: 1.2
BeatDivisor: 4
GridSize: 8

[Metadata]
Title:Yuuga ni Sakase, Sumizome no Sakura (Short Ver.)
Artist:UI-70 & Demetori
Creator:Mategas
Version:Spectral Song
Source:Touhou
Tags:Yuyuko Saigyouji iMercurial Border of Life

[Difficulty]
HPDrainRate:7
CircleSize:4
OverallDifficulty:8
ApproachRate:7
SliderMultiplier:1.6
SliderTickRate:2

[Events]
//Background and Video events
0,0,"sample-19f57280db4730b4b86875c06fb64e6e.jpg"
//Break Periods
2,9330,10848
2,19803,21321
2,30276,31794
//Storyboard Layer 0 (Background)
//Storyboard Layer 1 (Fail)
//Storyboard Layer 2 (Pass)
//Storyboard Layer 3 (Foreground)
Sprite,Foreground,Centre,"gdim.png",320,240 F,0,1276,1930,0,0.4920001 M,0,1276,7821,126,415,134,414 F,0,1930,2585,0.4920001,0.8000002 S,0,2585,,0.4160001 F,0,2585,6021,0.8000002 F,0,6021,7821,0.8000002,0
//Storyboard Sound Samples
//Background Colour Transformations
3,100,163,162,255

[TimingPoints]
1276.31868131868,654.540659340658,4,2,0,25,1,0

[Colours]
Combo1 : 251,85,201
Combo2 : 196,4,176
Combo3 : 251,174,245
Combo4 : 149,38,162
Combo5 : 121,55,174

[HitObjects]
88,136,1276,1,0
168,80,1603,1,0
248,136,1930,1,0
328,80,2258,2,0,B|368:96|368:96|368:160,1,80
416,216,2912,1,8
416,216,3239,1,8
416,216,3567,1,8
344,280,3894,6,0,B|288:208,1,80
248,296,4549,2,0,B|192:232,1,80
136,312,5203,2,0,B|72:240,1,80,0|8
82,252,5858,1,8
82,252,6185,1,8
64,192,6512,6,0,B|176:192,1,80,0|8
256,24,7167,2,0,B|256:120,1,80,0|8
456,192,7821,2,0,B|344:192,1,80,0|8
256,344,8476,2,0,B|256:256,1,80,0|8
256,192,9130,1,4
216,48,11748,6,0,B|296:80,1,80
296,176,12403,2,0,B|208:216,1,80
256,288,13385,1,8
256,288,13712,1,8
256,288,14039,1,8
288,40,14367,6,0,B|208:88,1,80
216,176,15021,2,0,B|296:216,1,80
256,288,16003,1,8
256,288,16330,1,8
256,288,16658,1,8
256,288,16985,5,0
88,192,17639,1,8
256,96,18294,1,0
424,192,18948,1,8
256,192,19603,1,4
256,192,22221,5,0
256,192,23203,1,0
448,192,23857,2,8,B|352:192,2,80
256,192,24839,5,0
256,192,25821,1,0
64,192,26476,2,8,B|152:192,2,80
256,48,27457,5,0
464,192,28112,1,0
256,336,28767,1,0
48,192,29421,1,0
256,192,30076,1,0
256,192,32694,5,0
160,192,33021,2,0,B|64:192,1,80
344,192,33676,2,0,B|440:192,1,80
256,192,34657,1,8
256,192,34985,1,8
256,192,35312,5,0
256,112,35639,2,0,B|256:32,1,80
256,272,36294,2,0,B|256:352,1,80
256,192,37276,1,8
256,192,37603,1,8
192,120,37930,5,0
256,304,38585,1,0
320,120,39239,1,0
256,192,40221,1,0
256,192,40548,12,0,43186
