osu file format v14

[General]
AudioFilename: russia.mp3
AudioLeadIn: 0
PreviewTime: 7193
Countdown: 0
SampleSet: Normal
StackLeniency: 0.7
Mode: 3
LetterboxInBreaks: 0
SpecialStyle: 0
WidescreenStoryboard: 0

[Editor]
DistanceSpacing: 1.1
BeatDivisor: 4
GridSize: 16
TimelineZoom: 1.2

[Metadata]
Title:Russia
TitleUnicode:Россия
Artist:UBIYTSY
ArtistUnicode:УБИЙЦЫ
Creator:Morbon
Version:Normal
Source:
Tags:
BeatmapID:1213436
BeatmapSetID:572716

[Difficulty]
HPDrainRate:8
CircleSize:4
OverallDifficulty:9
ApproachRate:5
SliderMultiplier:1.8
SliderTickRate:1

[Events]
//Background and Video events
0,0,"ss+(2017-02-12+at+04.16.35).jpg",0,0
//Break Periods
//Storyboard Layer 0 (Background)
//Storyboard Layer 1 (Fail)
//Storyboard Layer 2 (Pass)
//Storyboard Layer 3 (Foreground)
//Storyboard Sound Samples

[TimingPoints]
39.963332611248,461.538461538462,4,1,0,5,1,0

[HitObjects]
64,192,11,5,0,0:0:0:0:
192,192,39,1,0,0:0:0:0:
448,192,241,1,0,0:0:0:0:
320,192,270,1,0,0:0:0:0:
64,192,472,1,0,0:0:0:0:
192,192,501,1,0,0:0:0:0:
448,192,703,1,0,0:0:0:0:
320,192,732,1,0,0:0:0:0:
64,192,934,1,0,0:0:0:0:
192,192,963,1,0,0:0:0:0:
448,192,1164,1,0,0:0:0:0:
320,192,1193,1,0,0:0:0:0:
64,192,1395,1,0,0:0:0:0:
192,192,1424,1,0,0:0:0:0:
448,192,1626,1,0,0:0:0:0:
320,192,1655,1,0,0:0:0:0:
448,192,1857,1,0,0:0:0:0:
192,192,1886,1,0,0:0:0:0:
64,192,2088,1,0,0:0:0:0:
320,192,2116,1,0,0:0:0:0:
448,192,2318,1,0,0:0:0:0:
192,192,2347,1,0,0:0:0:0:
64,192,2549,1,0,0:0:0:0:
320,192,2578,1,0,0:0:0:0:
320,192,2780,1,0,0:0:0:0:
192,192,2809,1,0,0:0:0:0:
64,192,3011,1,0,0:0:0:0:
448,192,3039,1,0,0:0:0:0:
192,192,3241,1,0,0:0:0:0:
320,192,3270,128,0,3732:0:0:0:0:
64,192,3703,1,0,0:0:0:0:
192,192,3732,1,0,0:0:0:0:
64,192,3934,1,0,0:0:0:0:
192,192,3963,1,0,0:0:0:0:
448,192,4164,1,0,0:0:0:0:
320,192,4193,1,0,0:0:0:0:
448,192,4395,1,0,0:0:0:0:
320,192,4424,1,0,0:0:0:0:
64,192,4626,1,0,0:0:0:0:
192,192,4655,1,0,0:0:0:0:
64,192,4857,1,0,0:0:0:0:
192,192,4886,1,0,0:0:0:0:
448,192,5088,1,0,0:0:0:0:
320,192,5116,1,0,0:0:0:0:
448,192,5318,1,0,0:0:0:0:
320,192,5347,1,0,0:0:0:0:
320,192,5549,1,0,0:0:0:0:
448,192,5578,1,0,0:0:0:0:
192,192,5780,1,0,0:0:0:0:
320,192,5809,1,0,0:0:0:0:
64,192,6011,1,0,0:0:0:0:
192,192,6039,1,0,0:0:0:0:
320,192,6241,1,0,0:0:0:0:
192,192,6270,1,0,0:0:0:0:
448,192,6472,1,0,0:0:0:0:
320,192,6501,1,0,0:0:0:0:
320,192,6703,1,0,0:0:0:0:
448,192,6732,1,0,0:0:0:0:
192,192,6934,1,0,0:0:0:0:
320,192,6963,128,0,7424:0:0:0:0:
64,192,7193,1,0,0:0:0:0:
192,192,7424,1,0,0:0:0:0:
448,192,7424,1,0,0:0:0:0:
64,192,7424,1,0,0:0:0:0:
192,192,7655,1,0,0:0:0:0:
64,192,7655,1,0,0:0:0:0:
448,192,7655,1,0,0:0:0:0:
448,192,7886,1,0,0:0:0:0:
320,192,7886,1,0,0:0:0:0:
64,192,7886,1,0,0:0:0:0:
64,192,8116,1,0,0:0:0:0:
192,192,8116,1,0,0:0:0:0:
448,192,8116,1,0,0:0:0:0:
320,192,8347,1,0,0:0:0:0:
192,192,8347,1,0,0:0:0:0:
64,192,8347,1,0,0:0:0:0:
64,192,8578,1,0,0:0:0:0:
320,192,8578,1,0,0:0:0:0:
448,192,8578,1,0,0:0:0:0:
448,192,8809,1,0,0:0:0:0:
320,192,8809,1,0,0:0:0:0:
192,192,8809,1,0,0:0:0:0:
64,192,9039,1,0,0:0:0:0:
320,192,9039,1,0,0:0:0:0:
448,192,9039,1,0,0:0:0:0:
448,192,9155,1,0,0:0:0:0:
320,192,9155,1,0,0:0:0:0:
64,192,9155,1,0,0:0:0:0:
64,192,9270,1,0,0:0:0:0:
192,192,9270,1,0,0:0:0:0:
320,192,9270,1,0,0:0:0:0:
448,192,9270,1,0,0:0:0:0:
448,192,9501,1,0,0:0:0:0:
192,192,9501,1,0,0:0:0:0:
64,192,9501,1,0,0:0:0:0:
192,192,9732,1,0,0:0:0:0:
320,192,9732,1,0,0:0:0:0:
448,192,9732,1,0,0:0:0:0:
448,192,9963,1,0,0:0:0:0:
192,192,9963,1,0,0:0:0:0:
64,192,9963,1,0,0:0:0:0:
448,192,10078,1,0,0:0:0:0:
192,192,10078,1,0,0:0:0:0:
64,192,10078,1,0,0:0:0:0:
448,192,10193,1,0,0:0:0:0:
320,192,10193,1,0,0:0:0:0:
192,192,10193,1,0,0:0:0:0:
64,192,10193,1,0,0:0:0:0:
64,192,10424,1,0,0:0:0:0:
192,192,10424,1,0,0:0:0:0:
320,192,10424,1,0,0:0:0:0:
448,192,10655,1,0,0:0:0:0:
320,192,10655,1,0,0:0:0:0:
192,192,10655,1,0,0:0:0:0:
320,192,10886,1,0,0:0:0:0:
192,192,10886,1,0,0:0:0:0:
64,192,10886,1,0,0:0:0:0:
320,192,11001,1,0,0:0:0:0:
192,192,11001,1,0,0:0:0:0:
64,192,11001,1,0,0:0:0:0:
64,192,11116,1,0,0:0:0:0:
192,192,11116,1,0,0:0:0:0:
320,192,11116,1,0,0:0:0:0:
448,192,11116,1,0,0:0:0:0:
448,192,11347,1,0,0:0:0:0:
320,192,11347,1,0,0:0:0:0:
64,192,11347,1,0,0:0:0:0:
64,192,11578,1,0,0:0:0:0:
192,192,11578,1,0,0:0:0:0:
448,192,11578,1,0,0:0:0:0:
320,192,11809,1,0,0:0:0:0:
192,192,11809,1,0,0:0:0:0:
64,192,11809,1,0,0:0:0:0:
64,192,12039,1,0,0:0:0:0:
320,192,12039,1,0,0:0:0:0:
448,192,12039,1,0,0:0:0:0:
320,192,12270,1,0,0:0:0:0:
192,192,12270,1,0,0:0:0:0:
64,192,12270,1,0,0:0:0:0:
448,192,12501,1,0,0:0:0:0:
320,192,12501,1,0,0:0:0:0:
64,192,12501,1,0,0:0:0:0:
64,192,12732,1,0,0:0:0:0:
320,192,12732,1,0,0:0:0:0:
448,192,12732,1,0,0:0:0:0:
448,192,12847,1,0,0:0:0:0:
320,192,12847,1,0,0:0:0:0:
64,192,12847,1,0,0:0:0:0:
64,192,12963,1,0,0:0:0:0:
192,192,12963,1,0,0:0:0:0:
320,192,12963,1,0,0:0:0:0:
448,192,12963,1,0,0:0:0:0:
64,192,13193,1,0,0:0:0:0:
192,192,13193,1,0,0:0:0:0:
448,192,13193,1,0,0:0:0:0:
448,192,13424,1,0,0:0:0:0:
320,192,13424,1,0,0:0:0:0:
64,192,13424,1,0,0:0:0:0:
64,192,13655,1,0,0:0:0:0:
192,192,13655,1,0,0:0:0:0:
320,192,13655,1,0,0:0:0:0:
64,192,13770,1,0,0:0:0:0:
192,192,13770,1,0,0:0:0:0:
320,192,13770,1,0,0:0:0:0:
448,192,13886,1,0,0:0:0:0:
320,192,13886,1,0,0:0:0:0:
192,192,13886,1,0,0:0:0:0:
64,192,13886,1,0,0:0:0:0:
64,192,14116,1,0,0:0:0:0:
320,192,14116,1,0,0:0:0:0:
448,192,14116,1,0,0:0:0:0:
192,192,14347,1,0,0:0:0:0:
320,192,14347,1,0,0:0:0:0:
448,192,14347,1,0,0:0:0:0:
320,192,14463,1,0,0:0:0:0:
192,192,14463,1,0,0:0:0:0:
64,192,14463,1,0,0:0:0:0:
192,192,14578,1,0,0:0:0:0:
320,192,14578,1,0,0:0:0:0:
448,192,14578,1,0,0:0:0:0:
320,192,14693,1,0,0:0:0:0:
192,192,14693,1,0,0:0:0:0:
64,192,14693,1,0,0:0:0:0:
64,192,14809,1,0,0:0:0:0:
192,192,14809,1,0,0:0:0:0:
320,192,14809,1,0,0:0:0:0:
448,192,14809,1,0,0:0:0:0:
64,192,15039,1,0,0:0:0:0:
192,192,15039,1,0,0:0:0:0:
448,192,15039,1,0,0:0:0:0:
448,192,15270,1,0,0:0:0:0:
320,192,15270,1,0,0:0:0:0:
64,192,15270,1,0,0:0:0:0:
64,192,15501,1,0,0:0:0:0:
192,192,15501,1,0,0:0:0:0:
320,192,15501,1,0,0:0:0:0:
448,192,15732,1,0,0:0:0:0:
320,192,15732,1,0,0:0:0:0:
64,192,15732,1,0,0:0:0:0:
64,192,15963,1,0,0:0:0:0:
192,192,15963,1,0,0:0:0:0:
448,192,15963,1,0,0:0:0:0:
448,192,16193,1,0,0:0:0:0:
320,192,16193,1,0,0:0:0:0:
64,192,16193,1,0,0:0:0:0:
64,192,16424,1,0,0:0:0:0:
192,192,16424,1,0,0:0:0:0:
448,192,16424,1,0,0:0:0:0:
64,192,16539,1,0,0:0:0:0:
448,192,16539,1,0,0:0:0:0:
192,192,16539,1,0,0:0:0:0:
64,192,16655,1,0,0:0:0:0:
192,192,16655,1,0,0:0:0:0:
448,192,16655,1,0,0:0:0:0:
320,192,16655,1,0,0:0:0:0:
64,192,16886,1,0,0:0:0:0:
192,192,16886,1,0,0:0:0:0:
320,192,16886,1,0,0:0:0:0:
448,192,17116,1,0,0:0:0:0:
320,192,17116,1,0,0:0:0:0:
192,192,17116,1,0,0:0:0:0:
64,192,17347,1,0,0:0:0:0:
192,192,17347,1,0,0:0:0:0:
320,192,17347,1,0,0:0:0:0:
320,192,17463,1,0,0:0:0:0:
192,192,17463,1,0,0:0:0:0:
64,192,17463,1,0,0:0:0:0:
64,192,17578,1,0,0:0:0:0:
192,192,17578,1,0,0:0:0:0:
320,192,17578,1,0,0:0:0:0:
448,192,17578,1,0,0:0:0:0:
448,192,17809,1,0,0:0:0:0:
192,192,17809,1,0,0:0:0:0:
64,192,17809,1,0,0:0:0:0:
64,192,18039,1,0,0:0:0:0:
320,192,18039,1,0,0:0:0:0:
448,192,18039,1,0,0:0:0:0:
448,192,18270,1,0,0:0:0:0:
320,192,18270,1,0,0:0:0:0:
192,192,18270,1,0,0:0:0:0:
192,192,18386,1,0,0:0:0:0:
320,192,18386,1,0,0:0:0:0:
448,192,18386,1,0,0:0:0:0:
448,192,18501,1,0,0:0:0:0:
320,192,18501,1,0,0:0:0:0:
192,192,18501,1,0,0:0:0:0:
64,192,18501,1,0,0:0:0:0:
448,192,18732,1,0,0:0:0:0:
320,192,18732,1,0,0:0:0:0:
64,192,18732,1,0,0:0:0:0:
64,192,18963,1,0,0:0:0:0:
192,192,18963,1,0,0:0:0:0:
320,192,18963,1,0,0:0:0:0:
448,192,19193,1,0,0:0:0:0:
192,192,19193,1,0,0:0:0:0:
320,192,19193,1,0,0:0:0:0:
448,192,19424,1,0,0:0:0:0:
320,192,19424,1,0,0:0:0:0:
64,192,19424,1,0,0:0:0:0:
448,192,19655,1,0,0:0:0:0:
192,192,19655,1,0,0:0:0:0:
64,192,19655,1,0,0:0:0:0:
448,192,19886,1,0,0:0:0:0:
320,192,19886,1,0,0:0:0:0:
192,192,19886,1,0,0:0:0:0:
64,192,20116,1,0,0:0:0:0:
320,192,20116,1,0,0:0:0:0:
448,192,20116,1,0,0:0:0:0:
448,192,20232,1,0,0:0:0:0:
320,192,20232,1,0,0:0:0:0:
64,192,20232,1,0,0:0:0:0:
64,192,20347,1,0,0:0:0:0:
192,192,20347,1,0,0:0:0:0:
320,192,20347,1,0,0:0:0:0:
448,192,20347,1,0,0:0:0:0:
448,192,20578,1,0,0:0:0:0:
192,192,20578,1,0,0:0:0:0:
64,192,20578,1,0,0:0:0:0:
64,192,20809,1,0,0:0:0:0:
320,192,20809,1,0,0:0:0:0:
448,192,20809,1,0,0:0:0:0:
64,192,21039,1,0,0:0:0:0:
192,192,21039,1,0,0:0:0:0:
320,192,21039,1,0,0:0:0:0:
64,192,21155,1,0,0:0:0:0:
192,192,21155,1,0,0:0:0:0:
320,192,21155,1,0,0:0:0:0:
64,192,21270,1,0,0:0:0:0:
192,192,21270,1,0,0:0:0:0:
320,192,21270,1,0,0:0:0:0:
448,192,21270,1,0,0:0:0:0:
448,192,21501,1,0,0:0:0:0:
192,192,21501,1,0,0:0:0:0:
64,192,21501,1,0,0:0:0:0:
64,192,21732,1,0,0:0:0:0:
320,192,21732,1,0,0:0:0:0:
448,192,21732,1,0,0:0:0:0:
448,192,21847,1,0,0:0:0:0:
192,192,21847,1,0,0:0:0:0:
64,192,21847,1,0,0:0:0:0:
64,192,21963,1,0,0:0:0:0:
320,192,21963,1,0,0:0:0:0:
448,192,21963,1,0,0:0:0:0:
448,192,22078,1,0,0:0:0:0:
192,192,22078,1,0,0:0:0:0:
64,192,22078,1,0,0:0:0:0:
64,192,22193,128,0,24039:0:0:0:0:
192,192,22193,128,0,24039:0:0:0:0:
320,192,22193,128,0,24963:0:0:0:0:
448,192,22193,1,0,0:0:0:0:
448,192,23116,1,0,0:0:0:0:
448,192,24039,128,0,27732:0:0:0:0:
64,192,24501,1,0,0:0:0:0:
192,192,24847,1,0,0:0:0:0:
64,192,24963,128,0,27732:0:0:0:0:
192,192,25886,1,0,0:0:0:0:
320,192,25886,128,0,29578:0:0:0:0:
192,192,26809,1,0,0:0:0:0:
192,192,27732,128,0,31424:0:0:0:0:
448,192,28193,1,0,0:0:0:0:
64,192,28539,1,0,0:0:0:0:
448,192,28655,128,0,31424:0:0:0:0:
64,192,29578,128,0,34193:0:0:0:0:
320,192,30501,1,0,0:0:0:0:
320,192,31424,128,0,35116:0:0:0:0:
448,192,31886,1,0,0:0:0:0:
192,192,32232,1,0,0:0:0:0:
448,192,32347,128,0,36501:0:0:0:0:
192,192,33270,1,0,0:0:0:0:
192,192,34193,128,0,36501:0:0:0:0:
64,192,35116,1,0,0:0:0:0:
320,192,35578,1,0,0:0:0:0:
64,192,35924,1,0,0:0:0:0:
320,192,36039,128,0,36501:0:0:0:0:
64,192,36386,1,0,0:0:0:0:
64,192,36501,1,0,0:0:0:0:
64,192,36732,1,0,0:0:0:0:
192,192,36732,1,0,0:0:0:0:
320,192,36732,1,0,0:0:0:0:
64,192,36847,1,0,0:0:0:0:
192,192,36847,1,0,0:0:0:0:
320,192,36847,1,0,0:0:0:0:
64,192,36963,1,0,0:0:0:0:
448,192,36963,1,0,0:0:0:0:
320,192,36963,1,0,0:0:0:0:
192,192,36963,1,0,0:0:0:0:
64,192,37193,1,0,0:0:0:0:
192,192,37193,1,0,0:0:0:0:
448,192,37193,1,0,0:0:0:0:
448,192,37424,1,0,0:0:0:0:
320,192,37424,1,0,0:0:0:0:
64,192,37424,1,0,0:0:0:0:
64,192,37655,1,0,0:0:0:0:
192,192,37655,1,0,0:0:0:0:
320,192,37655,1,0,0:0:0:0:
448,192,37886,1,0,0:0:0:0:
320,192,37886,1,0,0:0:0:0:
192,192,37886,1,0,0:0:0:0:
64,192,38116,1,0,0:0:0:0:
320,192,38116,1,0,0:0:0:0:
448,192,38116,1,0,0:0:0:0:
448,192,38347,1,0,0:0:0:0:
192,192,38347,1,0,0:0:0:0:
64,192,38347,1,0,0:0:0:0:
448,192,38578,1,0,0:0:0:0:
320,192,38578,1,0,0:0:0:0:
64,192,38578,1,0,0:0:0:0:
64,192,38693,1,0,0:0:0:0:
320,192,38693,1,0,0:0:0:0:
448,192,38693,1,0,0:0:0:0:
448,192,38809,1,0,0:0:0:0:
320,192,38809,1,0,0:0:0:0:
192,192,38809,1,0,0:0:0:0:
64,192,38809,1,0,0:0:0:0:
64,192,39039,1,0,0:0:0:0:
192,192,39039,1,0,0:0:0:0:
448,192,39039,1,0,0:0:0:0:
320,192,39270,1,0,0:0:0:0:
192,192,39270,1,0,0:0:0:0:
64,192,39270,1,0,0:0:0:0:
192,192,39501,1,0,0:0:0:0:
320,192,39501,1,0,0:0:0:0:
448,192,39501,1,0,0:0:0:0:
448,192,39616,1,0,0:0:0:0:
320,192,39616,1,0,0:0:0:0:
192,192,39616,1,0,0:0:0:0:
64,192,39732,1,0,0:0:0:0:
192,192,39732,1,0,0:0:0:0:
320,192,39732,1,0,0:0:0:0:
448,192,39732,1,0,0:0:0:0:
448,192,39963,1,0,0:0:0:0:
320,192,39963,1,0,0:0:0:0:
64,192,39963,1,0,0:0:0:0:
64,192,40193,1,0,0:0:0:0:
192,192,40193,1,0,0:0:0:0:
320,192,40193,1,0,0:0:0:0:
448,192,40424,1,0,0:0:0:0:
192,192,40424,1,0,0:0:0:0:
64,192,40424,1,0,0:0:0:0:
64,192,40539,1,0,0:0:0:0:
192,192,40539,1,0,0:0:0:0:
448,192,40539,1,0,0:0:0:0:
448,192,40655,1,0,0:0:0:0:
320,192,40655,1,0,0:0:0:0:
192,192,40655,1,0,0:0:0:0:
64,192,40655,1,0,0:0:0:0:
64,192,40886,1,0,0:0:0:0:
192,192,40886,1,0,0:0:0:0:
448,192,40886,1,0,0:0:0:0:
448,192,41116,1,0,0:0:0:0:
192,192,41116,1,0,0:0:0:0:
64,192,41116,1,0,0:0:0:0:
192,192,41347,1,0,0:0:0:0:
320,192,41347,1,0,0:0:0:0:
448,192,41347,1,0,0:0:0:0:
448,192,41578,1,0,0:0:0:0:
320,192,41578,1,0,0:0:0:0:
192,192,41578,1,0,0:0:0:0:
320,192,41809,1,0,0:0:0:0:
192,192,41809,1,0,0:0:0:0:
64,192,41809,1,0,0:0:0:0:
64,192,42039,1,0,0:0:0:0:
192,192,42039,1,0,0:0:0:0:
320,192,42039,1,0,0:0:0:0:
448,192,42270,1,0,0:0:0:0:
192,192,42270,1,0,0:0:0:0:
64,192,42270,1,0,0:0:0:0:
64,192,42386,1,0,0:0:0:0:
320,192,42386,1,0,0:0:0:0:
448,192,42386,1,0,0:0:0:0:
448,192,42501,1,0,0:0:0:0:
320,192,42501,1,0,0:0:0:0:
192,192,42501,1,0,0:0:0:0:
64,192,42501,1,0,0:0:0:0:
448,192,42732,1,0,0:0:0:0:
320,192,42732,1,0,0:0:0:0:
192,192,42732,1,0,0:0:0:0:
64,192,42963,1,0,0:0:0:0:
320,192,42963,1,0,0:0:0:0:
448,192,42963,1,0,0:0:0:0:
448,192,43193,1,0,0:0:0:0:
320,192,43193,1,0,0:0:0:0:
64,192,43193,1,0,0:0:0:0:
192,192,43309,1,0,0:0:0:0:
320,192,43309,1,0,0:0:0:0:
448,192,43309,1,0,0:0:0:0:
448,192,43424,1,0,0:0:0:0:
320,192,43424,1,0,0:0:0:0:
192,192,43424,1,0,0:0:0:0:
64,192,43424,1,0,0:0:0:0:
448,192,43655,1,0,0:0:0:0:
192,192,43655,1,0,0:0:0:0:
64,192,43655,1,0,0:0:0:0:
64,192,43886,1,0,0:0:0:0:
192,192,43886,1,0,0:0:0:0:
320,192,43886,1,0,0:0:0:0:
448,192,44001,1,0,0:0:0:0:
192,192,44001,1,0,0:0:0:0:
64,192,44001,1,0,0:0:0:0:
64,192,44116,1,0,0:0:0:0:
192,192,44116,1,0,0:0:0:0:
320,192,44116,1,0,0:0:0:0:
448,192,44232,1,0,0:0:0:0:
192,192,44232,1,0,0:0:0:0:
64,192,44232,1,0,0:0:0:0:
64,192,44347,1,0,0:0:0:0:
192,192,44347,1,0,0:0:0:0:
320,192,44347,1,0,0:0:0:0:
448,192,44347,1,0,0:0:0:0:
448,192,44578,1,0,0:0:0:0:
192,192,44578,1,0,0:0:0:0:
64,192,44578,1,0,0:0:0:0:
192,192,44809,1,0,0:0:0:0:
320,192,44809,1,0,0:0:0:0:
448,192,44809,1,0,0:0:0:0:
448,192,45039,1,0,0:0:0:0:
320,192,45039,1,0,0:0:0:0:
64,192,45039,1,0,0:0:0:0:
64,192,45270,1,0,0:0:0:0:
192,192,45270,1,0,0:0:0:0:
448,192,45270,1,0,0:0:0:0:
448,192,45501,1,0,0:0:0:0:
320,192,45501,1,0,0:0:0:0:
192,192,45501,1,0,0:0:0:0:
64,192,45732,1,0,0:0:0:0:
192,192,45732,1,0,0:0:0:0:
320,192,45732,1,0,0:0:0:0:
448,192,45963,1,0,0:0:0:0:
320,192,45963,1,0,0:0:0:0:
192,192,45963,1,0,0:0:0:0:
192,192,46078,1,0,0:0:0:0:
320,192,46078,1,0,0:0:0:0:
448,192,46078,1,0,0:0:0:0:
64,192,46193,1,0,0:0:0:0:
192,192,46193,1,0,0:0:0:0:
320,192,46193,1,0,0:0:0:0:
448,192,46193,1,0,0:0:0:0:
448,192,46424,1,0,0:0:0:0:
192,192,46424,1,0,0:0:0:0:
64,192,46424,1,0,0:0:0:0:
64,192,46655,1,0,0:0:0:0:
320,192,46655,1,0,0:0:0:0:
448,192,46655,1,0,0:0:0:0:
320,192,46886,1,0,0:0:0:0:
192,192,46886,1,0,0:0:0:0:
64,192,46886,1,0,0:0:0:0:
64,192,47001,1,0,0:0:0:0:
192,192,47001,1,0,0:0:0:0:
320,192,47001,1,0,0:0:0:0:
448,192,47116,1,0,0:0:0:0:
320,192,47116,1,0,0:0:0:0:
192,192,47116,1,0,0:0:0:0:
64,192,47116,1,0,0:0:0:0:
448,192,47347,1,0,0:0:0:0:
320,192,47347,1,0,0:0:0:0:
64,192,47347,1,0,0:0:0:0:
192,192,47578,1,0,0:0:0:0:
320,192,47578,1,0,0:0:0:0:
448,192,47578,1,0,0:0:0:0:
448,192,47809,1,0,0:0:0:0:
192,192,47809,1,0,0:0:0:0:
64,192,47809,1,0,0:0:0:0:
64,192,47924,1,0,0:0:0:0:
192,192,47924,1,0,0:0:0:0:
448,192,47924,1,0,0:0:0:0:
448,192,48039,1,0,0:0:0:0:
320,192,48039,1,0,0:0:0:0:
192,192,48039,1,0,0:0:0:0:
64,192,48039,1,0,0:0:0:0:
448,192,48270,1,0,0:0:0:0:
320,192,48270,1,0,0:0:0:0:
64,192,48270,1,0,0:0:0:0:
64,192,48501,1,0,0:0:0:0:
192,192,48501,1,0,0:0:0:0:
320,192,48501,1,0,0:0:0:0:
448,192,48732,1,0,0:0:0:0:
320,192,48732,1,0,0:0:0:0:
64,192,48732,1,0,0:0:0:0:
192,192,48847,1,0,0:0:0:0:
320,192,48847,1,0,0:0:0:0:
448,192,48847,1,0,0:0:0:0:
64,192,48963,1,0,0:0:0:0:
192,192,48963,1,0,0:0:0:0:
320,192,48963,1,0,0:0:0:0:
448,192,48963,1,0,0:0:0:0:
448,192,49193,1,0,0:0:0:0:
320,192,49193,1,0,0:0:0:0:
64,192,49193,1,0,0:0:0:0:
448,192,49424,1,0,0:0:0:0:
192,192,49424,1,0,0:0:0:0:
64,192,49424,1,0,0:0:0:0:
64,192,49655,1,0,0:0:0:0:
192,192,49655,1,0,0:0:0:0:
320,192,49655,1,0,0:0:0:0:
448,192,49886,1,0,0:0:0:0:
320,192,49886,1,0,0:0:0:0:
64,192,49886,1,0,0:0:0:0:
64,192,50116,1,0,0:0:0:0:
192,192,50116,1,0,0:0:0:0:
448,192,50116,1,0,0:0:0:0:
448,192,50347,1,0,0:0:0:0:
320,192,50347,1,0,0:0:0:0:
192,192,50347,1,0,0:0:0:0:
64,192,50578,1,0,0:0:0:0:
320,192,50578,1,0,0:0:0:0:
448,192,50578,1,0,0:0:0:0:
320,192,50809,1,0,0:0:0:0:
192,192,50809,1,0,0:0:0:0:
64,192,50809,1,0,0:0:0:0:
448,192,51039,1,0,0:0:0:0:
320,192,51039,1,0,0:0:0:0:
64,192,51039,1,0,0:0:0:0:
320,192,51270,1,0,0:0:0:0:
192,192,51270,1,0,0:0:0:0:
64,192,51270,1,0,0:0:0:0:
192,192,51501,1,0,0:0:0:0:
320,192,51501,1,0,0:0:0:0:
448,192,51501,1,0,0:0:0:0:
320,192,51732,128,0,53578:0:0:0:0:
64,192,51732,128,0,55424:0:0:0:0:
448,192,51732,128,0,53578:0:0:0:0:
192,192,51732,1,0,0:0:0:0:
192,192,52655,1,0,0:0:0:0:
192,192,53578,128,0,57270:0:0:0:0:
448,192,54039,1,0,0:0:0:0:
320,192,54386,1,0,0:0:0:0:
448,192,54501,128,0,59116:0:0:0:0:
320,192,55424,1,0,0:0:0:0:
64,192,56347,128,0,57270:0:0:0:0:
320,192,57270,128,0,60963:0:0:0:0:
64,192,57732,1,0,0:0:0:0:
192,192,58078,1,0,0:0:0:0:
64,192,58193,128,0,62809:0:0:0:0:
192,192,59116,128,0,60963:0:0:0:0:
448,192,60039,1,0,0:0:0:0:
448,192,60963,128,0,64655:0:0:0:0:
192,192,61424,1,0,0:0:0:0:
320,192,61770,1,0,0:0:0:0:
192,192,61886,128,0,65116:0:0:0:0:
320,192,62809,128,0,66039:0:0:0:0:
64,192,63732,1,0,0:0:0:0:
64,192,64655,128,0,66039:0:0:0:0:
448,192,65116,1,0,0:0:0:0:
192,192,65463,1,0,0:0:0:0:
448,192,65578,128,0,66039:0:0:0:0:
192,192,65924,1,0,0:0:0:0:
192,192,66039,1,0,0:0:0:0:
64,192,66270,1,0,0:0:0:0:
192,192,66270,1,0,0:0:0:0:
448,192,66270,1,0,0:0:0:0:
320,192,66386,1,0,0:0:0:0:
448,192,66386,1,0,0:0:0:0:
64,192,66386,1,0,0:0:0:0:
64,192,66501,1,0,0:0:0:0:
192,192,66501,1,0,0:0:0:0:
320,192,66501,1,0,0:0:0:0:
448,192,66501,1,0,0:0:0:0:
64,192,66732,1,0,0:0:0:0:
192,192,66732,1,0,0:0:0:0:
448,192,66732,1,0,0:0:0:0:
448,192,66963,1,0,0:0:0:0:
320,192,66963,1,0,0:0:0:0:
192,192,66963,1,0,0:0:0:0:
64,192,67193,1,0,0:0:0:0:
192,192,67193,1,0,0:0:0:0:
320,192,67193,1,0,0:0:0:0:
448,192,67424,1,0,0:0:0:0:
320,192,67424,1,0,0:0:0:0:
64,192,67424,1,0,0:0:0:0:
448,192,67655,1,0,0:0:0:0:
320,192,67655,1,0,0:0:0:0:
192,192,67655,1,0,0:0:0:0:
64,192,67886,1,0,0:0:0:0:
192,192,67886,1,0,0:0:0:0:
448,192,67886,1,0,0:0:0:0:
448,192,68116,1,0,0:0:0:0:
192,192,68116,1,0,0:0:0:0:
64,192,68116,1,0,0:0:0:0:
64,192,68232,1,0,0:0:0:0:
320,192,68232,1,0,0:0:0:0:
448,192,68232,1,0,0:0:0:0:
448,192,68347,1,0,0:0:0:0:
320,192,68347,1,0,0:0:0:0:
192,192,68347,1,0,0:0:0:0:
64,192,68347,1,0,0:0:0:0:
448,192,68578,1,0,0:0:0:0:
320,192,68578,1,0,0:0:0:0:
64,192,68578,1,0,0:0:0:0:
64,192,68809,1,0,0:0:0:0:
192,192,68809,1,0,0:0:0:0:
448,192,68809,1,0,0:0:0:0:
448,192,69039,1,0,0:0:0:0:
192,192,69039,1,0,0:0:0:0:
64,192,69039,1,0,0:0:0:0:
64,192,69155,1,0,0:0:0:0:
320,192,69155,1,0,0:0:0:0:
448,192,69155,1,0,0:0:0:0:
448,192,69270,1,0,0:0:0:0:
320,192,69270,1,0,0:0:0:0:
192,192,69270,1,0,0:0:0:0:
64,192,69270,1,0,0:0:0:0:
448,192,69501,1,0,0:0:0:0:
320,192,69501,1,0,0:0:0:0:
64,192,69501,1,0,0:0:0:0:
448,192,69732,1,0,0:0:0:0:
192,192,69732,1,0,0:0:0:0:
64,192,69732,1,0,0:0:0:0:
64,192,69963,1,0,0:0:0:0:
192,192,69963,1,0,0:0:0:0:
448,192,69963,1,0,0:0:0:0:
64,192,70078,1,0,0:0:0:0:
320,192,70078,1,0,0:0:0:0:
448,192,70078,1,0,0:0:0:0:
320,192,70193,1,0,0:0:0:0:
192,192,70193,1,0,0:0:0:0:
64,192,70193,1,0,0:0:0:0:
448,192,70193,1,0,0:0:0:0:
64,192,70424,1,0,0:0:0:0:
448,192,70424,1,0,0:0:0:0:
320,192,70424,1,0,0:0:0:0:
192,192,70655,1,0,0:0:0:0:
64,192,70655,1,0,0:0:0:0:
448,192,70655,1,0,0:0:0:0:
192,192,70886,1,0,0:0:0:0:
448,192,70886,1,0,0:0:0:0:
64,192,70886,1,0,0:0:0:0:
448,192,71001,1,0,0:0:0:0:
64,192,71001,1,0,0:0:0:0:
320,192,71001,1,0,0:0:0:0:
64,192,71116,1,0,0:0:0:0:
448,192,71116,1,0,0:0:0:0:
320,192,71116,1,0,0:0:0:0:
192,192,71116,1,0,0:0:0:0:
448,192,71347,1,0,0:0:0:0:
320,192,71347,1,0,0:0:0:0:
64,192,71347,1,0,0:0:0:0:
448,192,71578,1,0,0:0:0:0:
192,192,71578,1,0,0:0:0:0:
64,192,71578,1,0,0:0:0:0:
64,192,71809,1,0,0:0:0:0:
192,192,71809,1,0,0:0:0:0:
448,192,71809,1,0,0:0:0:0:
64,192,71924,1,0,0:0:0:0:
320,192,71924,1,0,0:0:0:0:
448,192,71924,1,0,0:0:0:0:
320,192,72039,1,0,0:0:0:0:
192,192,72039,1,0,0:0:0:0:
64,192,72039,1,0,0:0:0:0:
448,192,72039,1,0,0:0:0:0:
64,192,72270,1,0,0:0:0:0:
448,192,72270,1,0,0:0:0:0:
320,192,72270,1,0,0:0:0:0:
192,192,72501,1,0,0:0:0:0:
64,192,72501,1,0,0:0:0:0:
448,192,72501,1,0,0:0:0:0:
192,192,72732,1,0,0:0:0:0:
448,192,72732,1,0,0:0:0:0:
64,192,72732,1,0,0:0:0:0:
448,192,72847,1,0,0:0:0:0:
64,192,72847,1,0,0:0:0:0:
320,192,72847,1,0,0:0:0:0:
64,192,72963,1,0,0:0:0:0:
448,192,72963,1,0,0:0:0:0:
320,192,72963,1,0,0:0:0:0:
192,192,72963,1,0,0:0:0:0:
448,192,73193,1,0,0:0:0:0:
320,192,73193,1,0,0:0:0:0:
64,192,73193,1,0,0:0:0:0:
448,192,73424,1,0,0:0:0:0:
192,192,73424,1,0,0:0:0:0:
64,192,73424,1,0,0:0:0:0:
64,192,73655,1,0,0:0:0:0:
192,192,73655,1,0,0:0:0:0:
448,192,73655,1,0,0:0:0:0:
64,192,73770,1,0,0:0:0:0:
320,192,73770,1,0,0:0:0:0:
448,192,73770,1,0,0:0:0:0:
320,192,73886,1,0,0:0:0:0:
192,192,73886,1,0,0:0:0:0:
64,192,73886,1,0,0:0:0:0:
448,192,73886,1,0,0:0:0:0:
64,192,74116,1,0,0:0:0:0:
448,192,74116,1,0,0:0:0:0:
320,192,74116,1,0,0:0:0:0:
192,192,74347,1,0,0:0:0:0:
64,192,74347,1,0,0:0:0:0:
448,192,74347,1,0,0:0:0:0:
192,192,74578,1,0,0:0:0:0:
448,192,74578,1,0,0:0:0:0:
64,192,74578,1,0,0:0:0:0:
448,192,74693,1,0,0:0:0:0:
64,192,74693,1,0,0:0:0:0:
320,192,74693,1,0,0:0:0:0:
64,192,74809,1,0,0:0:0:0:
448,192,74809,1,0,0:0:0:0:
320,192,74809,1,0,0:0:0:0:
192,192,74809,1,0,0:0:0:0:
448,192,75039,1,0,0:0:0:0:
320,192,75039,1,0,0:0:0:0:
64,192,75039,1,0,0:0:0:0:
448,192,75270,1,0,0:0:0:0:
192,192,75270,1,0,0:0:0:0:
64,192,75270,1,0,0:0:0:0:
64,192,75501,1,0,0:0:0:0:
192,192,75501,1,0,0:0:0:0:
448,192,75501,1,0,0:0:0:0:
64,192,75616,1,0,0:0:0:0:
320,192,75616,1,0,0:0:0:0:
448,192,75616,1,0,0:0:0:0:
320,192,75732,1,0,0:0:0:0:
192,192,75732,1,0,0:0:0:0:
64,192,75732,1,0,0:0:0:0:
448,192,75732,1,0,0:0:0:0:
64,192,75963,1,0,0:0:0:0:
448,192,75963,1,0,0:0:0:0:
320,192,75963,1,0,0:0:0:0:
192,192,76193,1,0,0:0:0:0:
64,192,76193,1,0,0:0:0:0:
448,192,76193,1,0,0:0:0:0:
192,192,76424,1,0,0:0:0:0:
448,192,76424,1,0,0:0:0:0:
64,192,76424,1,0,0:0:0:0:
448,192,76539,1,0,0:0:0:0:
64,192,76539,1,0,0:0:0:0:
320,192,76539,1,0,0:0:0:0:
64,192,76655,1,0,0:0:0:0:
448,192,76655,1,0,0:0:0:0:
320,192,76655,1,0,0:0:0:0:
192,192,76655,1,0,0:0:0:0:
448,192,76886,1,0,0:0:0:0:
320,192,76886,1,0,0:0:0:0:
64,192,76886,1,0,0:0:0:0:
448,192,77116,1,0,0:0:0:0:
192,192,77116,1,0,0:0:0:0:
64,192,77116,1,0,0:0:0:0:
64,192,77347,1,0,0:0:0:0:
192,192,77347,1,0,0:0:0:0:
448,192,77347,1,0,0:0:0:0:
64,192,77463,1,0,0:0:0:0:
320,192,77463,1,0,0:0:0:0:
448,192,77463,1,0,0:0:0:0:
320,192,77578,1,0,0:0:0:0:
192,192,77578,1,0,0:0:0:0:
64,192,77578,1,0,0:0:0:0:
448,192,77578,1,0,0:0:0:0:
64,192,77809,1,0,0:0:0:0:
448,192,77809,1,0,0:0:0:0:
320,192,77809,1,0,0:0:0:0:
192,192,78039,1,0,0:0:0:0:
64,192,78039,1,0,0:0:0:0:
448,192,78039,1,0,0:0:0:0:
192,192,78270,1,0,0:0:0:0:
448,192,78270,1,0,0:0:0:0:
64,192,78270,1,0,0:0:0:0:
448,192,78386,1,0,0:0:0:0:
64,192,78386,1,0,0:0:0:0:
320,192,78386,1,0,0:0:0:0:
64,192,78501,1,0,0:0:0:0:
448,192,78501,1,0,0:0:0:0:
320,192,78501,1,0,0:0:0:0:
192,192,78501,1,0,0:0:0:0:
64,192,78732,1,0,0:0:0:0:
448,192,78732,1,0,0:0:0:0:
320,192,78732,1,0,0:0:0:0:
192,192,78963,1,0,0:0:0:0:
64,192,78963,1,0,0:0:0:0:
448,192,78963,1,0,0:0:0:0:
192,192,79193,1,0,0:0:0:0:
448,192,79193,1,0,0:0:0:0:
64,192,79193,1,0,0:0:0:0:
448,192,79309,1,0,0:0:0:0:
64,192,79309,1,0,0:0:0:0:
320,192,79309,1,0,0:0:0:0:
64,192,79424,1,0,0:0:0:0:
448,192,79424,1,0,0:0:0:0:
320,192,79424,1,0,0:0:0:0:
192,192,79424,1,0,0:0:0:0:
448,192,79655,1,0,0:0:0:0:
320,192,79655,1,0,0:0:0:0:
64,192,79655,1,0,0:0:0:0:
448,192,79886,1,0,0:0:0:0:
192,192,79886,1,0,0:0:0:0:
64,192,79886,1,0,0:0:0:0:
64,192,80116,1,0,0:0:0:0:
192,192,80116,1,0,0:0:0:0:
448,192,80116,1,0,0:0:0:0:
64,192,80232,1,0,0:0:0:0:
320,192,80232,1,0,0:0:0:0:
448,192,80232,1,0,0:0:0:0:
320,192,80347,1,0,0:0:0:0:
192,192,80347,1,0,0:0:0:0:
64,192,80347,1,0,0:0:0:0:
448,192,80347,1,0,0:0:0:0:
448,192,80578,1,0,0:0:0:0:
320,192,80578,1,0,0:0:0:0:
64,192,80578,1,0,0:0:0:0:
448,192,80809,1,0,0:0:0:0:
192,192,80809,1,0,0:0:0:0:
64,192,80809,1,0,0:0:0:0:
64,192,81039,1,0,0:0:0:0:
192,192,81039,1,0,0:0:0:0:
448,192,81039,1,0,0:0:0:0:
64,192,81155,1,0,0:0:0:0:
320,192,81155,1,0,0:0:0:0:
448,192,81155,1,0,0:0:0:0:
320,192,81270,1,0,0:0:0:0:
192,192,81270,1,0,0:0:0:0:
64,192,81270,1,0,0:0:0:0:
448,192,81270,1,0,0:0:0:0:
320,192,81386,1,0,0:0:0:0:
192,192,81501,1,0,0:0:0:0:
64,192,81501,1,0,0:0:0:0:
448,192,81501,1,0,0:0:0:0:
192,192,81616,1,0,0:0:0:0:
448,192,81732,1,0,0:0:0:0:
320,192,81732,1,0,0:0:0:0:
64,192,81732,1,0,0:0:0:0:
448,192,81847,1,0,0:0:0:0:
320,192,81963,1,0,0:0:0:0:
192,192,81963,1,0,0:0:0:0:
64,192,81963,1,0,0:0:0:0:
192,192,82078,1,0,0:0:0:0:
448,192,82193,1,0,0:0:0:0:
64,192,82193,1,0,0:0:0:0:
320,192,82193,1,0,0:0:0:0:
320,192,82309,1,0,0:0:0:0:
448,192,82424,1,0,0:0:0:0:
64,192,82424,1,0,0:0:0:0:
192,192,82424,1,0,0:0:0:0:
448,192,82539,1,0,0:0:0:0:
64,192,82655,1,0,0:0:0:0:
320,192,82655,1,0,0:0:0:0:
192,192,82655,1,0,0:0:0:0:
192,192,82770,1,0,0:0:0:0:
320,192,82886,1,0,0:0:0:0:
448,192,82886,1,0,0:0:0:0:
64,192,82886,1,0,0:0:0:0:
448,192,83001,1,0,0:0:0:0:
192,192,83116,1,0,0:0:0:0:
64,192,83116,1,0,0:0:0:0:
320,192,83116,1,0,0:0:0:0:
448,192,83116,1,0,0:0:0:0:
320,192,83232,1,0,0:0:0:0:
448,192,83347,1,0,0:0:0:0:
64,192,83347,1,0,0:0:0:0:
192,192,83347,1,0,0:0:0:0:
192,192,83463,1,0,0:0:0:0:
64,192,83578,1,0,0:0:0:0:
320,192,83578,1,0,0:0:0:0:
448,192,83578,1,0,0:0:0:0:
64,192,83693,1,0,0:0:0:0:
320,192,83809,1,0,0:0:0:0:
192,192,83809,1,0,0:0:0:0:
448,192,83809,1,0,0:0:0:0:
320,192,83924,1,0,0:0:0:0:
448,192,84039,1,0,0:0:0:0:
192,192,84039,1,0,0:0:0:0:
64,192,84039,1,0,0:0:0:0:
192,192,84155,1,0,0:0:0:0:
448,192,84270,1,0,0:0:0:0:
64,192,84270,1,0,0:0:0:0:
320,192,84270,1,0,0:0:0:0:
448,192,84386,1,0,0:0:0:0:
64,192,84501,1,0,0:0:0:0:
320,192,84501,1,0,0:0:0:0:
192,192,84501,1,0,0:0:0:0:
448,192,84616,1,0,0:0:0:0:
320,192,84616,1,0,0:0:0:0:
64,192,84616,1,0,0:0:0:0:
320,192,84732,1,0,0:0:0:0:
448,192,84732,1,0,0:0:0:0:
64,192,84732,1,0,0:0:0:0:
192,192,84847,1,0,0:0:0:0:
64,192,84847,1,0,0:0:0:0:
448,192,84847,1,0,0:0:0:0:
64,192,84963,1,0,0:0:0:0:
192,192,84963,1,0,0:0:0:0:
320,192,84963,1,0,0:0:0:0:
448,192,84963,1,0,0:0:0:0:
192,192,85078,1,0,0:0:0:0:
320,192,85193,1,0,0:0:0:0:
448,192,85193,1,0,0:0:0:0:
64,192,85193,1,0,0:0:0:0:
448,192,85309,1,0,0:0:0:0:
64,192,85424,1,0,0:0:0:0:
192,192,85424,1,0,0:0:0:0:
320,192,85424,1,0,0:0:0:0:
320,192,85539,1,0,0:0:0:0:
192,192,85655,1,0,0:0:0:0:
64,192,85655,1,0,0:0:0:0:
448,192,85655,1,0,0:0:0:0:
64,192,85770,1,0,0:0:0:0:
192,192,85886,1,0,0:0:0:0:
320,192,85886,1,0,0:0:0:0:
448,192,85886,1,0,0:0:0:0:
192,192,86001,1,0,0:0:0:0:
448,192,86116,1,0,0:0:0:0:
320,192,86116,1,0,0:0:0:0:
64,192,86116,1,0,0:0:0:0:
64,192,86232,1,0,0:0:0:0:
192,192,86347,1,0,0:0:0:0:
320,192,86347,1,0,0:0:0:0:
448,192,86347,1,0,0:0:0:0:
320,192,86463,1,0,0:0:0:0:
448,192,86578,1,0,0:0:0:0:
192,192,86578,1,0,0:0:0:0:
64,192,86578,1,0,0:0:0:0:
192,192,86693,1,0,0:0:0:0:
64,192,86809,1,0,0:0:0:0:
320,192,86809,1,0,0:0:0:0:
448,192,86809,1,0,0:0:0:0:
192,192,86809,1,0,0:0:0:0:
448,192,86924,1,0,0:0:0:0:
320,192,87039,1,0,0:0:0:0:
192,192,87039,1,0,0:0:0:0:
64,192,87039,1,0,0:0:0:0:
320,192,87155,1,0,0:0:0:0:
64,192,87270,1,0,0:0:0:0:
192,192,87270,1,0,0:0:0:0:
448,192,87270,1,0,0:0:0:0:
192,192,87386,1,0,0:0:0:0:
448,192,87501,1,0,0:0:0:0:
320,192,87501,1,0,0:0:0:0:
64,192,87501,1,0,0:0:0:0:
64,192,87616,1,0,0:0:0:0:
192,192,87732,1,0,0:0:0:0:
320,192,87732,1,0,0:0:0:0:
448,192,87732,1,0,0:0:0:0:
192,192,87847,1,0,0:0:0:0:
448,192,87963,1,0,0:0:0:0:
320,192,87963,1,0,0:0:0:0:
64,192,87963,1,0,0:0:0:0:
320,192,88078,1,0,0:0:0:0:
64,192,88193,1,0,0:0:0:0:
192,192,88193,1,0,0:0:0:0:
448,192,88193,1,0,0:0:0:0:
448,192,88309,1,0,0:0:0:0:
192,192,88309,1,0,0:0:0:0:
64,192,88309,1,0,0:0:0:0:
320,192,88424,1,0,0:0:0:0:
192,192,88424,1,0,0:0:0:0:
64,192,88424,1,0,0:0:0:0:
192,192,88539,1,0,0:0:0:0:
320,192,88539,1,0,0:0:0:0:
448,192,88539,1,0,0:0:0:0:
64,192,88655,1,0,0:0:0:0:
192,192,88655,1,0,0:0:0:0:
320,192,88655,1,0,0:0:0:0:
448,192,88655,1,0,0:0:0:0:
192,192,88770,1,0,0:0:0:0:
448,192,88886,1,0,0:0:0:0:
64,192,88886,1,0,0:0:0:0:
192,192,88886,1,0,0:0:0:0:
448,192,89001,1,0,0:0:0:0:
320,192,89116,1,0,0:0:0:0:
64,192,89116,1,0,0:0:0:0:
192,192,89116,1,0,0:0:0:0:
320,192,89232,1,0,0:0:0:0:
448,192,89347,1,0,0:0:0:0:
192,192,89347,1,0,0:0:0:0:
64,192,89347,1,0,0:0:0:0:
448,192,89463,1,0,0:0:0:0:
320,192,89578,1,0,0:0:0:0:
192,192,89578,1,0,0:0:0:0:
64,192,89578,1,0,0:0:0:0:
64,192,89693,1,0,0:0:0:0:
448,192,89809,1,0,0:0:0:0:
320,192,89809,1,0,0:0:0:0:
192,192,89809,1,0,0:0:0:0:
192,192,89924,1,0,0:0:0:0:
64,192,90039,1,0,0:0:0:0:
320,192,90039,1,0,0:0:0:0:
448,192,90039,1,0,0:0:0:0:
320,192,90155,1,0,0:0:0:0:
448,192,90270,1,0,0:0:0:0:
192,192,90270,1,0,0:0:0:0:
64,192,90270,1,0,0:0:0:0:
448,192,90386,1,0,0:0:0:0:
64,192,90501,1,0,0:0:0:0:
192,192,90501,1,0,0:0:0:0:
320,192,90501,1,0,0:0:0:0:
448,192,90501,1,0,0:0:0:0:
192,192,90616,1,0,0:0:0:0:
448,192,90732,1,0,0:0:0:0:
320,192,90732,1,0,0:0:0:0:
64,192,90732,1,0,0:0:0:0:
448,192,90847,1,0,0:0:0:0:
64,192,90963,1,0,0:0:0:0:
192,192,90963,1,0,0:0:0:0:
320,192,90963,1,0,0:0:0:0:
192,192,91078,1,0,0:0:0:0:
448,192,91193,1,0,0:0:0:0:
320,192,91193,1,0,0:0:0:0:
64,192,91193,1,0,0:0:0:0:
320,192,91309,1,0,0:0:0:0:
64,192,91424,1,0,0:0:0:0:
192,192,91424,1,0,0:0:0:0:
448,192,91424,1,0,0:0:0:0:
64,192,91539,1,0,0:0:0:0:
448,192,91655,1,0,0:0:0:0:
320,192,91655,1,0,0:0:0:0:
192,192,91655,1,0,0:0:0:0:
192,192,91770,1,0,0:0:0:0:
64,192,91886,1,0,0:0:0:0:
320,192,91886,1,0,0:0:0:0:
448,192,91886,1,0,0:0:0:0:
448,192,92001,1,0,0:0:0:0:
64,192,92001,1,0,0:0:0:0:
192,192,92001,1,0,0:0:0:0:
320,192,92116,1,0,0:0:0:0:
192,192,92116,1,0,0:0:0:0:
64,192,92116,1,0,0:0:0:0:
64,192,92232,1,0,0:0:0:0:
448,192,92232,1,0,0:0:0:0:
192,192,92232,1,0,0:0:0:0:
64,192,92347,1,0,0:0:0:0:
192,192,92347,1,0,0:0:0:0:
320,192,92347,1,0,0:0:0:0:
448,192,92347,1,0,0:0:0:0:
64,192,92463,1,0,0:0:0:0:
448,192,92578,1,0,0:0:0:0:
320,192,92578,1,0,0:0:0:0:
192,192,92578,1,0,0:0:0:0:
320,192,92693,1,0,0:0:0:0:
64,192,92809,1,0,0:0:0:0:
192,192,92809,1,0,0:0:0:0:
448,192,92809,1,0,0:0:0:0:
192,192,92924,1,0,0:0:0:0:
448,192,93039,1,0,0:0:0:0:
320,192,93039,1,0,0:0:0:0:
64,192,93039,1,0,0:0:0:0:
320,192,93155,1,0,0:0:0:0:
64,192,93270,1,0,0:0:0:0:
192,192,93270,1,0,0:0:0:0:
448,192,93270,1,0,0:0:0:0:
448,192,93386,1,0,0:0:0:0:
320,192,93501,1,0,0:0:0:0:
192,192,93501,1,0,0:0:0:0:
64,192,93501,1,0,0:0:0:0:
64,192,93616,1,0,0:0:0:0:
192,192,93732,1,0,0:0:0:0:
320,192,93732,1,0,0:0:0:0:
448,192,93732,1,0,0:0:0:0:
320,192,93847,1,0,0:0:0:0:
448,192,93963,1,0,0:0:0:0:
192,192,93963,1,0,0:0:0:0:
64,192,93963,1,0,0:0:0:0:
64,192,94078,1,0,0:0:0:0:
192,192,94193,1,0,0:0:0:0:
448,192,94193,1,0,0:0:0:0:
320,192,94193,1,0,0:0:0:0:
64,192,94193,1,0,0:0:0:0:
192,192,94309,1,0,0:0:0:0:
448,192,94424,1,0,0:0:0:0:
320,192,94424,1,0,0:0:0:0:
64,192,94424,1,0,0:0:0:0:
64,192,94539,1,0,0:0:0:0:
192,192,94655,1,0,0:0:0:0:
320,192,94655,1,0,0:0:0:0:
448,192,94655,1,0,0:0:0:0:
192,192,94770,1,0,0:0:0:0:
448,192,94886,1,0,0:0:0:0:
320,192,94886,1,0,0:0:0:0:
64,192,94886,1,0,0:0:0:0:
448,192,95001,1,0,0:0:0:0:
64,192,95116,1,0,0:0:0:0:
192,192,95116,1,0,0:0:0:0:
320,192,95116,1,0,0:0:0:0:
192,192,95232,1,0,0:0:0:0:
448,192,95347,1,0,0:0:0:0:
320,192,95347,1,0,0:0:0:0:
64,192,95347,1,0,0:0:0:0:
64,192,95463,1,0,0:0:0:0:
192,192,95578,1,0,0:0:0:0:
320,192,95578,1,0,0:0:0:0:
448,192,95578,1,0,0:0:0:0:
448,192,95693,1,0,0:0:0:0:
320,192,95693,1,0,0:0:0:0:
64,192,95693,1,0,0:0:0:0:
320,192,95809,1,0,0:0:0:0:
192,192,95809,1,0,0:0:0:0:
64,192,95809,1,0,0:0:0:0:
448,192,95924,128,0,96039:0:0:0:0:
192,192,95924,128,0,96039:0:0:0:0:
64,192,95924,128,0,96039:0:0:0:0:
