osu file format v12

[General]
AudioFilename: Hisoutensoku.mp3
AudioLeadIn: 2007
PreviewTime: 51367
Countdown: 0
SampleSet: Soft
StackLeniency: 0.7
Mode: 2
LetterboxInBreaks: 1

[Editor]
Bookmarks: 12700,12783,22019,24450
DistanceSpacing: 2
BeatDivisor: 4
GridSize: 4

[Metadata]
Title:Did You See That Shadow?
TitleUnicode:きみはあの影を見たか
Artist:U2 Akiyama
ArtistUnicode:あきやま うに
Creator:ZHSteven
Version:Normal
Source:Touhou
Tags:Hisoutensoku Unthinkable Natural Law th12.3 Akiyama Uni Tasogare Frontier Team Shanghai Alice ZUN
BeatmapID:257546
BeatmapSetID:87411

[Difficulty]
HPDrainRate:4
CircleSize:2
OverallDifficulty:6
ApproachRate:6
SliderMultiplier:1
SliderTickRate:2

[Events]
//Background and Video events
0,0,"TH123.jpg",0,0
//Break Periods
2,28233,32983
//Storyboard Layer 0 (Background)
//Storyboard Layer 1 (Fail)
//Storyboard Layer 2 (Pass)
//Storyboard Layer 3 (Foreground)
//Storyboard Sound Samples
//Background Colour Transformations
3,100,163,162,255

[TimingPoints]
34,333.333333333333,3,2,0,50,1,0
8033,-100,3,2,0,50,0,1
20033,-100,3,2,0,50,0,0
52033,-100,3,2,0,50,0,1
66367,-100,3,2,0,50,0,0
68033,-100,3,2,0,50,0,1
83053,375,3,2,0,50,1,0
83428,363.636363636364,3,2,0,50,1,0
83609,352.941176470588,3,2,0,50,1,0
83785,333.333333333333,4,2,0,50,1,0
84118,352.941176470588,4,2,0,50,1,0
88000,333.333333333333,4,2,0,50,1,0
89336,387.096774193548,4,2,0,50,1,0
90497,333.333333333333,4,2,0,50,1,0

[HitObjects]
104,168,34,2,0,B|284:80,1,200
440,164,1033,1,2,0:0:0:0:
368,160,1367,1,2,0:0:0:0:
304,160,1700,1,0,0:0:0:0:
240,156,1867,1,0,0:0:0:0:
176,152,2033,6,0,L|320:192,1,150,2|0,0:0|0:0,0:0:0:0:
400,116,3033,2,0,B|256:120|256:120|188:144,1,200
300,268,4033,6,0,B|128:200|128:200|112:72,1,300,2|0,0:0|0:0,0:0:0:0:
234,83,5367,1,0,0:0:0:0:
353,83,5700,1,2,0:0:0:0:
472,83,6033,6,0,L|312:83,2,150,0|0|2,0:0|0:0|0:0,0:0:0:0:
344,280,7367,1,2,0:0:0:0:
224,280,7700,1,2,0:0:0:0:
44,280,8033,6,0,L|136:144,1,150,4|2,0:0|0:0,0:0:0:0:
324,120,9033,1,0,0:0:0:0:
240,212,9367,1,2,0:0:0:0:
160,124,9700,1,2,0:0:0:0:
324,116,10033,6,0,L|232:252,1,150,0|2,0:0|0:0,0:0:0:0:
36,120,11033,1,0,0:0:0:0:
136,208,11367,1,2,0:0:0:0:
36,120,11700,1,2,0:0:0:0:
240,116,12033,6,0,L|240:268,1,150,4|0,0:0|0:0,0:0:0:0:
464,248,13033,1,2,0:0:0:0:
372,180,13367,1,0,0:0:0:0:
280,104,13700,1,2,0:0:0:0:
464,96,14033,6,0,L|464:248,1,150
236,232,15033,1,2,0:0:0:0:
340,156,15367,1,0,0:0:0:0:
236,72,15700,1,2,0:0:0:0:
448,72,16033,6,0,L|280:72,1,150,4|0,0:0|0:0,0:0:0:0:
140,76,17033,1,2,0:0:0:0:
272,76,17367,1,0,0:0:0:0:
416,72,17700,1,2,0:0:0:0:
152,296,18033,6,0,L|316:296,1,150,4|0,0:0|0:0,0:0:0:0:
68,148,19033,1,6,0:0:0:0:
184,148,19367,1,2,0:0:0:0:
0,148,19700,1,2,0:0:0:0:
128,148,20033,6,0,L|236:148,1,100,4|2,0:0|0:0,0:0:0:0:
332,148,20700,1,0,0:0:0:0:
172,224,21033,1,2,0:0:0:0:
108,228,21200,1,2,0:0:0:0:
172,224,21367,1,2,0:0:0:0:
320,216,21700,1,0,0:0:0:0:
432,152,22033,6,0,L|324:152,1,100,0|2,0:0|0:0,0:0:0:0:
228,152,22700,1,0,0:0:0:0:
392,224,23033,1,2,0:0:0:0:
460,224,23200,1,2,0:0:0:0:
392,224,23367,1,2,0:0:0:0:
240,216,23700,1,0,0:0:0:0:
100,216,24033,6,0,L|208:216,1,100,2|0,0:0|0:0,0:0:0:0:
304,212,24533,2,0,L|200:212,1,100
100,292,25033,2,0,L|208:292,2,100,2|0|2,0:0|0:0|0:0,0:0:0:0:
200,224,26033,5,0,0:0:0:0:
340,144,26367,1,2,0:0:0:0:
372,72,26533,2,0,L|256:188,1,150,0|2,0:0|0:0,0:0:0:0:
76,200,27367,1,0,0:0:0:0:
124,252,27533,2,0,L|292:256,1,150,2|4,0:0|0:0,0:0:0:0:
256,192,34033,12,0,35700,0:0:0:0:
76,112,36033,6,0,L|184:112,1,100,4|0,0:0|0:0,0:0:0:0:
288,112,36700,2,0,L|180:112,1,100,2|0,0:0|0:0,0:0:0:0:
300,112,37367,1,0,0:0:0:0:
408,116,37700,1,2,0:0:0:0:
300,116,38033,6,2,L|184:116,1,100,2|0,0:0|0:0,0:0:0:0:
312,116,38700,2,0,L|432:116,1,100,2|0,0:0|0:0,0:0:0:0:
300,116,39367,1,0,0:0:0:0:
192,116,39700,1,2,0:0:0:0:
384,16,40033,6,0,L|384:116,1,100,0|0,0:0|0:0,0:0:0:0:
248,116,40700,1,2,0:0:0:0:
80,112,41033,2,0,L|196:116,1,100
352,144,41700,1,2,0:0:0:0:
156,84,42033,6,0,L|256:152,1,100,2|0,0:0|0:0,0:0:0:0:
348,140,42700,1,0,0:0:0:0:
240,144,43033,2,0,L|140:212,1,100,2|0,0:0|0:0,0:0:0:0:
48,200,43700,1,2,0:0:0:0:
156,204,44033,6,0,L|260:204,1,100,4|0,0:0|0:0,0:0:0:0:
400,204,44700,2,0,L|316:120,1,100,2|0,0:0|0:0,0:0:0:0:
432,64,45367,1,2,0:0:0:0:
264,60,45700,1,0,0:0:0:0:
136,68,46033,6,0,L|32:68,1,100,2|0,0:0|0:0,0:0:0:0:
196,64,46700,2,0,L|124:136,1,100,2|0,0:0|0:0,0:0:0:0:
308,68,47367,1,2,0:0:0:0:
416,144,47700,1,0,0:0:0:0:
256,244,48033,6,0,L|256:144,1,100,2|0,0:0|0:0,0:0:0:0:
356,141,48700,1,2,0:0:0:0:
256,140,49033,2,0,L|154:140,1,100
256,136,49700,1,2,0:0:0:0:
395,136,50033,5,0,0:0:0:0:
395,136,50200,1,0,0:0:0:0:
256,136,50533,1,2,0:0:0:0:
115,136,50867,1,0,0:0:0:0:
115,136,51033,1,4,0:0:0:0:
324,136,51367,5,0,0:0:0:0:
160,136,51700,5,0,0:0:0:0:
60,128,52033,6,0,L|144:44,1,100,4|0,0:0|0:0,0:0:0:0:
204,60,52533,2,0,L|124:144,1,100
240,132,53033,2,0,L|124:132,2,100,2|0|2,0:0|0:0|0:0,0:0:0:0:
364,140,54033,6,0,L|256:192,1,100,2|0,0:0|0:0,0:0:0:0:
180,152,54533,2,0,L|276:184,1,100,2|0,0:0|0:0,0:0:0:0:
376,188,55033,2,0,L|292:104,2,100,2|0|2,0:0|0:0|0:0,0:0:0:0:
448,196,55867,1,0,0:0:0:0:
368,136,56033,6,0,L|268:136,1,100,6|0,0:0|0:0,0:0:0:0:
168,136,56533,2,0,L|268:136,1,100
368,132,57033,1,2,0:0:0:0:
248,132,57367,1,0,0:0:0:0:
172,132,57533,1,0,0:0:0:0:
96,136,57700,1,2,0:0:0:0:
244,128,58033,5,0,0:0:0:0:
96,144,58367,1,0,0:0:0:0:
224,220,58700,2,0,B|332:208,1,100,2|0,0:0|0:0,0:0:0:0:
172,224,59367,2,0,L|240:224,1,50,2|0,0:0|0:0,0:0:0:0:
276,224,59700,2,0,L|216:224,1,50,2|0,0:0|0:0,0:0:0:0:
172,224,60033,6,0,L|172:116,1,100,4|0,0:0|0:0,0:0:0:0:
280,124,60533,2,0,L|280:240,1,100,0|0,0:0|0:0,0:0:0:0:
172,224,61033,1,2,0:0:0:0:
232,256,61367,1,0,0:0:0:0:
308,252,61533,1,0,0:0:0:0:
232,256,61700,1,2,0:0:0:0:
156,260,61867,1,0,0:0:0:0:
80,260,62033,6,0,L|192:260,1,100,2|0,0:0|0:0,0:0:0:0:
72,264,62533,2,0,L|72:152,1,100
148,164,63033,2,0,L|60:164,2,75,2|0|0,0:0|0:0|0:0,0:0:0:0:
252,88,63700,1,0,0:0:0:0:
160,92,63867,1,2,0:0:0:0:
272,88,64033,6,0,L|172:88,1,100,4|0,0:0|0:0,0:0:0:0:
104,88,64533,2,0,L|176:88,1,50
240,88,64867,1,2,0:0:0:0:
332,88,65033,6,0,L|404:88,2,50,4|0|0,0:0|0:0|0:0,0:0:0:0:
256,88,65533,2,0,L|184:88,2,50,0|0|2,0:0|0:0|0:0,0:0:0:0:
376,88,66033,5,4,0:0:0:0:
256,192,66367,12,0,67367,0:0:0:0:
220,168,67700,5,0,0:0:0:0:
340,172,67867,1,0,0:0:0:0:
452,128,68033,6,0,L|368:44,1,100,4|0,0:0|0:0,0:0:0:0:
308,60,68533,2,0,L|388:144,1,100
272,132,69033,2,0,L|388:132,2,100,2|0|2,0:0|0:0|0:0,0:0:0:0:
148,140,70033,6,0,L|256:192,1,100,2|0,0:0|0:0,0:0:0:0:
332,152,70533,2,0,L|236:184,1,100,2|0,0:0|0:0,0:0:0:0:
136,188,71033,2,0,L|220:104,2,100,2|0|2,0:0|0:0|0:0,0:0:0:0:
64,196,71867,1,0,0:0:0:0:
144,136,72033,6,0,L|244:136,1,100,6|0,0:0|0:0,0:0:0:0:
344,136,72533,2,0,L|244:136,1,100
144,132,73033,1,2,0:0:0:0:
264,132,73367,1,0,0:0:0:0:
340,132,73533,1,0,0:0:0:0:
416,136,73700,1,2,0:0:0:0:
268,128,74033,5,0,0:0:0:0:
416,144,74367,1,0,0:0:0:0:
288,220,74700,2,0,B|180:208,1,100,2|0,0:0|0:0,0:0:0:0:
340,224,75367,2,0,L|272:224,1,50,2|0,0:0|0:0,0:0:0:0:
236,224,75700,2,0,L|296:224,1,50,2|0,0:0|0:0,0:0:0:0:
340,224,76033,6,0,L|340:116,1,100,4|0,0:0|0:0,0:0:0:0:
232,124,76533,2,0,L|232:240,1,100,0|0,0:0|0:0,0:0:0:0:
340,224,77033,1,2,0:0:0:0:
280,256,77367,1,0,0:0:0:0:
204,252,77533,1,0,0:0:0:0:
280,256,77700,1,2,0:0:0:0:
356,260,77867,1,0,0:0:0:0:
432,260,78033,6,0,L|320:260,1,100,2|0,0:0|0:0,0:0:0:0:
440,264,78533,2,0,L|440:152,1,100
364,164,79033,2,0,L|452:164,2,75,2|0|0,0:0|0:0|0:0,0:0:0:0:
260,88,79700,1,0,0:0:0:0:
157,89,79867,1,2,0:0:0:0:
252,88,80033,6,0,L|352:88,1,100,4|0,0:0|0:0,0:0:0:0:
420,88,80533,2,0,L|348:88,1,50
284,88,80867,1,2,0:0:0:0:
192,88,81033,6,0,L|120:88,2,50,4|0|0,0:0|0:0|0:0,0:0:0:0:
268,88,81533,2,0,L|340:88,2,50,0|0|2,0:0|0:0|0:0,0:0:0:0:
168,168,82033,5,4,0:0:0:0:
268,168,82200,1,0,0:0:0:0:
168,248,82367,1,2,0:0:0:0:
268,252,82533,1,0,0:0:0:0:
368,248,82700,1,2,0:0:0:0:
268,336,82867,1,0,0:0:0:0:
168,332,83033,1,6,0:0:0:0:
140,40,83428,5,0,0:0:0:0:
188,40,83609,1,2,0:0:0:0:
240,36,83785,1,0,0:0:0:0:
296,40,83951,1,2,0:0:0:0:
352,56,84118,6,0,L|196:184,1,200,2|0,0:0|0:0,0:0:0:0:
300,192,85176,2,0,B|392:109|392:109|316:56,1,200,2|0,0:0|0:0,0:0:0:0:
256,332,86235,5,2,0:0:0:0:
316,332,86412,1,2,0:0:0:0:
260,248,86588,1,0,0:0:0:0:
204,328,86765,1,0,0:0:0:0:
260,168,86941,1,2,0:0:0:0:
312,248,87118,1,0,0:0:0:0:
260,168,87294,2,0,B|212:168|212:168|272:168,1,100,2|0,0:0|0:0,0:0:0:0:
428,168,88000,6,0,L|356:168,1,50,2|0,0:0|0:0,0:0:0:0:
284,168,88333,1,0,0:0:0:0:
192,164,88500,1,0,0:0:0:0:
192,164,88666,1,0,0:0:0:0:
104,164,88833,1,0,0:0:0:0:
192,164,89000,1,2,0:0:0:0:
284,164,89166,1,0,0:0:0:0:
400,188,89333,5,4,0:0:0:0:
400,124,89723,2,0,L|216:152,1,175,4|0,0:0|0:0,0:0:0:0:
136,168,90497,1,0,0:0:0:0:
