osu file format v12

[General]
AudioFilename: Hisoutensoku.mp3
AudioLeadIn: 2007
PreviewTime: 51367
Countdown: 0
SampleSet: Soft
StackLeniency: 0.7
Mode: 2
LetterboxInBreaks: 1

[Editor]
Bookmarks: 12700,12783,22019,24450
DistanceSpacing: 1.5
BeatDivisor: 4
GridSize: 4

[Metadata]
Title:Did You See That Shadow?
TitleUnicode:きみはあの影を見たか
Artist:U2 Akiyama
ArtistUnicode:あきやま うに
Creator:ZHSteven
Version:Insane
Source:Touhou
Tags:Hisoutensoku Unthinkable Natural Law th12.3 Akiyama Uni Tasogare Frontier Team Shanghai Alice ZUN
BeatmapID:259513
BeatmapSetID:87411

[Difficulty]
HPDrainRate:6
CircleSize:4
OverallDifficulty:9
ApproachRate:9
SliderMultiplier:2
SliderTickRate:2

[Events]
//Background and Video events
0,0,"TH123.jpg",0,0
//Break Periods
2,28233,31433
//Storyboard Layer 0 (Background)
//Storyboard Layer 1 (Fail)
//Storyboard Layer 2 (Pass)
//Storyboard Layer 3 (Foreground)
//Storyboard Sound Samples
//Background Colour Transformations
3,100,163,162,255

[TimingPoints]
34,333.333333333333,3,2,0,50,1,0
8033,-100,3,2,0,50,0,1
20033,-100,3,2,0,50,0,0
27450,-66.6666666666667,3,2,0,50,0,0
33867,-100,3,2,0,50,0,0
52033,-100,3,2,0,50,0,1
66367,-100,3,2,0,50,0,0
68033,-100,3,2,0,50,0,1
81033,-66.6666666666667,3,2,0,50,0,1
83053,375,3,2,0,50,1,0
83428,363.636363636364,3,2,0,50,1,0
83609,352.941176470588,3,2,0,50,1,0
83785,333.333333333333,4,2,0,50,1,0
84118,352.941176470588,4,2,0,50,1,0
88000,333.333333333333,4,2,0,50,1,0
89336,387.096774193548,4,2,0,50,1,0
90497,333.333333333333,4,2,0,50,1,0

[HitObjects]
64,80,34,2,0,L|224:200,1,200
392,104,533,2,0,B|256:268,1,200,2|0,0:0|0:0,0:0:0:0:
80,180,1033,1,0,0:0:0:0:
300,248,1367,1,2,0:0:0:0:
124,280,1700,1,0,0:0:0:0:
264,288,1867,5,0,0:0:0:0:
232,248,1950,1,0,0:0:0:0:
204,200,2033,2,0,L|112:116,2,100,2|0|2,0:0|0:0|0:0,0:0:0:0:
332,84,2533,2,0,B|388:168|388:168|324:72,1,200
192,84,3033,1,2,0:0:0:0:
104,176,3200,1,0,0:0:0:0:
200,252,3367,2,0,B|336:76,1,200
168,188,4033,6,0,L|376:188,1,200,2|0,0:0|0:0,0:0:0:0:
508,268,4533,2,0,L|276:268,1,200
180,88,5033,1,2,0:0:0:0:
276,164,5200,1,0,0:0:0:0:
368,244,5367,1,0,0:0:0:0:
132,264,5700,1,0,0:0:0:0:
428,100,6033,6,0,L|224:192,1,200,2|0,0:0|0:0,0:0:0:0:
128,264,6533,2,0,B|284:108,1,200
88,192,7033,5,2,0:0:0:0:
172,192,7200,1,2,0:0:0:0:
256,192,7367,1,0,0:0:0:0:
424,192,7533,5,2,0:0:0:0:
340,192,7700,1,0,0:0:0:0:
256,192,7867,1,2,0:0:0:0:
88,192,8033,6,0,L|88:64,1,100,4|0,0:0|0:0,0:0:0:0:
256,116,8367,2,0,B|204:116,2,50,2|0|0,0:0|0:0|0:0,0:0:0:0:
132,112,8700,1,0,0:0:0:0:
8,112,8867,2,0,B|40:156,2,50,2|0|0,0:0|0:0|0:0,0:0:0:0:
132,112,9200,1,0,0:0:0:0:
256,112,9367,2,0,L|184:184,1,100,2|0,0:0|0:0,0:0:0:0:
360,112,9700,2,0,L|252:112,1,100,2|0,0:0|0:0,0:0:0:0:
424,192,10033,6,0,L|424:64,1,100
256,116,10367,2,0,B|320:116,2,50,2|0|0,0:0|0:0|0:0,0:0:0:0:
380,112,10700,1,0,0:0:0:0:
504,112,10867,2,0,B|472:156,2,50,2|0|0,0:0|0:0|0:0,0:0:0:0:
380,112,11200,1,0,0:0:0:0:
256,112,11367,2,0,L|372:112,1,100,2|0,0:0|0:0,0:0:0:0:
260,112,11700,2,0,L|328:192,1,100,2|0,0:0|0:0,0:0:0:0:
132,216,12033,6,0,L|132:88,1,100,4|0,0:0|0:0,0:0:0:0:
356,224,12367,1,2,0:0:0:0:
276,224,12450,1,0,0:0:0:0:
196,224,12533,1,0,0:0:0:0:
320,280,12700,1,0,0:0:0:0:
276,224,12783,1,0,0:0:0:0:
232,164,12867,1,0,0:0:0:0:
320,96,13033,1,2,0:0:0:0:
232,100,13200,1,0,0:0:0:0:
80,100,13367,1,2,0:0:0:0:
160,100,13533,1,0,0:0:0:0:
320,96,13700,1,2,0:0:0:0:
160,100,13867,1,0,0:0:0:0:
276,236,14033,6,0,L|188:148,1,100,2|0,0:0|0:0,0:0:0:0:
316,244,14367,1,0,0:0:0:0:
348,192,14450,1,0,0:0:0:0:
376,136,14533,1,0,0:0:0:0:
276,188,14700,1,0,0:0:0:0:
348,192,14783,1,0,0:0:0:0:
420,196,14867,1,0,0:0:0:0:
248,108,15033,1,2,0:0:0:0:
352,108,15200,1,0,0:0:0:0:
508,112,15367,1,2,0:0:0:0:
436,116,15533,1,0,0:0:0:0:
264,232,15700,1,2,0:0:0:0:
320,168,15867,1,0,0:0:0:0:
140,96,16033,6,0,L|140:224,1,100,4|0,0:0|0:0,0:0:0:0:
292,92,16367,1,2,0:0:0:0:
344,92,16450,1,0,0:0:0:0:
296,92,16533,1,2,0:0:0:0:
124,172,16700,1,0,0:0:0:0:
176,172,16783,1,0,0:0:0:0:
232,176,16867,1,0,0:0:0:0:
412,288,17033,1,2,0:0:0:0:
360,288,17117,1,2,0:0:0:0:
312,288,17200,1,0,0:0:0:0:
256,288,17283,1,0,0:0:0:0:
200,284,17367,1,0,0:0:0:0:
280,188,17533,1,2,0:0:0:0:
176,140,17700,1,0,0:0:0:0:
320,56,17867,1,2,0:0:0:0:
132,60,18033,6,0,L|364:60,1,200,4|2,0:0|0:0,0:0:0:0:
376,112,18450,1,0,0:0:0:0:
332,164,18533,1,0,0:0:0:0:
188,64,18700,1,0,0:0:0:0:
244,28,18783,1,0,0:0:0:0:
304,0,18867,1,0,0:0:0:0:
496,184,19033,2,0,L|496:68,1,100,4|0,0:0|0:0,0:0:0:0:
156,192,19367,2,0,L|156:92,1,100,2|0,0:0|0:0,0:0:0:0:
312,280,19700,1,2,0:0:0:0:
152,280,19867,1,2,0:0:0:0:
464,276,20033,5,4,0:0:0:0:
392,208,20200,1,0,0:0:0:0:
468,124,20367,1,0,0:0:0:0:
324,220,20533,1,2,0:0:0:0:
248,160,20700,1,0,0:0:0:0:
164,108,20867,1,0,0:0:0:0:
328,92,21033,1,2,0:0:0:0:
220,88,21200,1,0,0:0:0:0:
328,88,21367,1,2,0:0:0:0:
224,80,21533,1,0,0:0:0:0:
328,88,21700,1,2,0:0:0:0:
436,100,21867,1,0,0:0:0:0:
288,268,22033,5,2,0:0:0:0:
204,248,22200,1,0,0:0:0:0:
128,192,22367,1,0,0:0:0:0:
284,264,22533,1,2,0:0:0:0:
372,248,22700,1,0,0:0:0:0:
456,208,22867,1,0,0:0:0:0:
288,176,23033,1,2,0:0:0:0:
188,160,23200,1,0,0:0:0:0:
264,96,23367,1,2,0:0:0:0:
60,200,23533,1,0,0:0:0:0:
140,264,23700,1,2,0:0:0:0:
232,312,23867,1,0,0:0:0:0:
376,112,24033,5,2,0:0:0:0:
296,176,24200,1,0,0:0:0:0:
204,224,24367,1,0,0:0:0:0:
256,92,24533,1,2,0:0:0:0:
176,156,24700,1,0,0:0:0:0:
84,204,24867,1,0,0:0:0:0:
212,52,25033,1,2,0:0:0:0:
336,52,25200,1,0,0:0:0:0:
284,148,25367,1,2,0:0:0:0:
168,184,25533,1,0,0:0:0:0:
284,264,25700,1,0,0:0:0:0:
152,260,25867,1,0,0:0:0:0:
256,84,26033,5,2,0:0:0:0:
364,112,26200,1,0,0:0:0:0:
192,116,26367,1,0,0:0:0:0:
332,108,26533,2,0,B|232:108|232:108|296:188|296:188|180:188,1,300,2|2,0:0|0:0,0:0:0:0:
284,248,27200,5,0,0:0:0:0:
396,296,27367,1,0,0:0:0:0:
248,176,27533,2,0,B|100:176|100:176|224:88|224:88|72:88,1,450.000017166138,2|4,0:0|0:0,0:0:0:0:
256,192,32033,12,0,33700,0:0:0:0:
432,84,34033,5,0,0:0:0:0:
312,80,34200,1,0,0:0:0:0:
196,80,34367,1,0,0:0:0:0:
72,188,34533,2,0,L|152:188,1,50,2|0,0:0|0:0,0:0:0:0:
180,188,34700,2,0,L|230:188,1,50
284,184,34867,1,0,0:0:0:0:
188,296,35033,5,0,0:0:0:0:
296,296,35200,1,0,0:0:0:0:
424,288,35367,1,2,0:0:0:0:
336,224,35533,2,0,L|256:224,1,50
224,224,35700,1,2,0:0:0:0:
272,156,35783,1,0,0:0:0:0:
336,112,35867,1,0,0:0:0:0:
232,80,36033,6,0,L|376:80,1,100,2|0,0:0|0:0,0:0:0:0:
456,80,36367,1,0,0:0:0:0:
332,164,36533,2,0,L|188:164,1,100,2|0,0:0|0:0,0:0:0:0:
128,160,36867,1,0,0:0:0:0:
256,240,37033,2,0,L|348:148,1,100,2|0,0:0|0:0,0:0:0:0:
172,240,37367,2,0,L|76:144,1,100,0|0,0:0|0:0,0:0:0:0:
256,304,37700,2,0,L|348:212,1,100,2|0,0:0|0:0,0:0:0:0:
152,156,38033,6,0,L|296:156,1,100
360,160,38367,1,2,0:0:0:0:
248,68,38533,2,0,L|392:68,1,100
476,68,38867,1,0,0:0:0:0:
296,164,39033,2,0,L|400:60,1,100,2|0,0:0|0:0,0:0:0:0:
508,164,39367,2,0,L|408:64,1,100,0|0,0:0|0:0,0:0:0:0:
288,248,39700,2,0,L|388:148,1,100,2|0,0:0|0:0,0:0:0:0:
216,248,40033,6,0,L|120:152,1,100,2|0,0:0|0:0,0:0:0:0:
260,248,40367,1,0,0:0:0:0:
144,180,40533,2,0,L|248:76,1,100,2|0,0:0|0:0,0:0:0:0:
112,180,40867,1,0,0:0:0:0:
248,176,41033,2,0,L|136:176,1,100,2|0,0:0|0:0,0:0:0:0:
252,172,41367,2,2,L|252:300,1,100,0|0,0:0|0:0,0:0:0:0:
144,264,41700,2,0,L|268:264,1,100,2|0,0:0|0:0,0:0:0:0:
392,260,42033,5,2,0:0:0:0:
248,264,42200,2,0,L|324:188,1,100
172,188,42533,1,0,0:0:0:0:
316,192,42700,2,0,L|240:116,1,100,2|0,0:0|0:0,0:0:0:0:
100,116,43033,2,0,L|212:116,1,100
32,112,43367,2,0,L|32:240,1,100,2|0,0:0|0:0,0:0:0:0:
200,208,43700,2,0,L|76:208,1,100,2|0,0:0|0:0,0:0:0:0:
256,92,44033,6,0,L|292:148,4,50,4|0|0|0|0,0:0|0:0|0:0|0:0|0:0,0:0:0:0:
144,244,44533,2,0,L|232:156,1,100
100,244,44867,1,0,0:0:0:0:
272,240,45033,2,0,L|180:144,1,100,2|0,0:0|0:0,0:0:0:0:
364,124,45367,1,0,0:0:0:0:
440,212,45533,1,0,0:0:0:0:
248,200,45700,1,2,0:0:0:0:
252,104,45867,1,0,0:0:0:0:
408,96,46033,6,0,L|372:156,4,50
232,180,46533,2,0,L|320:92,1,100,2|0,0:0|0:0,0:0:0:0:
156,180,46867,1,0,0:0:0:0:
328,252,47033,2,0,L|228:152,1,100,2|0,0:0|0:0,0:0:0:0:
428,164,47367,1,0,0:0:0:0:
260,184,47533,1,0,0:0:0:0:
412,56,47700,2,0,L|412:164,1,100,2|0,0:0|0:0,0:0:0:0:
248,76,48033,6,0,L|300:24,4,50
148,112,48533,2,0,L|232:196,1,100,2|0,0:0|0:0,0:0:0:0:
344,184,48867,1,0,0:0:0:0:
208,264,49033,2,0,L|312:264,1,100,2|0,0:0|0:0,0:0:0:0:
152,208,49367,2,0,L|152:96,1,100
368,64,49700,1,2,0:0:0:0:
312,64,49783,1,0,0:0:0:0:
256,64,49867,1,0,0:0:0:0:
200,64,49950,1,0,0:0:0:0:
144,64,50033,5,2,0:0:0:0:
308,120,50200,2,0,L|188:120,1,100,2|0,0:0|0:0,0:0:0:0:
368,64,50533,1,2,0:0:0:0:
212,60,50700,2,0,L|356:60,1,100,0|2,0:0|0:0,0:0:0:0:
60,64,51033,5,4,0:0:0:0:
332,184,51367,5,0,0:0:0:0:
172,188,51700,1,0,0:0:0:0:
472,72,52033,6,0,L|324:72,1,100,2|0,0:0|0:0,0:0:0:0:
256,72,52367,1,0,0:0:0:0:
104,72,52533,2,0,L|244:72,1,100,2|0,0:0|0:0,0:0:0:0:
304,72,52867,1,0,0:0:0:0:
472,72,53033,2,0,L|392:152,1,100,2|0,0:0|0:0,0:0:0:0:
256,72,53367,2,0,L|344:160,1,100,2|0,0:0|0:0,0:0:0:0:
472,68,53700,2,0,L|360:68,1,100,2|0,0:0|0:0,0:0:0:0:
200,184,54033,5,2,0:0:0:0:
256,184,54117,1,0,0:0:0:0:
312,184,54200,1,0,0:0:0:0:
368,184,54283,1,0,0:0:0:0:
424,184,54367,1,0,0:0:0:0:
304,288,54533,2,0,L|176:288,1,100,2|0,0:0|0:0,0:0:0:0:
100,288,54867,1,0,0:0:0:0:
256,188,55033,2,0,L|164:96,1,100,2|0,0:0|0:0,0:0:0:0:
36,188,55367,2,0,L|128:96,1,100,2|0,0:0|0:0,0:0:0:0:
256,96,55700,1,0,0:0:0:0:
108,96,55867,1,0,0:0:0:0:
256,192,56033,6,0,L|164:284,1,100,4|4,0:0|0:0,0:0:0:0:
36,188,56367,1,0,0:0:0:0:
184,264,56533,2,0,L|255:190,1,100,2|0,0:0|0:0,0:0:0:0:
404,184,56867,1,0,0:0:0:0:
256,188,57033,1,0,0:0:0:0:
404,184,57200,1,0,0:0:0:0:
252,100,57367,2,0,L|186:175,1,100,2|0,0:0|0:0,0:0:0:0:
393,93,57700,2,0,L|460:168,1,100,2|0,0:0|0:0,0:0:0:0:
188,172,58033,5,0,0:0:0:0:
456,172,58367,1,2,0:0:0:0:
56,172,58700,2,0,L|488:172,1,400,2|2,0:0|0:0,0:0:0:0:
120,232,59700,1,0,0:0:0:0:
416,228,60033,6,0,L|324:136,1,100,4|0,0:0|0:0,0:0:0:0:
192,160,60367,1,0,0:0:0:0:
344,156,60533,2,0,L|416:72,1,100,2|0,0:0|0:0,0:0:0:0:
192,160,60867,1,0,0:0:0:0:
344,156,61033,2,0,L|264:76,1,100,2|0,0:0|0:0,0:0:0:0:
120,152,61367,2,0,L|200:72,1,100,2|0,0:0|0:0,0:0:0:0:
348,156,61700,2,0,L|268:76,1,100
448,264,62033,2,0,L|244:268,1,200,2|0,0:0|0:0,0:0:0:0:
152,220,62533,2,0,L|356:224,1,200
512,120,63033,6,0,L|416:216,1,100,2|0,0:0|0:0,0:0:0:0:
280,120,63367,2,0,L|372:212,1,100
160,124,63700,1,0,0:0:0:0:
356,120,63867,1,0,0:0:0:0:
160,128,64033,6,0,L|204:184,4,50,4|0|0|0|0,0:0|0:0|0:0|0:0|0:0,0:0:0:0:
302,120,64533,2,0,L|352:120,2,50,2|0|0,0:0|0:0|0:0,0:0:0:0:
160,128,64867,1,0,0:0:0:0:
356,120,65033,6,0,L|312:172,4,50,4|0|0|0|0,0:0|0:0|0:0|0:0|0:0,0:0:0:0:
164,132,65533,2,0,L|284:132,1,100,2|0,0:0|0:0,0:0:0:0:
92,128,65867,1,0,0:0:0:0:
356,116,66033,5,4,0:0:0:0:
256,192,66367,12,0,67367,0:0:0:0:
248,192,67700,5,2,0:0:0:0:
136,168,67867,1,0,0:0:0:0:
40,72,68033,6,0,L|188:72,1,100,4|0,0:0|0:0,0:0:0:0:
256,72,68367,1,0,0:0:0:0:
408,72,68533,2,0,L|268:72,1,100
208,72,68867,1,0,0:0:0:0:
40,72,69033,2,0,L|120:152,1,100,2|0,0:0|0:0,0:0:0:0:
256,72,69367,2,0,L|168:160,1,100
40,68,69700,2,0,L|152:68,1,100
312,184,70033,5,2,0:0:0:0:
256,184,70117,1,0,0:0:0:0:
200,184,70200,1,0,0:0:0:0:
144,184,70283,1,0,0:0:0:0:
88,184,70367,1,0,0:0:0:0:
208,288,70533,2,0,L|336:288,1,100,2|0,0:0|0:0,0:0:0:0:
412,288,70867,1,0,0:0:0:0:
256,188,71033,2,0,L|348:96,1,100,2|0,0:0|0:0,0:0:0:0:
476,188,71367,2,0,L|384:96,1,100,2|0,0:0|0:0,0:0:0:0:
256,96,71700,1,0,0:0:0:0:
404,96,71867,1,0,0:0:0:0:
256,192,72033,6,0,L|348:284,1,100,4|0,0:0|0:0,0:0:0:0:
476,188,72367,1,0,0:0:0:0:
328,264,72533,2,0,L|257:190,1,100,2|0,0:0|0:0,0:0:0:0:
108,184,72867,1,0,0:0:0:0:
256,188,73033,1,0,0:0:0:0:
108,184,73200,1,0,0:0:0:0:
260,100,73367,2,0,L|326:175,1,100,2|0,0:0|0:0,0:0:0:0:
119,93,73700,2,0,L|120:212,1,100
324,172,74033,5,2,0:0:0:0:
56,172,74367,1,0,0:0:0:0:
456,172,74700,2,0,L|24:172,1,400,2|0,0:0|0:0,0:0:0:0:
392,232,75700,1,0,0:0:0:0:
96,228,76033,6,2,L|188:136,1,100,4|2,0:0|0:0,0:0:0:0:
320,160,76367,1,0,0:0:0:0:
168,156,76533,2,0,L|96:72,1,100,2|0,0:0|0:0,0:0:0:0:
320,160,76867,1,0,0:0:0:0:
168,156,77033,2,0,L|248:76,1,100,2|0,0:0|0:0,0:0:0:0:
392,152,77367,2,0,L|312:72,1,100
168,156,77700,2,0,L|284:156,1,100
392,152,78033,6,0,L|292:56,1,100,2|0,0:0|0:0,0:0:0:0:
236,156,78367,1,0,0:0:0:0:
392,268,78533,2,0,L|248:268,1,100,2|0,0:0|0:0,0:0:0:0:
168,272,78867,1,0,0:0:0:0:
392,268,79033,2,0,L|296:172,1,100,2|0,0:0|0:0,0:0:0:0:
140,268,79367,2,2,L|236:172,1,100
392,264,79700,1,0,0:0:0:0:
396,176,79867,1,0,0:0:0:0:
88,92,80033,6,0,L|224:92,1,100,4|0,0:0|0:0,0:0:0:0:
296,84,80367,1,0,0:0:0:0:
172,88,80533,2,0,L|316:276,1,200
436,100,81033,6,0,L|276:100,1,150.000005722046,6|0,0:0|0:0,0:0:0:0:
92,100,81367,2,0,L|288:100,1,150.000005722046
436,196,81700,2,0,L|260:196,1,150.000005722046
96,196,82033,5,6,0:0:0:0:
216,192,82200,1,0,0:0:0:0:
308,96,82367,1,2,0:0:0:0:
160,84,82533,1,0,0:0:0:0:
32,216,82700,5,2,0:0:0:0:
184,216,82867,1,0,0:0:0:0:
0,112,83033,1,4,0:0:0:0:
184,192,83428,5,0,0:0:0:0:
276,192,83609,1,2,0:0:0:0:
224,192,83785,1,0,0:0:0:0:
180,196,83951,1,2,0:0:0:0:
136,192,84118,6,0,B|168:96|168:96|280:96,1,200,2|0,0:0|0:0,0:0:0:0:
336,96,84823,1,0,0:0:0:0:
464,96,85176,1,2,0:0:0:0:
336,92,85529,1,0,0:0:0:0:
204,100,85882,1,0,0:0:0:0:
48,216,86235,5,2,0:0:0:0:
148,212,86412,1,0,0:0:0:0:
256,216,86588,1,2,0:0:0:0:
360,208,86765,1,0,0:0:0:0:
480,208,86941,1,0,0:0:0:0:
256,288,87294,2,0,L|256:88,1,200,2|0,0:0|0:0,0:0:0:0:
192,80,88000,5,0,0:0:0:0:
328,76,88166,1,0,0:0:0:0:
132,212,88333,2,0,L|212:108,1,100,2|0,0:0|0:0,0:0:0:0:
260,128,88583,1,0,0:0:0:0:
328,128,88666,1,0,0:0:0:0:
132,128,88833,1,0,0:0:0:0:
260,128,89000,1,0,0:0:0:0:
396,128,89166,1,0,0:0:0:0:
64,128,89333,5,4,0:0:0:0:
456,128,89723,1,4,0:0:0:0:
460,128,90110,2,0,L|272:188,1,150
236,204,90497,1,0,0:0:0:0:
