osu file format v9

[General]
AudioFilename: Sunday Bloody Sunday.mp3
AudioLeadIn: 0
PreviewTime: 70388
Countdown: 1
SampleSet: Soft
StackLeniency: 0.7
Mode: 0
LetterboxInBreaks: 1

[Editor]
Bookmarks: 50337,123151,183776
DistanceSpacing: 1
BeatDivisor: 4
GridSize: 8

[Metadata]
Title:Sunday Bloody Sunday
Artist:U2
Creator:Serval
Version:Normal
Source:
Tags:War

[Difficulty]
HPDrainRate:5
CircleSize:4
OverallDifficulty:5
ApproachRate:5
SliderMultiplier:1.4
SliderTickRate:2

[Events]
//Background and Video events
0,0,"BG.jpg"
//Break Periods
2,84167,87465
2,167358,174793
//Storyboard Layer 0 (Background)
//Storyboard Layer 1 (Fail)
//Storyboard Layer 2 (Pass)
//Storyboard Layer 3 (Foreground)
//Storyboard Sound Samples
//Background Colour Transformations
3,100,0,0,4

[TimingPoints]
1073,586.33831720903,4,2,1,86,1,0
10780,603.015075376884,4,2,1,86,1,0
13185,582.52427184466,4,2,1,86,1,0
15515,588.235294117647,4,2,1,86,1,0
17865,600,4,2,1,86,1,0
20250,588.235294117647,4,2,1,86,1,0
22622,591.133004926108,4,2,1,86,1,0
24975,582.52427184466,4,2,1,86,1,0
27305,594.059405940594,4,2,1,86,1,0
29687,582.52427184466,4,2,1,86,1,0
32007,600,4,2,1,86,1,0
34377,594.059405940594,4,2,1,86,1,0
36763,594.059405940594,4,2,1,86,1,0
39132,571.428571428571,4,2,1,86,1,0
41424,594.059405940594,4,2,1,86,1,0
46173,591.133004926108,4,2,1,86,1,0
50902,588.235294117647,4,2,1,86,1,0
53262,588.235294117647,4,2,1,86,1,0
55619,594.059405940594,4,2,1,86,1,0
57999,594.059405940594,4,2,1,86,1,0
60354,592.124740945426,4,2,1,86,1,0
67459,588.235294117647,4,2,1,86,1,0
69797,591.133004926108,4,2,1,86,1,0
79227,592.592592592593,4,2,1,86,1,0
86338,588.235294117647,4,2,1,86,1,0
88665,588.812561334642,4,2,1,86,1,0
93385,589.68058968059,4,2,1,86,1,0
98107,591.133004926108,4,2,1,86,1,0
114650,591.133004926108,4,2,1,86,1,0
133513,588.235294117647,4,2,1,86,1,0
138218,591.133004926108,4,2,1,86,1,0
147682,600,4,2,1,86,1,0
150052,588.235294117647,4,2,1,86,1,0
154760,585.365853658537,4,2,1,86,1,0
157098,594.059405940594,4,2,1,86,1,0
161838,591.133004926108,4,2,1,86,1,0
171284,588.235294117647,4,2,1,86,1,0
175993,591.133004926108,4,2,1,86,1,0
183069,591.133004926108,4,2,1,86,1,0
199600,591.133004926108,4,2,1,86,1,0
209057,588.235294117647,4,2,1,86,1,0
218500,588.235294117647,4,2,1,86,1,0
232635,594.059405940594,4,2,1,86,1,0
237387,588.235294117647,4,2,1,86,1,0
242083,588.235294117647,4,2,1,86,1,0
246788,594.059405940594,4,2,1,86,1,0
251560,588.235294117647,4,2,1,86,1,0
258618,594.059405940594,4,2,1,86,1,0
262146,588.235294117647,4,2,1,86,1,0
263370,585.365853658537,4,2,1,86,1,0

[Colours]
Combo1 : 0,143,151
Combo2 : 124,146,154
Combo3 : 208,35,19
Combo4 : 8,27,8

[HitObjects]
464,48,10780,2,0,B|352:136,1,140,4|0
296,176,11684,1,0
240,224,11986,2,0,B|128:312,1,140,4|0
80,256,12890,1,0
136,208,13185,2,0,B|248:120,1,140,4|0
384,104,14350,2,0,B|448:48,3,70,4|0|0|8
384,104,15515,5,4
312,104,15809,2,0,B|216:104,3,70,0|0|8|0
168,104,16985,1,0
96,104,17279,1,0
96,176,17573,5,0
96,248,17865,2,0,B|192:248,2,70,4|8|0
240,248,19065,1,0
312,248,19365,2,0,B|384:248,1,70
312,248,19965,1,8
320,320,20250,5,4
384,288,20544,1,0
392,216,20838,1,0
368,152,21132,1,0
312,104,21426,1,0
240,88,21720,2,0,B|144:72,2,70,0|0|8
240,160,22622,5,0
96,160,23213,1,0
240,160,23804,1,0
96,160,24395,1,0
176,272,24975,6,0,B|96:272,2,70,2|0|0
248,264,25848,1,0
312,232,26140,1,0
360,176,26431,1,0
368,104,26722,1,0
320,48,27013,1,8
248,32,27305,1,4
168,144,27899,1,0
312,144,28493,2,0,B|416:40,1,140
264,80,29687,1,4
400,48,30269,6,0,B|320:176,1,140,8|0
288,224,31143,1,0
232,264,31434,1,0
104,304,32007,1,4
104,168,32607,1,0
208,72,33207,1,0
104,168,33807,1,0
208,256,34377,1,4
336,192,34971,2,0,B|336:40,1,140
256,192,36159,12,12,40274
376,104,40846,5,8
240,104,41424,1,4
104,104,42018,1,8
240,104,42612,1,0
240,240,43206,1,8
240,104,43800,1,0
376,104,44394,2,0,B|480:104,4,70,8|0|0|0|8
304,104,45879,5,8
272,168,46173,1,0
240,232,46468,1,0
208,296,46764,1,8
344,264,47355,5,4
240,168,47946,1,8
184,128,48241,2,0,B|156:104,2,35,0|0|4
88,232,49128,5,8
128,96,49719,1,4
192,216,50310,1,8
232,80,50902,1,4
368,80,51490,2,0,B|544:80,2,140,8|0|8
232,80,53262,2,0,B|232:256,1,140,4|8
352,144,54438,5,0
400,96,54732,1,0
448,144,55026,1,8
312,96,55619,5,8
240,96,55916,2,0,B|200:184,1,70
144,160,56510,1,0
184,216,56807,1,8
256,208,57104,1,0
304,256,57401,1,8
368,280,57698,1,0
416,232,57999,5,8
360,192,58296,1,0
336,128,58593,1,0
368,64,58890,1,8
368,64,59187,6,0,B|304:16|224:80,1,140,0|2
240,136,60078,1,8
304,136,60354,1,2
368,136,60650,2,0,B|368:216,1,70,0|8
312,240,61242,2,0,B|240:200,1,70
192,176,61834,1,0
232,120,62130,6,0,B|272:56,3,70,8|0|0|0
328,24,63314,1,8
336,96,63610,1,8
320,160,63906,1,0
256,184,64202,2,0,B|176:216,2,70,0|0|8
264,256,65090,6,0,B|264:336,2,70,0|0|8
336,248,65979,2,0,B|408:168|392:176,3,70,0|0|0|8
336,144,67163,1,6
288,192,67459,1,6
168,112,68047,1,6
168,248,68635,1,6
256,360,69223,1,4
384,112,70388,5,2
316,124,70683,1,0
252,148,70979,1,0
192,184,71274,1,0
152,240,71570,1,2
216,272,71865,2,0,B|280:304|360:304|400:264|456:192,2,280,0|0|8
224,204,74526,1,0
288,80,75117,5,8
256,144,75412,1,0
320,168,75708,1,0
384,192,76003,1,8
368,260,76299,1,0
348,328,76595,2,0,B|188:328,2,140
368,260,78072,1,2
416,128,78663,1,2
256,192,79227,12,0,83967
256,128,88665,6,0,B|192:192,1,70,12|0
156,228,89253,1,8
208,272,89548,2,0,B|272:328,1,70,8|4
304,264,90137,1,8
352,208,90431,2,0,B|400:152,1,70,8|0
344,112,91020,6,0,B|256:72|216:176,2,140,8|8|8
392,160,92492,1,0
432,216,92786,1,8
376,256,93081,2,0,C|320:296,1,70,8|0
264,336,93679,1,4
264,264,93974,2,0,B|160:264,1,70,8|0
192,192,94564,1,4
192,120,94859,2,0,B|192:48,3,70,0|8|0|8
56,32,96333,5,8
96,88,96628,2,0,B|160:168,1,70,8|8
184,200,97217,2,0,B|248:152,1,70,8|8
296,112,97807,1,8
96,32,98698,5,8
160,56,98993,1,0
96,88,99289,1,0
160,112,99584,1,0
96,144,99880,1,8
160,168,100175,1,0
96,200,100471,1,0
160,224,100767,1,0
224,256,101062,2,0,B|224:184,4,70,8|0|0|0|8
296,256,102540,1,8
328,120,103131,5,0
280,176,103427,2,0,B|232:232,2,70,8|0|0
352,176,104313,1,0
368,240,104609,1,8
320,288,104905,1,0
304,220,105200,2,0,B|176:156,1,140,4|8
108,160,106087,1,0
108,89,106382,2,0,B|268:89,1,140,8|8
136,160,107565,6,0,B|224:160,3,70,0|0|8|0
280,160,108747,2,0,B|368:160,2,70,0|0|8
208,160,109634,1,0
208,232,109929,1,0
160,280,110225,1,8
208,328,110520,1,12
304,232,111111,1,4
256,184,111407,2,0,B|256:136,2,35,0|0|8
288,40,112294,5,2
224,72,112589,1,0
288,104,112885,1,8
224,136,113180,1,0
288,168,113476,1,0
224,200,113772,1,0
288,232,114067,1,8
224,264,114363,2,0,B|136:264,5,70,0|0|0|8|0|0
72,152,116423,6,0,B|120:120,4,35,8|8|8|8|8
8,272,117605,2,0,B|88:200|232:200|360:288|376:368,2,420,12|0|8
72,152,121743,2,0,B|216:152,1,140,4|8
280,152,122630,5,0
352,152,122925,2,0,B|504:152,2,140,0|8|0
208,152,124699,2,0,B|208:208,4,35,8|8|8|8|4
344,112,125881,1,8
384,168,126177,2,0,B|408:200,2,35,8|8|8
248,224,127063,6,0,B|248:72,2,140,12|0|8
344,328,128837,1,4
272,320,129132,1,0
208,288,129428,1,0
152,240,129723,1,0
176,176,130019,6,0,B|208:96,2,70
232,216,130906,1,8
296,240,131201,1,4
364,240,131497,1,0
412,192,131792,2,0,B|480:160|468:60,2,140
360,148,133270,1,8
292,148,133513,1,0
152,168,134101,5,0
152,28,134689,1,0
152,168,135277,1,0
292,168,135865,2,0,L|436:168,1,140
224,80,137336,5,4
272,128,137630,1,4
304,192,137924,1,4
232,192,138218,2,0,B|152:192|128:104,1,140,8|0
272,112,139400,1,2
272,248,139991,2,0,B|272:328|184:352,2,140,8|0|8
336,128,141764,5,0
208,184,142355,1,8
160,240,142651,1,0
128,304,142947,1,8
264,304,143538,5,0
400,304,144129,1,0
400,168,144720,2,0,B|400:80,2,70,8|8|8
264,168,145902,2,0,B|176:168,2,70,8|8|8
136,112,147084,1,8
136,184,147380,1,0
136,256,147682,1,8
0,248,148282,6,0,B|72:112,1,140
208,128,149482,1,8
344,128,150052,2,0,B|274:266,2,140,0|8|0
472,128,151816,6,0,B|368:312|208:0|32:224,1,490,8|0
40,288,154169,2,0,B|208:288,2,140,8|0|8
136,192,155930,1,0
312,72,156808,6,0,B|272:128,3,70,12|8|12|8
336,160,157989,2,0,B|280:240,3,70,4|0|4|8
224,216,159177,1,0
96,168,159771,1,4
224,120,160365,1,4
360,120,160959,1,4
364,260,161553,5,0
364,260,161838,2,0,B|412:260,4,35,0|0|0|0|8
328,200,162724,2,0,B|328:152,6,35,0|0|0|0|0|0|8
256,200,163906,6,0,B|256:56,1,140
184,56,164793,1,12
112,56,165089,2,0,B|112:224,1,140
112,264,165975,1,12
184,264,166271,2,0,B|352:264,1,140
392,264,167158,5,12
144,312,175993,5,4
192,256,176288,1,0
248,216,176584,1,8
384,216,177175,2,4,B|312:216,2,70,0|0|8
248,216,178357,2,4,B|352:216,2,70,0|0|8
384,216,179539,2,4,B|384:136,2,70,0|0|8
248,232,180722,5,0
264,160,181017,1,0
272,88,181313,1,8
400,40,181904,5,0
392,112,182199,1,0
376,184,182495,1,8
240,184,183069,5,0
256,120,183364,1,0
264,48,183660,1,8
240,184,184251,6,0,B|152:184,2,70,0|0|8
256,192,185433,12,0,187798
256,192,188389,5,12
256,192,188980,12,0,192527
128,192,193118,6,0,B|216:192,2,70,8|0|0
168,136,194004,1,8
216,80,194300,1,8
288,64,194596,1,0
352,96,194891,1,8
256,192,195482,5,2
312,144,195778,1,0
440,196,196369,1,2
472,256,196665,1,0
404,256,196960,2,0,B|108:256,2,280
392,136,200191,5,12
336,96,200486,1,12
200,120,201077,1,4
144,160,201373,1,12
140,228,201668,2,0,B|500:228,1,350
368,168,203737,1,12
232,216,204329,6,0,B|528:216,2,280,8|0|0
224,80,207284,2,0,B|112:8|16:90,1,210,4|0
28,151,208466,1,8
28,220,208762,2,0,B|120:304|244:220,1,210,8|0
288,224,209939,2,0,B|288:152,1,70
360,152,210527,2,0,B|360:80,1,70
224,72,211409,2,0,B|72:72,3,140
128,208,213762,5,12
256,272,214351,1,0
376,208,214939,1,12
256,136,215527,1,0
256,136,216115,2,0,B|112:136,1,140
120,280,217292,1,0
264,280,217880,2,0,B|416:280,1,140
496,168,219088,5,0
368,112,219676,1,4
304,88,219970,1,4
96,88,220852,1,4
72,152,221147,1,4
256,192,221441,12,0,223205
112,128,223794,6,0,B|232:216,1,140,8|0
288,240,224676,1,0
352,264,224970,1,8
416,240,225264,1,0
416,168,225558,1,0
344,152,225852,1,0
296,200,226147,6,0,B|416:288,1,140,8|0
384,144,227323,2,0,B|352:120,2,35,8|8|8
248,160,228205,2,0,B|168:104,2,70,0|8|8
192,120,229088,2,0,B|88:120,2,70
328,88,230264,6,0,B|400:88,2,70
256,88,231147,1,8
184,88,231441,2,0,C|104:88,1,70,8|0
136,152,232029,1,8
184,208,232323,1,0
256,224,232635,1,8
352,120,233229,6,0,B|512:120,1,140,8|0
492,190,234120,1,0
421,190,234417,2,0,B|265:190,1,140,8|0
208,192,235308,1,0
208,264,235605,1,8
280,264,235902,2,0,L|376:264,3,70,0|8|8|0
416,264,237090,1,8
360,136,237681,5,0
336,200,237975,1,8
304,136,238269,1,0
280,200,238563,1,0
248,136,238857,1,0
224,200,239151,1,8
200,264,239445,2,0,L|160:360,5,70,8|8|8|8|8|8
120,280,241210,6,0,B|112:240,1,35,8|8
176,216,241651,2,0,C|232:208,2,35,0|8|8
208,212,242083,1,4
352,192,242671,6,0,B|344:104|240:96,2,140,8|0|8
280,192,244141,1,0
208,192,244435,2,0,B|120:200|112:304,2,140,8|0|8
280,192,245906,1,0
280,264,246200,2,0,B|280:312,4,35,8|8|8|8|8
328,216,247085,5,0
320,144,247382,1,8
256,112,247679,1,0
192,144,247976,1,8
192,280,248570,2,0,B|336:280,1,140,8|0
192,280,249758,2,0,B|272:160,2,140,8|0|8
152,344,251243,1,0
224,344,251560,1,8
328,256,252148,5,8
348,188,252442,1,0
328,120,252736,1,0
268,84,253030,1,0
200,100,253324,1,8
152,152,253618,1,0
128,220,253912,2,0,B|256:316|424:212,2,280,0|8|8
104,88,256854,6,0,B|272:88,3,140,8|0|8|0
312,88,258915,2,0,B|240:224,1,140
216,272,259806,2,0,B|360:336,1,140,8|0
216,272,260994,1,4
336,200,261588,6,0,B|416:208|456:112,1,140
400,72,262440,1,4
352,16,262734,2,0,B|272:7|232:104,1,140
240,155,263662,1,4
240,224,263955,2,0,B|301:275|388:218,1,140
370,88,265126,1,4
230,88,265711,1,4
256,192,266150,12,0,269809
256,192,270394,5,6
