osu file format v9

[General]
AudioFilename: Sunday Bloody Sunday.mp3
AudioLeadIn: 0
PreviewTime: 69753
Countdown: 1
SampleSet: Soft
StackLeniency: 0.8
Mode: 0
LetterboxInBreaks: 1

[Editor]
Bookmarks: 72168,183776
DistanceSpacing: 1.3
BeatDivisor: 4
GridSize: 8

[Metadata]
Title:Sunday Bloody Sunday
Artist:U2
Creator:Serval
Version:Hard
Source:
Tags:U2 Rock Sunday Bloody

[Difficulty]
HPDrainRate:7
CircleSize:5
OverallDifficulty:7
ApproachRate:6
SliderMultiplier:1.8
SliderTickRate:2

[Events]
//Background and Video events
0,0,"BG.jpg"
//Break Periods
2,144921,148404
2,167363,174939
2,223261,232183
//Storyboard Layer 0 (Background)
//Storyboard Layer 1 (Fail)
//Storyboard Layer 2 (Pass)
//Storyboard Layer 3 (Foreground)
//Storyboard Sound Samples
//Background Colour Transformations
3,100,0,0,4

[TimingPoints]
10784,594.059405940594,4,2,1,86,1,0
15536,588.235294117647,4,2,1,86,1,0
20241,589.68058968059,4,2,1,86,1,0
50904,591.133004926108,4,2,1,86,1,0
79278,581.113801452785,4,2,1,86,1,0
88684,588.235294117647,4,2,1,86,1,0
98112,591.133004926108,4,2,1,86,1,0
117028,588.235294117647,4,2,1,86,1,0
138204,592.592592592593,4,2,1,86,1,0
147685,589.68058968059,4,2,1,86,1,0
194859,591.133004926108,4,2,1,86,1,0
204317,592.592592592593,4,2,1,86,1,0
209057,589.68058968059,4,2,1,86,1,0
246796,594.059405940594,4,2,1,86,1,0
251548,591.133004926108,4,2,1,86,1,0
256277,589.68058968059,4,2,1,86,1,0

[Colours]
Combo1 : 168,0,168
Combo2 : 0,159,0
Combo3 : 3,3,165
Combo4 : 183,4,4
Combo5 : 0,143,151

[HitObjects]
208,152,10784,5,6
256,72,11081,1,0
304,152,11378,1,0
256,232,11675,1,0
304,152,11972,1,0
256,232,12269,1,0
168,208,12566,1,0
120,128,12863,5,12
168,208,13160,1,0
216,128,13457,1,0
256,208,13754,1,0
304,128,14051,1,0
352,208,14348,1,0
392,128,14645,1,0
440,208,14942,1,0
480,128,15239,1,8
432,48,15536,5,4
344,48,15830,1,0
264,88,16124,1,0
224,168,16418,1,8
312,168,16712,1,0
224,168,17006,1,0
256,256,17300,1,0
336,296,17594,1,0
392,224,17888,6,0,L|440:154|256:154,2,270
392,224,19947,1,8
320,280,20241,5,4
232,248,20535,1,0
152,208,20830,1,0
168,296,21125,1,0
152,208,21420,1,0
208,136,21715,1,0
296,112,22010,1,0
384,88,22304,6,0,L|416:57,2,45,8|0|0
320,152,22894,1,0
256,216,23189,1,6
112,104,23779,6,0,L|48:40,2,90
248,56,24663,1,12
248,56,24811,1,12
248,56,24958,1,12
432,72,25548,5,0
392,152,25842,1,0
432,72,26137,1,0
392,152,26432,1,0
320,208,26727,1,0
240,256,27022,5,8
88,208,27317,1,0
48,40,27906,5,2
232,40,28496,1,2
416,40,29086,1,0
416,128,29381,2,0,L|416:192,2,45,12|0|12
256,48,30265,5,0
176,96,30560,1,0
112,160,30855,1,0
64,240,31150,1,0
112,320,31444,5,0
64,240,31739,1,8
112,320,32034,2,0,L|312:320,1,180,4|0
408,320,32919,1,0
480,232,33213,1,0
400,144,33508,1,0
328,232,33803,1,0
210,232,34098,5,8
210,232,34245,1,8
210,232,34393,1,12
264,128,34688,1,0
344,48,34983,1,0
448,104,35277,1,0
344,48,35572,1,0
448,104,35867,1,0
160,152,36457,5,0
240,192,36752,2,0,L|80:296,3,180
216,264,38815,1,4
216,176,39110,2,0,B|216:72,2,90,0|4|0
272,104,39995,5,0
328,176,40290,1,0
408,224,40584,1,8
408,224,40732,1,8
408,224,40879,1,8
328,272,41174,1,8
236,272,41469,6,8,L|172:272,4,45,8|8|8|8|8
408,224,42648,2,8,L|456:224,4,45,8|8|8|8|8
232,168,43828,2,8,L|185:168,4,45
240,256,44712,5,8
240,256,44860,1,8
240,256,45007,1,8
152,240,45302,1,8
72,192,45597,1,0
152,144,45892,2,0,B|248:144,3,90,8|0|0|8
312,144,47071,1,0
312,232,47366,2,0,L|368:232,4,45,8|8|8|8|8
248,168,48250,5,8
160,168,48545,1,8
160,168,48693,1,8
160,168,48840,1,4
160,168,48987,1,8
160,168,49135,1,8
72,168,49430,6,8,B|8:168,4,45
152,256,50314,1,0
269,256,50609,1,8
269,256,50756,1,8
269,256,50904,1,8
269,256,51051,1,8
104,320,51495,6,0,B|200:320,2,90,8|0|8
192,320,52381,1,0
312,320,52677,1,8
256,216,52972,1,8
256,256,53120,1,8
256,296,53268,1,8
352,232,53564,1,0
416,136,53859,1,4
298,136,54155,2,0,B|210:136,2,45,8|0|8
352,32,54746,1,8
417,136,55041,2,0,L|512:136,1,90,8|0
480,72,55633,5,12
392,72,55928,1,0
480,72,56224,1,8
392,72,56519,1,0
312,120,56815,1,12
240,176,57110,2,0,L|184:96,1,90,0|8
120,168,57702,5,0
88,256,57997,1,8
120,168,58293,1,0
152,256,58588,1,12
240,256,58884,2,0,L|344:256,3,90,8|10|0|14
400,256,60066,5,8
400,256,60214,1,8
400,256,60362,1,8
368,168,60657,1,0
296,112,60953,1,8
208,112,61248,2,0,L|104:112,2,90
296,112,62135,1,8
384,128,62431,1,0
464,168,62726,5,2
392,224,63022,1,0
312,256,63317,1,8
392,224,63613,1,8
312,256,63761,1,8
312,256,63908,1,12
224,256,64204,2,0,L|176:256,3,45,8|0|2|8
144,248,64795,1,8
104,224,64943,1,8
64,200,65091,1,12
128,136,65386,5,0
168,56,65682,1,8
216,136,65977,1,0
256,56,66273,1,2
304,136,66569,2,8,B|400:136,1,90,0|8
511,136,67160,2,0,B|391:136,1,90,0|8
408,256,67751,2,0,B|408:360,3,90,0|8|8|0
408,192,68933,2,0,B|408:240,3,45
408,272,69524,1,8
408,272,69672,1,8
408,272,69820,1,8
464,208,70411,6,0,B|424:168|464:128,2,90,8|0|0
344,192,71298,1,4
256,112,71593,1,0
168,192,71889,1,4
88,112,72184,2,0,B|-8:184|88:272,1,180,0|8
488,312,73367,5,0
488,232,73662,1,0
488,152,73958,1,0
416,200,74253,1,8
416,200,74401,1,8
416,200,74549,1,4
288,96,75140,5,8
288,213,75436,1,0
205,130,75731,1,2
322,130,76027,1,0
224,192,76322,1,8
120,248,76618,1,0
152,136,76913,2,0,B|208:120|272:136|352:184|336:304,1,270,2|2
224,272,78096,1,4
224,152,78391,1,0
306,234,78687,1,4
189,234,78982,1,0
288,176,79278,5,2
464,24,79859,1,2
230,24,80440,1,2
230,257,81021,1,2
463,257,81602,1,2
297,91,82183,5,2
297,324,82764,1,2
63,324,83345,1,0
145,241,83636,2,0,B|204:313,2,90,8|0|0
145,123,84508,2,0,L|42:121,1,90
55,238,85089,1,4
55,237,85379,1,0
56,120,85670,1,2
144,48,85960,1,0
144,301,86251,2,0,B|337:301,1,180
88,192,87413,6,8,B|-16:192,2,90
416,192,88684,2,8,B|464:192,4,45
336,192,89860,1,8
336,192,90007,1,8
336,192,90154,1,8
336,192,90301,1,8
336,192,90448,1,8
256,192,90742,2,8,B|152:192,2,90
280,112,91625,2,8,B|344:40,3,90
200,88,92801,5,8
184,168,93095,1,8
248,224,93389,2,0,B|328:288,2,90,0|0|8
336,224,94272,6,0,B|400:128,1,90,8|0
304,120,94860,2,0,B|224:72,1,90,8|0
304,120,95448,2,8,B|360:48,2,90
256,192,96331,1,0
312,256,96625,2,0,B|384:328,4,90,8|8|8|8|8
200,192,98259,1,8
200,192,98407,1,8
272,144,98703,5,8
424,64,99294,1,0
424,144,99589,2,0,B|424:216,2,45,8|8|8
344,168,100476,5,8
344,168,100624,1,8
272,272,101067,2,8,B|272:208,1,45
272,112,101658,6,0,B|336:112,4,45,8|8|8|8|8
352,112,102545,1,8
352,112,102693,1,8
352,152,102841,2,0,B|352:224,1,45,0|0
352,304,103432,2,0,B|424:360,3,90,0|0|0|8
456,280,104614,6,0,B|512:200,1,90,8|0
416,216,105205,1,0
336,216,105501,2,0,B|256:216,4,45
392,152,106978,1,8
392,152,107126,1,8
392,152,107274,1,8
392,152,107570,5,2
320,104,107865,1,0
392,56,108161,1,8
464,104,108456,1,0
392,152,108752,1,0
328,200,109047,1,2
256,248,109343,1,8
328,288,109639,6,0,B|400:288,2,45,0|0|4
256,288,110525,1,8
256,288,110673,1,8
256,288,110821,2,0,B|336:288,1,45
408,288,111412,1,8
464,232,111708,1,8
392,192,112003,5,8
312,168,112299,1,8
232,152,112594,1,0
152,136,112890,1,8
112,144,113038,1,0
64,216,113333,1,0
80,256,113481,1,0
160,256,113777,2,0,B|264:256,3,90
160,256,114959,2,0,B|200:152|456:248|480:16,1,405,0|4
392,32,117028,5,0
320,72,117322,1,0
272,144,117616,1,4
320,72,117910,1,0
272,144,118204,1,0
240,224,118498,1,0
216,304,118792,2,0,B|280:304,2,45,8|8|8
160,240,119380,1,0
240,224,119675,2,0,B|312:216|424:120,2,180
192,152,121733,5,4
168,232,122028,1,0
224,296,122322,1,8
304,320,122616,1,0
384,288,122910,1,4
432,224,123204,1,0
472,152,123498,1,8
392,152,123792,2,0,B|224:88|200:200,2,225
368,232,125851,5,8
312,288,126145,1,8
312,288,126292,1,8
312,288,126439,1,12
144,288,127028,6,0,B|72:376|8:360,2,135,4|0|4
200,224,128498,1,8
248,160,128792,1,2
168,160,129086,1,0
248,160,129380,1,0
224,80,129675,1,0
248,160,129969,1,0
168,160,130263,1,0
248,160,130557,1,2
328,128,130851,5,2
268,68,131145,2,0,B|332:12|404:76,2,135,4|0|4
256,192,132910,12,0,136439
424,80,137322,5,0
472,152,137616,1,0
392,152,137910,1,0
312,152,138204,2,0,B|256:152,4,45,8|8|8|8|8
360,80,139092,5,4
432,120,139389,1,8
432,120,139537,1,8
432,120,139685,1,8
400,200,139981,1,0
328,240,140278,1,8
328,240,140426,1,8
328,240,140574,1,8
248,240,140870,2,0,B|152:240,2,90
296,176,141759,1,8
216,176,142055,5,0
216,176,142352,1,10
184,96,142648,1,0
264,64,142944,1,10
344,96,143241,1,0
264,64,143537,1,10
344,96,143833,1,0
400,152,144129,2,0,L|440:192,4,45,0|0|0|0|0
256,192,149454,12,4,152402
192,256,152992,5,8
320,256,153286,1,0
160,168,153581,1,0
352,168,153876,1,0
256,32,154171,2,0,B|256:104,1,45,8|0
256,320,154761,1,0
136,128,155056,1,0
376,224,155350,1,8
56,208,156235,5,0
136,208,156530,1,0
216,192,156825,5,0
256,208,156972,1,0
296,216,157119,1,0
336,216,157267,1,0
376,208,157414,1,0
416,192,157562,1,0
448,168,157709,1,4
392,104,158004,5,0
352,88,158151,1,0
312,88,158299,1,0
272,96,158446,1,0
232,112,158594,1,0
192,128,158741,1,0
152,152,158888,1,4
176,232,159183,5,0
216,248,159331,1,0
256,256,159478,1,0
296,256,159626,1,0
336,256,159773,1,0
376,248,159920,1,0
416,232,160068,1,4
392,152,163901,5,0
352,152,164048,1,0
312,152,164196,1,0
272,152,164343,1,0
232,144,164490,1,0
192,128,164638,1,0
152,112,164785,1,4
80,72,165080,6,0,B|32:40,6,45,0|0|0|0|0|0|4
88,208,166259,6,0,B|88:264,6,45,0|0|0|0|0|0|4
304,144,175989,6,0,B|376:144,2,45,0|0|8
432,144,176874,1,0
304,144,177169,6,0,B|224:144,2,45,0|0|8
176,144,178053,1,0
304,144,178348,6,0,B|376:144,1,45
456,144,178938,1,8
456,144,179085,1,8
456,144,179232,1,8
456,144,179380,1,8
456,184,179527,2,0,B|456:272,2,45
304,288,180707,6,0,B|360:288,4,45
248,224,181591,1,8
320,184,181886,1,8
320,184,182033,1,8
320,184,182181,1,8
400,160,182476,1,8
336,104,182770,5,0
256,104,183065,2,0,B|176:104,2,45,8|0|8
336,104,183950,1,0
416,104,184245,2,8,B|472:104,4,45
360,168,185129,1,0
280,168,185424,1,8
280,168,185571,1,8
280,168,185719,1,8
200,168,186014,1,0
160,240,186309,5,0
80,240,186603,2,8,B|24:240,4,45
160,240,187488,1,0
232,280,187783,1,8
232,280,187930,1,8
232,280,188078,1,8
312,312,188372,1,8
216,176,188962,5,0
296,176,189257,1,8
296,176,189404,1,8
296,176,189552,1,8
376,176,189847,2,0,L|456:176,3,45
392,240,191026,1,0
312,264,191321,1,8
232,280,191616,1,0
152,288,191911,1,8
128,120,192500,6,8,B|72:120,4,45
208,128,193385,1,0
288,144,193680,1,8
288,144,193827,1,8
288,144,193974,1,8
360,184,194269,1,0
48,312,195450,5,8
128,280,195745,1,0
208,264,196041,1,0
208,184,196336,1,0
208,264,196632,1,8
288,264,196927,2,8,B|392:264,3,90,8|8|8|8
440,264,198110,5,0
400,192,198405,1,0
336,136,198701,1,0
264,96,198996,1,0
184,80,199292,1,0
184,160,199588,6,0,B|184:256,1,90
184,312,200179,2,0,B|104:256,3,90,8|0|0|8
56,224,201361,1,8
56,224,201509,1,8
56,224,201657,1,8
112,160,201952,1,0
176,112,202248,1,0
248,64,202543,2,0,B|344:64,3,90
400,64,203725,2,8,B|456:64,4,45
232,64,204909,5,2
400,288,205502,1,2
232,64,206094,1,2
32,264,206687,1,6
200,264,207279,5,2
280,296,207576,1,0
200,264,207872,1,2
128,216,208168,1,4
48,216,208465,2,0,B|0:416|224:376,1,270,0|2
40,312,210236,5,6
232,48,210826,1,2
408,312,211415,1,2
408,96,212005,2,0,B|408:16,1,45
408,200,212595,1,2
112,192,213184,2,0,B|112:112,1,45,0|8
280,8,213774,1,6
240,312,214364,6,0,B|520:360|576:72|208:96,1,585
152,96,217017,1,0
208,160,217312,1,0
280,208,217607,1,0
360,224,217902,1,0
208,304,218491,5,0
288,304,218786,1,0
456,304,219376,1,0
456,224,219671,1,0
376,224,219966,2,0,B|312:168,2,45
440,280,220850,1,4
376,224,221145,1,4
256,192,221440,12,0,223061
256,192,233233,5,8
192,136,233528,1,0
256,80,233823,1,0
320,136,234118,1,0
328,216,234413,1,8
264,272,234708,1,0
184,240,235002,1,12
152,72,235592,5,8
224,32,235887,1,0
288,80,236182,1,4
320,160,236477,1,8
320,160,236624,1,8
336,240,236919,1,8
336,240,237066,1,8
264,280,237361,5,4
184,256,237656,1,0
152,176,237951,1,0
152,96,238246,1,8
152,96,238393,1,8
152,96,238541,1,8
232,64,238835,1,0
296,112,239130,2,0,B|368:168,6,90,0|0|0|0|0|0|4
232,64,241194,5,8
232,64,241342,1,8
192,136,241636,1,8
192,136,241784,1,8
192,136,241931,1,8
192,136,242079,1,12
192,304,242668,6,0,B|120:304,2,45
256,248,243553,1,8
256,248,243700,1,8
256,248,243848,1,8
312,192,244142,1,8
312,192,244290,1,8
312,192,244437,1,8
232,192,244732,2,0,B|144:208|144:344|56:328,1,225,4|0
80,328,245912,1,0
160,328,246206,6,0,L|224:328,3,45,8|8|8|8
232,320,246796,5,4
296,264,247093,1,0
360,208,247390,1,0
400,136,247687,1,8
400,136,247835,1,8
400,136,247984,1,8
328,96,248281,1,0
256,56,248578,1,0
328,96,248875,1,8
256,56,249172,2,0,B|104:32|88:232,2,270,8|0|4
128,120,252139,6,0,B|224:120,2,90
200,120,253025,1,0
280,120,253321,1,0
80,168,253616,5,0
400,168,253912,1,0
128,248,254208,1,0
352,248,254503,1,0
240,304,254799,1,0
240,40,255094,2,0,B|240:120,1,45
240,304,255685,1,8
240,176,255981,1,8
240,176,256129,1,8
240,176,256277,1,10
320,176,256571,5,0
320,176,256866,1,8
272,248,257161,1,8
352,280,257456,1,0
432,256,257751,1,0
400,176,258046,1,8
336,128,258340,1,8
336,128,258488,1,8
336,128,258635,1,8
168,160,259225,5,8
168,160,259372,1,8
168,288,259815,1,8
168,288,259962,1,8
288,256,260404,5,8
288,256,260552,1,8
288,256,260699,1,8
288,256,260847,1,8
288,256,260994,1,12
288,176,261289,6,0,B|376:176,2,45
304,96,262173,2,0,B|384:96,1,45
456,96,262763,2,0,B|456:184,1,45
456,248,263353,2,0,B|464:344|344:336,2,135,8|8|8
456,168,264827,2,0,L|456:88,1,45,8|8
376,72,265417,1,0
296,56,265711,1,8
216,56,266006,1,0
256,192,266301,12,0,269249
256,192,269839,5,8
256,192,270134,1,8
256,192,270281,1,8
256,192,270429,1,14
