osu file format v9

[General]
AudioFilename: Sunday Bloody Sunday.mp3
AudioLeadIn: 0
PreviewTime: 70388
Countdown: 1
SampleSet: Soft
StackLeniency: 0.7
Mode: 0
LetterboxInBreaks: 1

[Editor]
Bookmarks: 183776,269839
DistanceSpacing: 1
BeatDivisor: 4
GridSize: 8

[Metadata]
Title:Sunday Bloody Sunday
Artist:U2
Creator:Serval
Version:Easy
Source:
Tags:War

[Difficulty]
HPDrainRate:3
CircleSize:4
OverallDifficulty:3
ApproachRate:3
SliderMultiplier:1.3
SliderTickRate:2

[Events]
//Background and Video events
0,0,"BG.jpg"
//Break Periods
2,84167,87225
2,111902,116165
2,188604,194042
2,218700,221765
//Storyboard Layer 0 (Background)
//Storyboard Layer 1 (Fail)
//Storyboard Layer 2 (Pass)
//Storyboard Layer 3 (Foreground)
//Storyboard Sound Samples
//Background Colour Transformations
3,100,0,0,4

[TimingPoints]
1073,586.33831720903,4,2,1,86,1,0
10780,603.015075376884,4,2,1,86,1,0
13185,582.52427184466,4,2,1,86,1,0
15515,588.235294117647,4,2,1,86,1,0
17865,600,4,2,1,86,1,0
20250,588.235294117647,4,2,1,86,1,0
22622,591.133004926108,4,2,1,86,1,0
24975,582.52427184466,4,2,1,86,1,0
27305,594.059405940594,4,2,1,86,1,0
29687,582.52427184466,4,2,1,86,1,0
32007,600,4,2,1,86,1,0
34377,594.059405940594,4,2,1,86,1,0
36763,594.059405940594,4,2,1,86,1,0
39132,571.428571428571,4,2,1,86,1,0
41424,594.059405940594,4,2,1,86,1,0
46173,591.133004926108,4,2,1,86,1,0
50902,588.235294117647,4,2,1,86,1,0
53262,588.235294117647,4,2,1,86,1,0
55619,594.059405940594,4,2,1,86,1,0
57999,594.059405940594,4,2,1,86,1,0
60354,592.124740945426,4,2,1,86,1,0
67459,588.235294117647,4,2,1,86,1,0
69797,591.133004926108,4,2,1,86,1,0
79227,592.592592592593,4,2,1,86,1,0
86338,588.235294117647,4,2,1,86,1,0
88665,588.812561334642,4,2,1,86,1,0
93385,589.68058968059,4,2,1,86,1,0
98107,591.133004926108,4,2,1,86,1,0
114650,591.133004926108,4,2,1,86,1,0
133513,588.235294117647,4,2,1,86,1,0
138218,591.133004926108,4,2,1,86,1,0
147682,600,4,2,1,86,1,0
150052,588.235294117647,4,2,1,86,1,0
154760,585.365853658537,4,2,1,86,1,0
157098,594.059405940594,4,2,1,86,1,0
161838,591.133004926108,4,2,1,86,1,0
171284,588.235294117647,4,2,1,86,1,0
175993,591.133004926108,4,2,1,86,1,0
183069,591.133004926108,4,2,1,86,1,0
199600,591.133004926108,4,2,1,86,1,0
209057,588.235294117647,4,2,1,86,1,0
218500,588.235294117647,4,2,1,86,1,0
232635,594.059405940594,4,2,1,86,1,0
237387,588.235294117647,4,2,1,86,1,0
242083,588.235294117647,4,2,1,86,1,0
246788,594.059405940594,4,2,1,86,1,0
251560,588.235294117647,4,2,1,86,1,0
258618,594.059405940594,4,2,1,86,1,0
262146,588.235294117647,4,2,1,86,1,0
263370,585.365853658537,4,2,1,86,1,0

[Colours]
Combo1 : 0,143,151
Combo2 : 124,146,154
Combo3 : 208,35,19
Combo4 : 8,27,8

[HitObjects]
432,120,10780,1,4
304,128,11383,1,0
184,176,11986,1,0
104,280,12589,1,0
232,280,13185,2,0,B|384:280,3,130,4|0|4|0
456,192,15515,5,4
352,120,16103,1,0
224,120,16691,1,4
112,192,17279,1,0
224,256,17865,1,0
352,256,18465,1,4
464,192,19065,1,0
336,160,19665,1,0
416,56,20250,5,4
352,64,20544,2,0,B|272:152|184:64,2,195,0|8|0
416,64,22622,1,8
416,192,23213,2,0,B|272:192,1,130,0|8
216,88,24395,1,2
160,208,24975,6,0,B|296:192|432:280,1,260,8|8
408,136,26722,1,0
280,136,27305,2,0,B|72:136,2,195,8|4|8
400,192,29687,5,4
320,88,30269,1,8
192,88,30852,1,0
112,192,31434,1,8
192,296,32007,1,4
320,296,32607,1,8
392,192,33207,1,0
264,192,33807,1,8
152,120,34377,5,4
280,120,34971,1,8
280,248,35565,2,4,B|408:248,2,130,4|12|4
232,128,37357,2,6,B|144:224,1,130,14|6
272,224,38545,1,12
400,232,39132,2,6,B|488:136,1,130,0|12
360,128,40274,1,6
256,192,40560,12,4,43206
328,112,44394,5,8
312,240,44988,1,0
184,248,45582,1,8
104,152,46173,2,0,B|16:48,2,130,0|12|0
224,192,47946,1,8
184,312,48537,1,0
224,192,49128,5,8
296,88,49719,1,0
368,200,50310,1,8
296,312,50902,1,4
224,208,51490,5,8
328,128,52078,1,0
432,208,52666,1,8
328,288,53262,1,4
224,208,53850,1,8
128,128,54438,1,0
240,64,55026,2,0,B|392:64,1,130,8|12
496,96,56213,6,0,B|400:216,1,130,8|2
312,248,57401,2,0,B|160:248,1,130,8|2
216,152,58593,1,8
312,64,59187,1,0
440,80,59781,1,8
480,208,60354,1,2
352,208,60946,6,0,L|208:208,2,130,8|4|8
224,208,62722,1,0
328,128,63314,2,0,B|440:32,2,130,8|4|8
328,128,65090,5,0
216,184,65683,1,8
344,184,66275,1,0
216,184,66867,1,8
296,280,67459,2,0,L|440:280,3,130,0|8|0|8
296,280,69797,1,4
192,200,70388,5,8
272,96,70979,1,0
400,96,71570,1,8
488,192,72161,1,0
360,192,72752,2,0,B|216:192,1,130,8|4
176,72,73934,5,8
48,72,74526,1,4
48,200,75117,1,8
176,200,75708,1,0
288,136,76299,1,8
384,48,76890,1,0
256,48,77481,2,0,L|96:48,2,130,8|0|8
192,160,79227,1,0
256,192,79819,12,6,83967
104,96,88665,6,0,L|264:96,1,130,12|0
360,96,89842,2,0,L|360:240,1,130,0|8
232,224,91020,2,0,L|72:224,1,130,4|8
104,96,92197,1,4
232,96,92786,1,4
240,224,93385,6,0,L|400:224,1,130,0|8
496,224,94564,2,0,L|496:64,1,130,0|8
368,88,95743,2,0,L|208:88,3,130,4|0|4|8
120,136,98107,5,0
240,184,98698,1,8
360,224,99289,1,0
232,256,99880,2,0,L|88:256,3,130,8|0|8|0
232,256,102244,2,0,B|384:256,1,130,8|4
424,144,103427,5,8
304,96,104018,1,4
232,200,104609,2,4,B|384:200,1,130,12|4
464,120,105791,2,4,B|328:120,2,130,12|0|12
336,120,107565,1,0
208,64,108156,5,8
104,144,108747,1,0
208,64,109338,1,8
336,40,109929,1,0
208,64,110520,1,12
208,192,111111,2,0,B|208:328,1,130,0|8
192,128,117605,5,12
320,128,118196,1,0
320,256,118787,1,8
192,256,119379,2,0,L|40:256,4,130,4|8|4|8|4
272,152,122334,1,8
400,152,122925,1,0
272,152,123516,1,8
152,104,124108,2,0,B|16:40,2,130,0|8|0
272,152,125881,1,12
376,232,126472,5,4
272,304,127063,1,0
272,176,127654,1,0
376,104,128246,1,0
376,232,128837,1,4
376,360,129428,2,0,L|112:360,1,260
120,192,131201,1,4
256,192,131792,12,0,135865
352,96,137042,1,4
232,152,137630,2,0,C|112:208,1,130,0|4
112,336,138809,1,8
240,336,139400,1,4
240,208,139991,2,0,C|240:136,2,65,8|0|4
128,272,141173,1,8
48,168,141764,6,0,B|48:24,2,130,0|8|4
48,296,143538,1,8
48,168,144129,1,4
152,88,144720,1,8
272,40,145311,5,0
392,88,145902,1,12
272,136,146493,1,0
272,264,147084,2,0,L|120:264,2,130,12|0|12
400,216,148882,6,0,B|352:96,1,130,0|8
224,96,150052,1,0
96,96,150640,2,0,B|48:216,1,130,0|4
176,216,151816,1,8
304,216,152404,1,0
144,232,152993,6,0,B|256:208|184:80|360:80,2,260,8|8|4
376,96,156516,5,12
424,216,157098,1,0
296,216,157692,1,8
224,112,158286,1,0
352,112,158880,2,0,B|288:160,1,65,8|0
248,184,159474,1,2
128,240,160068,6,0,B|224:392|344:232,1,260,8|8
376,192,161553,1,0
408,136,161838,2,0,B|448:64,2,65,8|0|8
328,240,163020,2,0,B|184:240,1,130,8|8
80,184,164202,1,4
136,64,164793,2,0,B|247:-27|375:68,3,260,8|8|8|12
256,120,168931,5,0
352,208,169522,1,12
472,152,170113,1,0
432,272,170704,1,12
304,272,171284,2,0,B|72:224|240:192|320:184,1,260,0|0
440,152,173048,5,8
344,240,173636,1,0
248,152,174225,1,8
144,232,174813,1,0
248,152,175401,1,8
144,232,175993,2,0,B|200:280,2,65,0|4|8
176,104,177175,6,0,B|264:104,2,65,0|4|8
240,216,178357,2,0,B|160:216,2,65,0|4|8
160,112,179539,5,4
280,160,180130,1,0
160,208,180722,1,4
40,160,181313,1,0
160,112,181904,2,0,B|240:56,2,65,0|4|8
240,216,183069,2,0,B|296:176,2,65,0|4|8
224,88,184251,5,4
128,176,184842,1,8
56,288,185433,2,0,B|200:288,1,130,0|8
320,288,186615,2,0,B|224:288,2,65,0|4|2
400,184,187798,2,0,B|496:184,2,65,0|4|2
480,120,195482,5,12
360,72,196073,1,0
232,96,196665,1,8
120,160,197256,1,0
144,288,197847,2,4,B|256:296|392:256|456:200,1,325,12|4
480,152,199600,1,8
424,36,200191,6,0,B|280:36|128:92|56:180,1,390,8|0
88,296,202555,1,4
216,296,203146,1,0
344,296,203737,1,4
344,168,204329,6,0,B|200:168,1,130,4|0
84,168,205511,2,0,B|236:168,1,130
280,56,206693,1,10
408,56,207284,2,0,B|408:192,1,130
408,320,208466,1,2
280,320,209057,6,0,B|144:320,1,130
216,128,210233,2,0,B|344:128,1,130
480,128,211409,2,0,B|480:256,1,130
352,256,212586,5,8
224,256,213174,1,2
256,192,213762,12,4,218500
464,96,223205,5,0
344,40,223794,1,12
464,96,224382,1,0
344,144,224970,1,8
224,96,225558,1,0
248,224,226147,1,8
160,320,226735,1,0
248,224,227323,6,0,B|384:224,2,130,8|4|8
376,224,229088,2,0,B|272:128,1,130,0|8
160,192,230264,1,0
208,72,230852,1,12
336,72,231441,1,0
384,192,232029,1,8
272,128,232635,1,0
144,128,233229,6,0,B|144:272,1,130,4|8
256,192,234417,1,0
384,192,235011,1,8
328,72,235605,2,0,B|184:72,1,130,0|8
136,72,236496,1,8
136,136,236793,2,0,B|136:288,1,130,8|0
240,120,237975,5,4
120,176,238563,1,0
240,232,239151,1,8
360,184,239739,1,0
240,120,240328,1,8
240,120,240916,2,0,B|88:120,1,130,4|0
112,248,242083,1,4
208,160,242671,6,0,B|120:160|48:184|40:288|40:344,1,260,8|0
160,272,244435,1,0
280,224,245024,1,8
408,168,245612,1,0
280,168,246200,1,8
160,112,246788,5,4
280,72,247382,1,8
408,104,247976,1,0
280,144,248570,1,8
192,240,249164,1,4
312,288,249758,2,0,B|232:288,1,65
184,288,250352,2,0,B|40:288,2,130,0|4|8
184,160,252148,5,4
312,160,252736,2,0,B|448:160,2,130,0|12|0
184,160,254501,1,10
184,32,255089,2,0,B|320:32,2,130,0|8|0
296,104,256854,2,0,B|160:104,1,130
296,104,258030,2,0,B|432:104,1,130
352,208,259212,1,4
360,336,259806,6,0,B|512:336,1,130,4|8
488,272,260697,1,8
488,208,260994,2,0,B|488:64,1,130,4|0
422,78,261885,1,8
356,78,262146,2,0,B|204:78,1,130,4|0
160,78,263028,1,8
160,143,263370,2,0,B|160:279,1,130,4|0
160,338,264248,1,8
224,336,264540,6,0,B|368:336,2,130,0|4|4
224,208,266296,1,8
136,112,266882,2,0,B|256:72|400:112,2,260,0|8|8
136,240,269809,1,2
264,240,270394,1,12
