osu file format v14

[General]
AudioFilename: U1 overground - .mp3
AudioLeadIn: 500
PreviewTime: 53819
Countdown: 0
SampleSet: Soft
StackLeniency: 0.3
Mode: 0
LetterboxInBreaks: 0
WidescreenStoryboard: 0

[Editor]
DistanceSpacing: 1
BeatDivisor: 4
GridSize: 4
TimelineZoom: 2.4

[Metadata]
Title:Dopamine
TitleUnicode:ドーパミン
Artist:U1 overground
ArtistUnicode:U1 overground
Creator:fanzhen0019
Version:NORMAL
Source:jubeat saucer fulfill
Tags:sionKotori yuichi asami
BeatmapID:533615
BeatmapSetID:210316

[Difficulty]
HPDrainRate:4
CircleSize:3
OverallDifficulty:4
ApproachRate:5
SliderMultiplier:1.20000000596046
SliderTickRate:1

[Events]
//Background and Video events
0,0,"U1.jpg",0,0
//Break Periods
//Storyboard Layer 0 (Background)
//Storyboard Layer 1 (Fail)
//Storyboard Layer 2 (Pass)
//Storyboard Layer 3 (Foreground)
//Storyboard Sound Samples

[TimingPoints]
1019,300,4,2,1,65,1,0
54044,-100,4,1,1,65,0,0
116294,-100,4,2,1,5,0,0

[Colours]
Combo1 : 255,255,151
Combo2 : 255,128,128
Combo3 : 210,170,255
Combo4 : 255,164,255

[HitObjects]
92,264,1019,6,0,L|288:256,2,180.000000894069,4|0|0,0:0|0:0|0:0,0:0:0:0:
12,208,2219,2,0,P|-8:136|40:24,1,180.000000894069,2|0,0:0|0:0,0:0:0:0:
56,76,2819,2,0,L|180:72,1,120.000000596046,2|2,0:0|0:0,0:0:0:0:
264,108,3419,6,0,L|460:116,2,180.000000894069,2|2|2,0:0|0:0|0:0,0:0:0:0:
184,164,4619,2,0,P|164:236|212:348,1,180.000000894069,2|0,0:0|0:0,0:0:0:0:
228,296,5219,2,0,L|352:300,1,120.000000596046,2|2,0:0|0:0,0:0:0:0:
440,272,5819,6,0,P|408:220|288:228,2,180.000000894069,2|2|2,0:0|0:0|0:0,0:0:0:0:
492,192,7019,2,0,L|488:8,1,180.000000894069,2|0,0:0|0:0,0:0:0:0:
460,52,7619,2,0,P|424:92|352:100,1,120.000000596046,2|2,0:0|0:0,0:0:0:0:
272,68,8219,6,0,P|180:52|92:56,2,180.000000894069,2|2|2,0:0|0:0|0:0,0:0:0:0:
228,152,9419,2,0,P|136:168|48:164,2,180.000000894069,2|2|2,0:0|0:0|0:0,0:0:0:0:
264,240,10619,1,4,0:0:0:0:
256,192,10769,12,4,15419,0:0:0:0:
256,192,16019,5,2,0:0:0:0:
44,76,16619,1,2,0:0:0:0:
256,192,17219,2,0,L|256:332,2,120.000000596046,2|2|0,0:0|0:0|0:0,0:0:0:0:
468,76,18419,1,2,0:0:0:0:
456,324,19019,6,0,B|484:272|484:272|476:184,1,120.000000596046,4|0,0:0|0:0,0:0:0:0:
396,124,19619,2,0,B|368:176|368:176|376:264,1,120.000000596046,2|2,0:0|0:0,0:0:0:0:
348,352,20219,6,0,L|144:340,1,180.000000894069,4|0,0:0|0:0,0:0:0:0:
112,364,20819,2,0,P|80:304|88:240,1,120.000000596046,2|2,0:0|0:0,0:0:0:0:
152,156,21419,6,0,L|140:72,3,60.000000298023
176,44,22019,2,0,P|128:28|64:64,2,120.000000596046,2|2|2,0:0|0:0|0:0,0:0:0:0:
284,100,22919,6,0,L|352:100,1,60.000000298023
396,72,23219,2,0,B|420:132|420:132|400:196,1,120.000000596046,2|2,0:0|0:0,0:0:0:0:
492,264,23819,6,0,L|472:328,3,60.000000298023,0|0|0|0,0:0|0:0|0:0|0:0,0:0:0:0:
420,348,24419,2,0,B|364:324|364:324|304:352,1,120.000000596046,2|2,0:0|0:0,0:0:0:0:
208,288,25019,6,0,P|176:188|200:108,1,180.000000894069,4|0,0:0|0:0,0:0:0:0:
244,88,25619,2,0,L|380:80,1,120.000000596046,2|2,0:0|0:0,0:0:0:0:
472,132,26219,6,0,P|484:96|484:68,3,60.000000298023,0|0|0|0,0:0|0:0|0:0|0:0,0:0:0:0:
444,32,26819,2,0,L|320:20,1,120.000000596046,2|2,0:0|0:0,0:0:0:0:
204,36,27419,6,0,P|156:44|136:36,3,60.000000298023
88,60,28019,2,0,B|72:116|72:116|96:188,1,120.000000596046,2|2,0:0|0:0,0:0:0:0:
8,264,28619,6,0,P|0:300|4:328,3,60.000000298023,0|0|0|0,0:0|0:0|0:0|0:0,0:0:0:0:
48,360,29219,2,0,P|88:324|104:256,1,120.000000596046,2|0,0:0|0:0,0:0:0:0:
200,332,29819,6,0,L|404:320,1,180.000000894069,4|0,0:0|0:0,0:0:0:0:
436,344,30419,2,0,P|468:284|460:220,1,120.000000596046,2|2,0:0|0:0,0:0:0:0:
376,152,31019,6,0,L|372:72,3,60.000000298023
336,44,31619,2,0,P|392:28|456:64,2,120.000000596046,2|2|2,0:0|0:0|0:0,0:0:0:0:
228,100,32519,6,0,L|160:100,1,60.000000298023
116,72,32819,2,0,B|92:132|92:132|112:196,1,120.000000596046,2|2,0:0|0:0,0:0:0:0:
20,264,33419,6,0,L|40:328,3,60.000000298023,0|0|0|0,0:0|0:0|0:0|0:0,0:0:0:0:
92,348,34019,2,0,B|148:324|148:324|208:352,1,120.000000596046,2|2,0:0|0:0,0:0:0:0:
304,288,34619,6,0,P|336:188|312:108,1,180.000000894069,4|0,0:0|0:0,0:0:0:0:
268,88,35219,2,0,L|132:80,1,120.000000596046,2|2,0:0|0:0,0:0:0:0:
40,132,35819,6,0,P|28:96|28:68,3,60.000000298023,0|0|0|0,0:0|0:0|0:0|0:0,0:0:0:0:
68,32,36419,2,0,L|192:20,1,120.000000596046,2|2,0:0|0:0,0:0:0:0:
308,36,37019,6,0,P|356:44|376:36,3,60.000000298023,0|0|0|0,0:0|0:0|0:0|0:0,0:0:0:0:
424,60,37619,2,0,B|440:116|440:116|416:188,1,120.000000596046,2|2,0:0|0:0,0:0:0:0:
316,236,38219,6,0,P|324:272|320:300,3,60.000000298023,0|0|0|0,0:0|0:0|0:0|0:0,0:0:0:0:
360,340,38819,2,0,L|236:340,2,120.000000596046,2|2|6,0:0|0:0|0:0,0:0:0:0:
32,348,41819,6,0,L|108:344,3,60.000000298023,0|0|0|0,1:0|1:0|1:0|1:0,0:0:0:0:
124,292,42419,2,0,L|200:296,3,60.000000298023,0|0|0|0,1:0|1:0|1:0|1:0,0:0:0:0:
232,260,43019,6,0,L|308:256,3,60.000000298023,0|0|0|0,1:0|1:0|1:0|1:0,0:0:0:0:
324,204,43619,2,0,L|400:208,3,60.000000298023,0|0|0|0,0:0|0:0|0:0|0:0,0:0:0:0:
428,168,44219,5,4,0:0:0:0:
476,56,44519,6,0,L|400:48,1,60.000000298023
356,64,44819,2,0,B|296:76|296:76|240:48|240:48|184:60|184:60|124:32,1,240.000001192092,2|0,0:0|0:0,0:0:0:0:
244,248,46019,6,0,P|284:264|308:264,3,60.000000298023,0|0|0|0,0:0|0:0|0:0|0:0,0:0:0:0:
360,252,46619,1,4,0:0:0:0:
420,148,46919,6,0,L|344:140,1,60.000000298023
300,156,47219,2,0,B|240:168|240:168|184:140|184:140|128:152|128:152|68:124,1,240.000001192092,2|0,0:0|0:0,0:0:0:0:
188,340,48419,6,0,P|228:356|252:356,3,60.000000298023,0|0|0|0,0:0|0:0|0:0|0:0,0:0:0:0:
304,344,49019,1,4,0:0:0:0:
364,240,49319,6,0,L|288:248,1,60.000000298023
244,232,49619,2,0,B|184:220|184:220|128:248|128:248|72:236|72:236|12:264,1,240.000001192092,2|0,0:0|0:0,0:0:0:0:
184,84,50819,6,0,P|224:68|248:68,3,60.000000298023,0|0|0|0,0:0|0:0|0:0|0:0,0:0:0:0:
300,80,51419,1,4,0:0:0:0:
348,192,51719,6,0,L|272:200,1,60.000000298023
228,184,52019,2,0,B|168:172|168:172|112:200|112:200|56:188|56:188|52:196,1,180.000000894069,2|0,0:0|0:0,0:0:0:0:
312,340,53819,6,0,L|444:340,1,120.000000596046,4|0,0:0|0:0,0:0:0:0:
480,228,54419,2,0,P|488:196|484:156,1,60.000000298023,8|0,0:0|0:0,0:0:0:0:
448,120,54719,2,0,P|447:90|455:61,1,60.000000298023
500,20,55019,2,0,L|376:20,2,120.000000596046,0|0|8,0:0|0:0|0:0,0:0:0:0:
448,120,55919,1,0,0:0:0:0:
340,172,56219,6,0,P|256:172|184:40,1,240.000001192092,0|8,0:0|0:0,0:0:0:0:
80,112,57119,1,0,0:0:0:0:
12,12,57419,2,0,L|28:256,1,240.000001192092,0|8,0:0|0:0,0:0:0:0:
144,284,58319,2,0,P|152:328|144:364,2,60.000000298023,0|8|0,0:0|0:0|0:0,0:0:0:0:
260,252,58919,5,0,0:0:0:0:
180,164,59219,2,0,P|276:132|376:228,1,240.000001192092,8|0,0:0|0:0,0:0:0:0:
260,252,60119,1,0,0:0:0:0:
180,164,60419,2,0,P|156:80|160:36,2,120.000000596046,8|0|0,0:0|0:0|0:0,0:0:0:0:
260,252,61319,6,0,L|328:252,1,60.000000298023
344,308,61619,2,0,L|412:308,1,60.000000298023,8|0,0:0|0:0,0:0:0:0:
428,252,61919,2,0,L|496:252,1,60.000000298023,0|0,0:0|0:0,0:0:0:0:
512,196,62219,2,0,P|432:124|304:180,1,240.000001192092,0|8,0:0|0:0,0:0:0:0:
200,340,63419,6,0,L|68:340,1,120.000000596046,4|0,0:0|0:0,0:0:0:0:
32,228,64019,2,0,P|24:196|28:156,1,60.000000298023,8|0,0:0|0:0,0:0:0:0:
64,120,64319,2,0,P|64:90|56:61,1,60.000000298023
20,12,64619,2,0,L|144:12,2,120.000000596046
64,120,65519,1,0,0:0:0:0:
172,172,65819,6,0,P|256:172|328:40,1,240.000001192092
432,112,66719,1,0,0:0:0:0:
500,12,67019,2,0,L|484:256,1,240.000001192092
368,284,67919,2,0,P|360:328|368:364,2,60.000000298023,0|0|4,0:0|0:0|0:0,0:0:0:0:
252,252,68519,5,0,0:0:0:0:
332,164,68819,2,0,P|236:132|136:232,1,240.000001192092
252,252,69719,1,0,0:0:0:0:
332,164,70019,2,0,P|356:80|352:36,2,120.000000596046,0|0|0,0:0|0:0|0:0,0:0:0:0:
252,252,70919,6,0,L|184:252,1,60.000000298023
168,308,71219,2,0,L|100:308,1,60.000000298023,0|0,0:0|0:0,0:0:0:0:
84,252,71519,2,0,L|16:252,1,60.000000298023,0|0,0:0|0:0,0:0:0:0:
0,196,71819,6,0,P|8:108|64:72,1,120.000000596046
132,152,72419,2,0,L|200:148,3,60.000000298023,0|0|0|0,0:0|0:0|0:0|0:0,0:0:0:0:
244,180,73019,6,0,P|252:92|308:56,1,120.000000596046,4|0,0:0|0:0,0:0:0:0:
388,96,73619,2,0,P|380:184|324:220,1,120.000000596046,0|0,0:0|0:0,0:0:0:0:
272,284,74219,2,0,L|32:280,1,240.000001192092
92,48,75419,6,0,P|148:32|212:52,2,120.000000596046,0|0|8,0:0|0:0|0:0,0:0:0:0:
148,156,76319,1,0,0:0:0:0:
268,160,76619,6,0,L|416:164,1,120.000000596046
440,188,77069,2,0,P|468:160|472:128,1,60.000000298023,0|8,0:0|0:0,0:0:0:0:
504,256,77519,1,0,0:0:0:0:
424,344,77819,6,0,P|356:355|296:332,1,120.000000596046
200,292,78419,2,0,P|142:275|84:288,1,120.000000596046,8|0,0:0|0:0,0:0:0:0:
36,180,79019,6,0,L|24:104,2,60.000000298023,0|0|0,0:0|0:0|0:0,0:0:0:0:
156,192,79619,2,0,L|232:204,2,60.000000298023,8|0|0,0:0|0:0|0:0,0:0:0:0:
112,80,80219,6,0,P|176:56|228:80,1,120.000000596046,4|0,0:0|0:0,0:0:0:0:
340,92,80819,2,0,L|408:84,3,60.000000298023,0|0|0|0,0:0|0:0|0:0|0:0,0:0:0:0:
436,40,81419,6,0,P|416:88|432:151,1,120.000000596046
484,260,82019,1,0,0:0:0:0:
364,228,82319,1,0,0:0:0:0:
412,336,82619,6,0,P|356:352|296:324,2,120.000000596046,4|0|8,0:0|0:0|0:0,0:0:0:0:
364,228,83519,1,0,0:0:0:0:
244,224,83819,6,0,L|96:220,1,120.000000596046
72,196,84269,2,0,P|44:224|40:256,1,60.000000298023,0|8,0:0|0:0,0:0:0:0:
8,128,84719,1,0,0:0:0:0:
88,40,85019,6,0,P|155:28|216:52,1,120.000000596046
312,92,85619,2,0,P|369:108|427:95,1,120.000000596046,8|0,0:0|0:0,0:0:0:0:
476,204,86219,6,0,L|488:280,2,60.000000298023,0|0|0,0:0|0:0|0:0,0:0:0:0:
356,192,86819,2,0,L|280:180,3,60.000000298023,0|0|0|0,0:0|0:0|0:0|0:0,0:0:0:0:
256,220,87419,6,0,P|192:224|140:188,1,120.000000596046,4|0,0:0|0:0,0:0:0:0:
40,180,88019,2,0,P|20:120|36:64,1,120.000000596046,8|0,0:0|0:0,0:0:0:0:
136,32,88619,2,0,B|220:36|220:36|276:68|276:68|392:72,1,240.000001192092,0|8,0:0|0:0,0:0:0:0:
256,220,89819,6,0,P|320:216|372:252,1,120.000000596046
472,204,90419,2,0,P|492:264|476:320,1,120.000000596046,8|0,0:0|0:0,0:0:0:0:
376,352,91019,2,0,B|289:349|289:349|236:316|236:316|120:312,1,240.000001192092,0|8,0:0|0:0,0:0:0:0:
36,308,91919,1,0,0:0:0:0:
88,212,92219,6,0,L|76:76,1,120.000000596046
184,84,92819,2,0,L|196:220,1,120.000000596046,8|0,0:0|0:0,0:0:0:0:
292,252,93419,2,0,B|344:140|344:140|304:16,1,240.000001192092,0|8,0:0|0:0,0:0:0:0:
424,212,94619,6,0,L|436:76,1,120.000000596046
328,84,95219,2,0,L|316:220,1,120.000000596046,8|0,0:0|0:0,0:0:0:0:
220,252,95819,2,0,B|168:140|168:140|208:16,1,240.000001192092,0|8,0:0|0:0,0:0:0:0:
48,176,97019,6,0,L|28:232,3,60.000000298023,0|0|0|0,0:0|0:0|0:0|0:0,0:0:0:0:
76,252,97619,2,0,L|56:308,3,60.000000298023,0|0|0|0,0:0|0:0|0:0|0:0,0:0:0:0:
108,328,98219,2,0,L|252:328,1,120.000000596046
256,224,98819,2,0,P|308:176|368:176,1,120.000000596046,2|2,0:0|0:0,0:0:0:0:
464,176,99419,6,0,L|484:232,3,60.000000298023,0|0|0|0,0:0|0:0|0:0|0:0,0:0:0:0:
436,252,100019,2,0,L|456:308,3,60.000000298023,0|0|0|0,0:0|0:0|0:0|0:0,0:0:0:0:
404,328,100619,2,0,L|260:328,1,120.000000596046
256,224,101219,2,0,L|256:96,1,120.000000596046,2|2,0:0|0:0,0:0:0:0:
168,40,101819,6,0,P|112:60|80:132,1,120.000000596046,0|2,0:0|0:0,0:0:0:0:
164,184,102419,2,0,L|136:244,3,60.000000298023,0|0|2|0,0:0|0:0|0:0|0:0,0:0:0:0:
104,280,103019,6,0,P|124:336|196:368,1,120.000000596046,0|2,0:0|0:0,0:0:0:0:
248,284,103619,2,0,L|308:312,3,60.000000298023,0|0|2|0,0:0|0:0|0:0|0:0,0:0:0:0:
344,344,104219,6,0,P|400:324|432:252,1,120.000000596046,0|2,0:0|0:0,0:0:0:0:
348,200,104819,2,0,L|376:140,3,60.000000298023,0|0|2|0,0:0|0:0|0:0|0:0,0:0:0:0:
408,104,105419,6,0,P|388:48|316:16,1,120.000000596046,0|2,0:0|0:0,0:0:0:0:
264,100,106019,2,0,L|204:72,3,60.000000298023,0|0|2|0,0:0|0:0|0:0|0:0,0:0:0:0:
168,40,106619,6,0,P|112:60|80:132,1,120.000000596046,4|2,0:0|0:0,0:0:0:0:
112,216,107219,2,0,P|162:245|220:237,1,120.000000596046,0|2,0:0|0:0,0:0:0:0:
324,208,107819,2,0,L|464:208,2,120.000000596046,0|2|0,0:0|0:0|0:0,0:0:0:0:
256,116,108719,1,2,0:0:0:0:
344,40,109019,6,0,P|400:60|432:132,1,120.000000596046,0|2,0:0|0:0,0:0:0:0:
400,216,109619,2,0,P|349:245|291:237,1,120.000000596046,0|2,0:0|0:0,0:0:0:0:
188,208,110219,2,0,L|48:208,2,120.000000596046,0|2|2,0:0|0:0|0:0,0:0:0:0:
256,116,111119,1,2,0:0:0:0:
344,40,111419,6,0,P|400:60|432:132,1,120.000000596046,4|2,0:0|0:0,0:0:0:0:
348,184,112019,2,0,L|376:244,3,60.000000298023,0|0|2|0,0:0|0:0|0:0|0:0,0:0:0:0:
408,280,112619,6,0,P|388:336|316:368,1,120.000000596046,0|2,0:0|0:0,0:0:0:0:
264,284,113219,2,0,L|204:312,3,60.000000298023,0|0|2|0,0:0|0:0|0:0|0:0,0:0:0:0:
168,344,113819,6,0,P|112:324|80:252,1,120.000000596046,4|2,2:0|0:0,0:0:0:0:
164,200,114419,2,0,L|136:140,3,60.000000298023,0|0|2|0,0:0|0:0|0:0|0:0,0:0:0:0:
104,104,115019,6,0,P|124:48|196:16,1,120.000000596046,4|6,2:0|2:0,0:0:0:0:
248,100,115619,2,0,L|308:72,3,60.000000298023,4|0|4|0,2:0|0:0|2:0|0:0,0:0:0:0:
352,52,116219,5,4,0:0:0:0:
256,192,116369,12,0,118619,0:0:0:0:
