osu file format v14

[General]
AudioFilename: U1 overground - .mp3
AudioLeadIn: 500
PreviewTime: 53819
Countdown: 0
SampleSet: Normal
StackLeniency: 0.2
Mode: 0
LetterboxInBreaks: 0
WidescreenStoryboard: 0

[Editor]
DistanceSpacing: 1.2
BeatDivisor: 8
GridSize: 4
TimelineZoom: 3

[Metadata]
Title:Dopamine
TitleUnicode:ドーパミン
Artist:U1 overground
ArtistUnicode:U1 overground
Creator:fanzhen0019
Version:C6H3(OH)2-CH2-CH2-NH2
Source:jubeat saucer fulfill
Tags:sionKotori yuichi asami
BeatmapID:494818
BeatmapSetID:210316

[Difficulty]
HPDrainRate:6.9
CircleSize:4.5
OverallDifficulty:8.2
ApproachRate:9.6
SliderMultiplier:1.76
SliderTickRate:2

[Events]
//Background and Video events
0,0,"U1.jpg",0,0
//Break Periods
//Storyboard Layer 0 (Background)
//Storyboard Layer 1 (Fail)
//Storyboard Layer 2 (Pass)
//Storyboard Layer 3 (Foreground)
//Storyboard Sound Samples

[TimingPoints]
1019,300,4,2,1,65,1,0
10319,-100,4,1,2,65,0,0
15419,-100,4,1,1,80,0,0
20219,-100,4,1,2,70,0,0
20519,-83.3333333333333,4,1,2,70,0,0
21119,-58.8235294117647,4,1,2,70,0,0
21419,-100,4,1,2,70,0,0
22919,-83.3333333333333,4,1,2,70,0,0
24119,-66.6666666666667,4,1,2,70,0,0
24719,-100,4,1,2,70,0,0
25319,-83.3333333333333,4,1,2,70,0,0
25919,-58.8235294117647,4,1,2,70,0,0
26219,-100,4,1,2,70,0,0
27719,-83.3333333333333,4,1,2,70,0,0
28019,-66.6666666666667,4,1,2,70,0,0
29219,-100,4,1,2,70,0,0
30119,-83.3333333333333,4,1,2,70,0,0
30719,-58.8235294117647,4,1,2,70,0,0
31019,-100,4,1,2,70,0,0
32519,-83.3333333333333,4,1,2,70,0,0
32819,-66.6666666666667,4,1,2,70,0,0
34619,-100,4,1,2,70,0,0
34919,-83.3333333333333,4,1,2,70,0,0
35519,-58.8235294117647,4,1,2,70,0,0
35819,-100,4,1,2,70,0,0
37319,-83.3333333333333,4,1,2,70,0,0
38219,-66.6666666666667,4,1,2,70,0,0
39419,-100,4,1,2,70,0,0
44519,-66.6666666666667,4,1,2,70,0,0
45419,-100,4,1,2,70,0,0
46919,-66.6666666666667,4,1,2,70,0,0
47819,-100,4,1,2,70,0,0
49319,-66.6666666666667,4,1,2,70,0,0
50219,-100,4,1,2,70,0,0
51719,-66.6666666666667,4,1,2,70,0,0
52319,-58.8235294117647,4,1,2,70,0,0
53819,-100,4,1,1,70,0,0
54719,-83.3333333333333,4,1,1,70,0,0
55019,-100,4,1,1,70,0,0
55319,-200,4,1,1,70,0,0
56219,-100,4,1,1,70,0,0
58319,-66.6666666666667,4,1,1,70,0,0
58619,-100,4,1,1,70,0,0
58919,-50,4,1,1,70,0,0
59219,-100,4,1,1,70,0,0
60719,-66.6666666666667,4,1,1,70,0,0
61119,-66.6666666666667,4,1,1,5,0,0
61169,-66.6666666666667,4,1,1,70,0,0
61269,-66.6666666666667,4,1,1,5,0,0
61319,-66.6666666666667,4,1,1,70,0,0
61419,-66.6666666666667,4,1,1,5,0,0
61469,-66.6666666666667,4,1,1,70,0,0
61569,-66.6666666666667,4,1,1,5,0,0
61619,-66.6666666666667,4,1,1,70,0,0
61719,-66.6666666666667,4,1,1,5,0,0
61769,-66.6666666666667,4,1,1,70,0,0
61869,-66.6666666666667,4,1,1,5,0,0
61919,-66.6666666666667,4,1,1,70,0,0
62019,-66.6666666666667,4,1,1,5,0,0
62069,-66.6666666666667,4,1,1,70,0,0
62169,-66.6666666666667,4,1,1,5,0,0
62219,-66.6666666666667,4,1,1,70,0,0
62819,-200,4,1,1,70,0,0
63419,-100,4,1,2,70,0,0
63719,-66.6666666666667,4,1,2,70,0,0
64919,-200,4,1,2,70,0,0
65519,-100,4,1,2,70,0,0
67919,-66.6666666666667,4,1,2,70,0,0
68319,-66.6666666666667,4,1,2,5,0,0
68369,-66.6666666666667,4,1,2,70,0,0
68469,-66.6666666666667,4,1,2,5,0,0
68519,-66.6666666666667,4,1,2,70,0,0
68619,-66.6666666666667,4,1,2,5,0,0
68669,-66.6666666666667,4,1,2,70,0,0
68769,-66.6666666666667,4,1,2,5,0,0
68819,-66.6666666666667,4,1,2,70,0,0
68919,-66.6666666666667,4,1,2,5,0,0
68969,-66.6666666666667,4,1,2,70,0,0
69069,-66.6666666666667,4,1,2,5,0,0
69119,-66.6666666666667,4,1,2,70,0,0
69219,-66.6666666666667,4,1,2,5,0,0
69269,-66.6666666666667,4,1,2,70,0,0
69369,-66.6666666666667,4,1,2,5,0,0
69419,-66.6666666666667,4,1,2,70,0,0
70619,-100,4,1,2,70,0,0
72119,-200,4,1,2,70,0,0
72419,-100,4,1,2,70,0,0
73019,-200,4,1,2,70,0,0
73319,-100,4,1,2,70,0,0
76019,-83.3333333333333,4,1,1,70,0,0
77519,-66.6666666666667,4,1,1,70,0,0
77819,-100,4,1,1,70,0,0
79319,-83.3333333333333,4,1,1,70,0,0
80219,-100,4,1,1,70,0,0
82919,-83.3333333333333,4,1,1,70,0,0
84119,-133.333333333333,4,1,1,70,0,0
85019,-83.3333333333333,4,1,1,70,0,0
86519,-200,4,1,1,70,0,0
87419,-100,4,1,1,70,0,0
97019,-133.333333333333,4,1,3,70,0,0
106619,-100,4,1,1,70,0,0
106769,-100,4,1,4,70,0,0
111419,-100,4,1,3,70,0,0
116294,-100,4,2,1,5,0,0

[Colours]
Combo1 : 255,255,151
Combo2 : 255,128,128
Combo3 : 210,170,255
Combo4 : 255,164,255

[HitObjects]
404,273,1019,6,0,P|402:295|396:316,4,44,4|0|0|0|0,0:1|0:0|0:0|0:0|0:0,0:0:0:0:
311,343,1469,2,0,P|294:330|282:312,4,44,2|0|0|0|0,0:0|0:0|0:0|0:0|0:0,0:0:0:0:
320,228,1919,1,2,0:0:0:0:
320,228,1994,1,0,0:0:0:0:
320,228,2069,2,0,P|308:176|320:128,1,88
313,142,2369,1,2,0:0:0:0:
148,204,2519,2,0,L|252:196,1,88
512,170,2819,2,0,L|380:182,2,132,2|0|2,0:0|0:0|0:0,0:0:0:0:
408,52,3419,6,0,P|384:48|356:52,4,44,2|0|0|0|0,0:0|0:0|0:0|0:0|0:0,0:0:0:0:
284,80,3869,2,0,P|260:84|232:80,4,44,2|0|0|0|0,0:0|0:0|0:0|0:0|0:0,0:0:0:0:
160,60,4319,1,2,0:0:0:0:
160,60,4394,1,0,0:0:0:0:
160,60,4469,2,0,P|108:52|60:64,1,88
73,58,4769,1,2,0:0:0:0:
192,232,4919,2,0,L|288:224,1,88,0|2,0:0|0:0,0:0:0:0:
107,240,5219,2,0,L|63:244,2,44,2|0|0,0:0|0:0|0:0,0:0:0:0:
362,216,5519,2,0,L|406:212,2,44,2|0|0,0:0|0:0|0:0,0:0:0:0:
188,336,5819,6,0,P|160:348|140:348,4,44,2|0|0|0|0,0:0|0:0|0:0|0:0|0:0,0:0:0:0:
24,336,6269,2,0,P|45:338|65:348,4,44,2|0|0|0|0,0:0|0:0|0:0|0:0|0:0,0:0:0:0:
272,316,6719,1,2,0:0:0:0:
272,316,6794,1,0,0:0:0:0:
272,316,6869,2,0,P|324:332|356:328,1,88
356,327,7169,1,2,0:0:0:0:
460,372,7319,2,0,L|484:288,1,88,2|0,0:0|0:0,0:0:0:0:
416,116,7619,2,0,L|376:256,1,132,2|0,0:0|0:0,0:0:0:0:
379,242,7919,2,0,P|432:236|460:208,1,88,2|0,0:0|0:0,0:0:0:0:
368,44,8219,6,0,P|336:40|312:44,4,44,2|0|0|0|0,0:0|0:0|0:0|0:0|0:0,0:0:0:0:
184,80,8669,2,0,P|160:92|148:104,4,44,2|0|0|0|0,0:0|0:0|0:0|0:0|0:0,0:0:0:0:
88,204,9119,1,2,0:0:0:0:
84,224,9194,1,0,0:0:0:0:
84,244,9269,1,0,0:0:0:0:
88,264,9344,1,0,0:0:0:0:
100,280,9419,6,0,P|152:296|196:288,1,88,2|2,0:0|0:0,0:0:0:0:
332,216,9719,1,0,0:0:0:0:
256,352,9869,1,2,0:0:0:0:
344,312,10019,6,0,P|400:308|440:332,1,88,2|0,0:0|0:0,0:0:0:0:
448,312,10244,2,0,L|440:368,1,44,0|2,0:0|0:2,0:0:0:0:
332,216,10469,1,0,0:0:0:0:
408,48,10619,5,4,0:2:0:0:
256,192,10694,12,0,15269,0:0:0:0:
388,232,15419,6,0,L|388:320,1,88,4|2,0:2|0:0,0:0:0:0:
388,344,15644,1,0,0:0:0:0:
388,364,15719,1,0,0:0:0:0:
256,232,15869,6,0,L|256:144,1,88,2|0,0:0|0:0,0:0:0:0:
256,120,16094,1,0,0:0:0:0:
256,100,16169,1,2,0:0:0:0:
124,232,16319,6,0,L|124:320,1,88,0|2,0:0|0:0,0:0:0:0:
124,344,16544,1,0,0:0:0:0:
124,364,16619,1,0,0:0:0:0:
256,232,16769,6,0,L|256:144,1,88,2|0,0:0|0:0,0:0:0:0:
256,120,16994,1,0,0:0:0:0:
256,100,17069,1,2,0:0:0:0:
400,152,17219,5,0,0:0:0:0:
296,304,17369,1,2,0:0:0:0:
256,316,17444,1,0,0:0:0:0:
216,304,17519,1,0,0:0:0:0:
112,152,17669,1,2,0:0:0:0:
48,64,17819,6,0,B|88:48|88:48|148:48,1,88,4|2,2:0|0:0,0:0:0:0:
132,48,18044,1,0,0:0:0:0:
132,48,18119,1,0,0:0:0:0:
400,152,18269,1,2,0:0:0:0:
379,48,18419,2,0,B|424:48|424:48|464:64,1,88,4|2,2:0|0:0,0:0:0:0:
464,64,18644,1,0,0:0:0:0:
464,64,18719,2,0,L|464:116,3,44,0|0|2|0,0:0|0:0|0:0|0:0,0:0:0:0:
436,188,19019,5,4,0:2:0:0:
468,252,19119,1,0,0:0:0:0:
400,248,19219,1,0,0:0:0:0:
434,194,19319,5,4,0:2:0:0:
456,272,19419,1,0,0:0:0:0:
382,253,19519,1,0,0:0:0:0:
424,203,19619,5,4,0:2:0:0:
440,288,19719,1,0,0:0:0:0:
362,260,19819,1,0,0:0:0:0:
260,264,19919,5,4,2:0:0:0:
176,216,20019,2,0,B|168:194|146:184|146:184|152:156|172:144,1,88
70,190,20219,6,0,P|86:125|133:73,1,132,2|0,0:0|0:0,0:0:0:0:
222,19,20519,6,0,B|220:44|220:44|224:72,1,52.7999983886719,2|0,0:0|0:0,0:0:0:0:
401,140,20669,2,0,B|404:116|404:116|400:88,1,52.7999983886719
380,0,20819,5,2,0:0:0:0:
240,168,20969,1,0,0:0:0:0:
474,259,21119,6,0,B|484:230|484:230|474:220|474:220|484:192,3,74.8000014266968,2|0|0|0,0:0|0:0|0:0|0:0,0:0:0:0:
500,72,21419,6,0,L|476:160,1,88,2|0,0:0|0:0,0:0:0:0:
436,336,21644,1,0,0:0:0:0:
416,328,21719,6,0,P|396:304|396:264,1,44,2|0,0:0|0:0,0:0:0:0:
312,236,21869,2,0,P|292:260|288:304,1,44
224,332,22019,2,0,P|184:336|132:308,1,88,2|0,0:0|0:0,0:0:0:0:
32,228,22319,5,2,0:0:0:0:
77,210,22394,1,0,0:0:0:0:
32,188,22469,1,0,0:0:0:0:
77,170,22544,1,0,0:0:0:0:
32,148,22619,6,0,B|60:128|60:128|60:48,1,88,2|0,0:0|0:0,0:0:0:0:
60,52,22844,1,0,0:0:0:0:
60,28,22919,6,0,P|87:29|112:44,1,52.7999983886719,2|0,0:0|0:0,0:0:0:0:
208,176,23069,2,0,P|206:203|192:228,1,52.7999983886719
232,72,23219,6,0,B|280:60|280:60|348:88,1,105.599996777344,2|0,0:0|0:0,0:0:0:0:
464,292,23519,1,2,0:0:0:0:
460,300,23594,1,0,0:0:0:0:
456,308,23669,1,0,0:0:0:0:
452,316,23744,1,0,0:0:0:0:
380,344,23819,6,0,P|356:288|368:240,1,105.599996777344,2|0,0:0|0:0,0:0:0:0:
384,220,24044,1,0,0:0:0:0:
380,344,24119,6,0,B|296:368|320:332|240:352,1,132.000005035401,2|0,0:0|0:0,0:0:0:0:
60,360,24419,1,2,0:0:0:0:
60,360,24569,2,0,P|40:324|80:328,1,66.0000025177003,0|0,0:0|0:0,0:0:0:0:
201,247,24719,6,2,B|209:215|209:215|201:187|201:187|229:155|209:107,1,132,2|0,0:0|0:0,0:0:0:0:
16,136,25019,6,0,L|148:144,1,132,2|0,0:0|0:0,0:0:0:0:
156,76,25319,6,0,B|148:48|148:48|152:20,1,52.7999983886719,2|0,0:0|0:0,0:0:0:0:
324,124,25469,2,0,B|332:152|332:152|328:180,1,52.7999983886719
288,44,25619,5,2,0:0:0:0:
500,56,25769,1,0,0:0:0:0:
380,212,25919,6,0,B|396:212|388:228|388:228|372:256|372:256|368:268|396:272,3,74.8000014266968,2|0|0|0,0:0|0:0|0:0|0:0,0:0:0:0:
496,268,26219,6,0,L|408:284,1,88,2|0,0:0|0:0,0:0:0:0:
389,352,26444,2,0,P|393:363|400:372,1,22
316,332,26519,5,2,0:0:0:0:
240,344,26594,1,0,0:0:0:0:
164,356,26669,1,0,0:0:0:0:
24,296,26819,5,2,0:0:0:0:
208,224,26969,1,0,0:0:0:0:
60,164,27119,1,2,0:0:0:0:
28,127,27194,1,0,0:0:0:0:
68,124,27269,1,0,0:0:0:0:
40,87,27344,1,0,0:0:0:0:
80,84,27419,6,0,B|124:80|124:80|168:104,1,88,2|0,0:0|0:0,0:0:0:0:
184,120,27644,1,0,0:0:0:0:
208,136,27719,6,0,P|236:140|260:132,1,52.7999983886719,2|0,0:0|0:0,0:0:0:0:
392,60,27869,2,0,P|416:40|424:16,1,52.7999983886719
364,156,28019,6,0,L|368:244,1,66.0000025177003,2|0,0:0|0:0,0:0:0:0:
440,252,28169,2,0,L|444:184,1,66.0000025177003
308,284,28319,5,2,0:0:0:0:
312,292,28394,1,0,0:0:0:0:
316,300,28469,1,0,0:0:0:0:
320,308,28544,1,0,0:0:0:0:
400,336,28619,6,0,L|248:344,1,132.000005035401,2|0,0:0|0:0,0:0:0:0:
60,340,28919,2,0,L|212:332,1,132.000005035401,2|0,0:0|0:0,0:0:0:0:
232,260,29219,6,0,P|192:216|160:272,1,132,2|0,0:0|0:0,0:0:0:0:
292,196,29519,6,0,L|300:136,1,44,2|0,0:0|0:0,0:0:0:0:
312,44,29669,2,0,L|320:-16,1,44
496,112,29819,6,0,P|424:128|360:104,1,132,4|0,0:2|0:0,0:0:0:0:
312,44,30119,6,0,B|280:48|280:48|256:40,1,52.7999983886719,2|0,0:0|0:0,0:0:0:0:
292,196,30269,2,0,B|260:200|260:200|236:192,1,52.7999983886719
108,176,30419,1,2,0:0:0:0:
8,32,30569,1,0,0:0:0:0:
184,20,30719,6,0,B|168:24|168:24|171:48|156:68|156:68|183:89,3,74.8000014266968,2|0|0|0,0:0|0:0|0:0|0:0,0:0:0:0:
56,104,31019,6,0,P|24:140|32:192,1,88,2|0,0:0|0:0,0:0:0:0:
32,196,31219,2,0,L|28:236,1,29.3333333333333
52,292,31319,5,2,0:0:0:0:
128,304,31394,1,0,0:0:0:0:
204,316,31469,1,0,0:0:0:0:
348,360,31619,1,2,0:0:0:0:
292,196,31769,1,0,0:0:0:0:
244,32,31919,5,2,0:0:0:0:
274,69,31994,1,0,0:0:0:0:
300,28,32069,1,0,0:0:0:0:
330,65,32144,1,0,0:0:0:0:
356,24,32219,6,0,B|421:20|421:20|404:40,1,88,2|0,0:0|0:0,0:0:0:0:
480,68,32444,1,0,0:0:0:0:
460,88,32519,6,0,P|448:120|452:164,1,52.7999983886719,2|0,0:0|0:0,0:0:0:0:
368,232,32669,2,0,P|380:264|376:300,1,52.7999983886719
204,316,32819,6,0,B|160:332|160:332|116:324,1,66.0000025177003,2|0,0:0|0:0,0:0:0:0:
65,360,32969,2,0,B|49:316|49:316|56:272,1,66.0000025177003
40,220,33119,5,2,0:0:0:0:
36,216,33194,1,0,0:0:0:0:
32,212,33269,1,0,0:0:0:0:
28,208,33344,1,0,0:0:0:0:
0,136,33419,6,0,L|148:128,1,132.000005035401,2|0,0:0|0:0,0:0:0:0:
204,88,33644,1,0,0:0:0:0:
264,144,33719,6,0,L|280:224,1,66.0000025177003,2|0,0:0|0:0,0:0:0:0:
356,296,33869,2,0,L|372:216,1,66.0000025177003
512,100,34019,6,0,B|528:80|528:80|484:92,1,66.0000025177003,2|0,0:0|0:0,0:0:0:0:
336,92,34169,2,0,B|320:112|320:112|364:100,1,66.0000025177003
420,188,34319,2,0,B|440:204|440:204|428:160,1,66.0000025177003,2|0,0:0|0:0,0:0:0:0:
428,12,34469,2,0,B|408:-4|408:-4|420:40,1,66.0000025177003
276,24,34619,6,0,P|216:16|128:32,1,132,2|0,0:0|0:0,0:0:0:0:
88,76,34919,6,0,B|64:87|64:87|12:80,1,52.7999983886719,2|0,0:0|0:0,0:0:0:0:
224,204,35069,2,0,B|247:215|247:215|300:208,1,52.7999983886719
152,256,35219,5,2,0:0:0:0:
176,104,35369,1,0,0:0:0:0:
16,208,35519,6,0,B|16:224|32:244|32:244|24:244|24:244|40:260|40:276,3,74.8000014266968,2|0|0|0,0:0|0:0|0:0|0:0,0:0:0:0:
48,356,35819,6,0,P|76:360|104:356,1,44,2|0,0:0|0:0,0:0:0:0:
236,288,35969,2,0,P|257:286|279:291,1,44
412,276,36119,2,0,L|416:372,1,88,2|0,0:0|0:0,0:0:0:0:
500,368,36419,5,2,0:0:0:0:
488,176,36569,1,0,0:0:0:0:
340,64,36719,1,2,0:0:0:0:
307,100,36794,1,0,0:0:0:0:
284,56,36869,1,0,0:0:0:0:
251,92,36944,1,0,0:0:0:0:
228,48,37019,6,0,B|164:40|164:40|176:72,1,88,2|0,0:0|0:0,0:0:0:0:
88,76,37244,1,0,0:0:0:0:
72,104,37319,6,0,P|64:144|72:168,1,52.7999983886719,2|0,0:0|0:0,0:0:0:0:
96,280,37469,2,0,P|120:324|152:340,1,52.7999983886719
144,204,37619,6,0,B|196:188|196:188|240:196,1,70.3999978515626,2|0,0:0|0:0,0:0:0:0:
272,244,37769,2,0,B|287:241|287:241|339:257,1,70.3999978515626
384,320,37919,5,2,0:0:0:0:
388,324,37994,1,0,0:0:0:0:
392,328,38069,1,0,0:0:0:0:
396,332,38144,1,0,0:0:0:0:
440,269,38219,6,0,B|476:324|476:324|496:260,1,132.000005035401,2|0,0:0|0:0,0:0:0:0:
460,148,38444,1,0,0:0:0:0:
480,160,38519,2,0,B|424:176|424:176|344:156,1,132.000005035401,2|0,0:0|0:0,0:0:0:0:
260,80,38819,5,2,0:0:0:0:
188,116,38894,1,0,0:0:0:0:
108,116,38969,1,0,0:0:0:0:
36,80,39044,1,0,0:0:0:0:
4,152,39119,2,0,P|1:216|24:288,1,132.000005035401,2|2,0:0|0:0,0:0:0:0:
508,344,39419,5,4,0:0:0:0:
436,344,39719,1,0,0:0:0:0:
364,344,40019,1,0,0:0:0:0:
292,344,40319,1,0,0:0:0:0:
220,344,40619,1,0,0:0:0:0:
188,112,40769,1,8,0:2:0:0:
148,344,40919,1,0,0:0:0:0:
76,344,41219,1,0,0:0:0:0:
4,344,41519,1,0,0:0:0:0:
4,40,41819,5,2,0:0:0:0:
44,112,41969,1,2,0:0:0:0:
76,40,42119,1,2,0:0:0:0:
96,76,42194,1,2,0:0:0:0:
116,112,42269,1,2,0:0:0:0:
148,40,42419,1,2,0:0:0:0:
188,112,42569,1,2,0:0:0:0:
220,40,42719,1,2,0:0:0:0:
260,112,42869,1,2,0:0:0:0:
292,40,43019,1,2,0:0:0:0:
332,112,43169,1,2,0:0:0:0:
348,76,43244,1,2,0:0:0:0:
364,40,43319,1,2,0:0:0:0:
404,112,43469,1,2,0:0:0:0:
420,76,43544,1,2,0:0:0:0:
436,40,43619,1,2,0:0:0:0:
476,112,43769,1,2,0:0:0:0:
492,76,43844,1,2,0:0:0:0:
508,40,43919,5,2,0:0:0:0:
436,40,43994,1,2,0:0:0:0:
364,40,44069,1,2,0:0:0:0:
292,40,44144,1,2,0:0:0:0:
220,40,44219,6,0,L|84:40,1,132,4|0,0:0|0:0,0:0:0:0:
36,88,44519,6,0,P|16:136|36:188,1,88.0000033569337,2|0,0:0|0:0,0:0:0:0:
92,204,44669,2,0,L|184:196,1,88.0000033569337
188,356,44819,6,0,P|168:308|188:256,1,88.0000033569337,2|0,0:0|0:0,0:0:0:0:
244,240,44969,2,0,L|336:248,1,88.0000033569337
396,288,45119,6,0,P|407:318|396:360,1,66.0000025177003,2|0,0:0|0:0,0:0:0:0:
400,212,45269,2,0,P|388:181|400:140,1,66.0000025177003
464,256,45419,5,2,0:0:0:0:
464,256,45719,2,0,L|516:248,1,44,2|0,0:0|0:0,0:0:0:0:
444,368,45869,2,0,L|496:376,1,44
464,256,46019,6,0,L|516:264,1,44,2|0,0:0|0:0,0:0:0:0:
444,144,46169,2,0,L|496:136,1,44
464,256,46319,6,0,B|400:268|400:268|328:256,1,132,2|0,0:0|0:0,0:0:0:0:
280,364,46619,6,0,L|144:364,1,132,2|0,0:0|0:0,0:0:0:0:
76,344,46919,6,0,P|44:304|48:256,1,88.0000033569337,2|0,0:0|0:0,0:0:0:0:
100,220,47069,2,0,L|204:208,1,88.0000033569337
248,260,47219,6,0,P|288:228|344:236,1,88.0000033569337,2|0,0:0|0:0,0:0:0:0:
388,160,47369,2,0,L|396:252,1,88.0000033569337
512,172,47519,6,0,L|507:90,1,66.0000025177003,2|0,0:0|0:0,0:0:0:0:
380,20,47669,2,0,L|385:102,1,66.0000025177003,0|0,0:0|0:0,0:0:0:0:
248,108,47819,5,2,0:0:0:0:
248,108,48119,2,0,L|240:160,1,44,2|0,0:0|0:0,0:0:0:0:
120,88,48269,2,0,L|112:140,1,44
248,108,48419,6,0,L|241:64,1,44,2|0,0:0|0:0,0:0:0:0:
375,88,48569,2,0,L|368:44,1,44
248,108,48719,6,0,B|260:176|260:176|248:248,1,132,2|0,0:0|0:0,0:0:0:0:
336,336,49019,6,0,L|468:336,1,132,2|0,0:0|0:0,0:0:0:0:
504,264,49319,6,0,P|440:240|388:252,1,88.0000033569337,2|0,0:0|0:0,0:0:0:0:
360,172,49469,2,0,L|336:260,1,88.0000033569337
260,240,49619,6,0,P|196:264|144:252,1,88.0000033569337,2|0,0:0|0:0,0:0:0:0:
116,332,49769,2,0,L|92:244,1,88.0000033569337
48,152,49919,6,0,P|108:144|152:208,1,132.000005035401,2|0,0:0|0:0,0:0:0:0:
116,332,50219,5,2,0:0:0:0:
116,332,50519,2,0,L|104:374,1,44.0000016784669,2|0,0:0|0:0,0:0:0:0:
12,304,50669,2,0,L|0:261,1,44
116,332,50819,6,0,L|127:374,1,44.0000016784669,2|0,0:0|0:0,0:0:0:0:
231,261,50969,2,0,L|220:304,1,44
116,332,51119,6,0,B|104:264|104:264|116:184,1,132,2|0,0:0|0:0,0:0:0:0:
48,80,51419,6,0,L|200:80,1,132,2|0,0:0|0:0,0:0:0:0:
244,40,51719,6,0,P|288:48|320:92,1,88.0000033569337,2|0,0:0|0:0,0:0:0:0:
392,56,51869,2,0,L|380:152,1,88.0000033569337
448,208,52019,6,0,P|404:236|364:232,1,88.0000033569337,2|0,0:0|0:0,0:0:0:0:
311,289,52169,2,0,P|267:261|227:265,1,88.0000033569337
156,224,52319,6,0,L|4:232,1,149.600002853394,2|0,0:0|0:0,0:0:0:0:
484,316,53819,6,0,L|376:308,1,88,2|0,0:0|0:0,0:0:0:0:
376,308,54044,1,0,0:0:0:0:
304,300,54119,6,0,L|312:360,1,44
164,315,54269,2,0,L|172:375,1,44
24,328,54419,2,0,B|28:352|28:352|56:300|20:236,1,132,8|0,0:0|0:0,0:0:0:0:
4,172,54719,6,0,L|96:176,1,70.3999978515626
160,192,54869,2,0,L|89:188,1,70.3999978515626
76,108,55019,6,0,P|56:64|64:24,1,88
236,16,55319,6,0,L|244:88,1,66
312,112,55619,2,0,B|344:108|344:108|384:120,1,66,8|0,0:0|0:0,0:0:0:0:
404,216,55919,5,0,0:0:0:0:
480,192,56019,1,0,0:0:0:0:
463,266,56119,1,0,0:0:0:0:
424,340,56219,5,0,0:0:0:0:
348,332,56319,1,0,0:0:0:0:
272,324,56419,1,0,0:0:0:0:
208,364,56519,5,0,0:0:0:0:
196,352,56619,1,0,0:0:0:0:
184,340,56719,1,0,0:0:0:0:
104,328,56819,5,8,0:0:0:0:
100,252,56919,1,0,0:0:0:0:
96,176,57019,1,0,0:0:0:0:
20,140,57119,5,0,0:0:0:0:
24,216,57219,1,0,0:0:0:0:
28,292,57319,1,0,0:0:0:0:
100,252,57419,6,0,L|112:108,1,132
32,64,57719,2,0,B|24:32|24:32|32:16,1,44
208,40,57869,2,0,B|212:48|212:48|196:80,1,44
115,125,58019,6,0,L|105:257,1,132,8|0,0:0|0:0,0:0:0:0:
32,64,58319,6,0,B|60:40|88:40|88:40|120:48,1,88.0000033569337,0|0,0:0|0:0,0:0:0:0:
208,40,58469,2,0,B|236:64|264:64|264:64|296:56,1,88.0000033569337,8|0,0:0|0:0,0:0:0:0:
356,116,58619,6,0,B|352:96|352:96|368:40,1,58.6666666666667
442,96,58769,2,0,B|452:120|452:120|448:160,1,58.6666666666667
508,184,58919,6,0,P|504:228|464:224,1,88
364,296,59069,2,0,P|368:252|408:256,1,88
456,320,59219,6,0,L|344:316,1,88,8|0,0:0|0:0,0:0:0:0:
332,252,59444,2,0,L|336:228,1,22
264,292,59519,5,0,0:0:0:0:
260,320,59594,1,0,0:0:0:0:
256,344,59669,2,0,L|240:284,1,44
184,368,59819,6,0,L|164:268,1,88
44,148,60119,1,0,0:0:0:0:
86,170,60194,1,0,0:0:0:0:
40,188,60269,1,0,0:0:0:0:
82,210,60344,1,0,0:0:0:0:
36,228,60419,6,0,L|28:340,1,88,8|0,0:0|0:0,0:0:0:0:
80,368,60644,2,0,L|109:373,1,22
128,312,60719,6,0,P|136:280|164:252,1,66.0000025177003
324,212,60869,2,0,P|360:220|388:240,1,66.0000025177003
496,292,61019,6,0,B|504:344|504:344|472:368,1,88.0000033569337
364,310,61169,2,0,B|356:258|356:258|388:234,1,88.0000033569337
328,136,61319,6,0,L|232:132,1,88.0000033569337
208,104,61469,2,0,L|304:100,1,88.0000033569337
408,152,61619,6,0,L|320:148,1,88.0000033569337,8|0,0:0|0:0,0:0:0:0:
128,96,61769,2,0,L|224:92,1,88.0000033569337
492,144,61919,6,0,L|404:140,1,88.0000033569337
48,112,62069,2,0,L|144:108,1,88.0000033569337
200,216,62219,6,0,P|212:284|108:284,1,198.000007553101
64,232,62519,6,0,B|92:216|92:216|136:220,1,66.0000025177003
276,196,62669,2,0,B|292:224|292:224|288:268,1,66.0000025177003
356,328,62819,6,2,B|352:348|352:348|396:308|456:320|476:360,1,154,8|0,0:0|0:0,0:0:0:0:
440,260,63419,6,0,L|432:160,1,88,2|0,0:0|0:0,0:0:0:0:
368,16,63719,6,0,P|360:52|368:80,1,66.0000025177003,2|0,0:0|0:0,0:0:0:0:
512,140,63869,2,0,P|519:171|511:203,1,66.0000025177003
364,240,64019,2,0,P|308:252|248:188,1,132.000005035401,2|0,0:0|0:0,0:0:0:0:
253,207,64244,1,0,0:0:0:0:
253,207,64319,6,0,B|264:148|264:148|252:120,1,88.0000033569337,2|0,0:0|0:0,0:0:0:0:
184,160,64469,2,0,B|158:149|158:149|99:159,1,88.0000033569337
20,132,64619,6,0,P|0:68|32:4,1,132.000005035401,2|0,0:0|0:0,0:0:0:0:
108,52,64919,6,0,L|180:44,1,66,2|0,0:0|0:0,0:0:0:0:
240,88,65219,2,0,B|272:76|272:76|304:96,1,66,2|0,0:0|0:0,0:0:0:0:
356,148,65519,6,0,L|412:156,1,44,2|0,0:0|0:0,0:0:0:0:
512,200,65669,2,0,L|456:208,1,44
416,288,65819,5,2,0:0:0:0:
364,344,65919,1,0,0:0:0:0:
336,272,66019,1,0,0:0:0:0:
264,224,66119,5,2,0:0:0:0:
188,224,66219,1,0,0:0:0:0:
112,224,66319,1,0,0:0:0:0:
68,152,66419,5,2,0:0:0:0:
144,152,66519,1,0,0:0:0:0:
220,152,66619,1,0,0:0:0:0:
294,103,66719,5,2,0:0:0:0:
330,34,66819,1,0,0:0:0:0:
376,96,66919,1,0,0:0:0:0:
459,119,67019,6,0,L|428:248,1,132,2|0,0:0|0:0,0:0:0:0:
336,272,67319,2,0,L|348:224,1,44,2|0,0:0|0:0,0:0:0:0:
480,320,67469,2,0,L|492:368,1,44
432,252,67619,6,0,L|464:120,1,132,2|0,0:0|0:0,0:0:0:0:
368,84,67919,6,0,B|360:108|360:108|336:132|300:124,1,88.0000033569337,2|0,0:0|0:0,0:0:0:0:
232,152,68069,2,0,B|200:144|200:144|184:120|196:80,1,88.0000033569337
112,44,68219,6,0,B|72:28|72:28|8:68,1,88.0000033569337,2|0,0:0|0:0,0:0:0:0:
44,180,68369,2,0,B|84:196|84:196|148:156,1,88.0000033569337
176,272,68519,6,0,L|272:280,1,88.0000033569337,2|0,0:0|0:0,0:0:0:0:
336,248,68669,2,0,L|240:256,1,88.0000033569337
80,296,68819,6,0,L|176:288,1,88.0000033569337,2|0,0:0|0:0,0:0:0:0:
420,272,68969,2,0,L|324:264,1,88.0000033569337
0,268,69119,6,0,L|96:276,1,88.0000033569337,2|0,0:0|0:0,0:0:0:0:
512,248,69269,2,0,L|416:256,1,88.0000033569337
320,148,69419,6,0,P|292:76|352:12,1,132.000005035401,2|0,0:0|0:0,0:0:0:0:
440,88,69719,1,2,0:0:0:0:
484,110,69794,1,0,0:0:0:0:
436,128,69869,1,0,0:0:0:0:
480,150,69944,1,0,0:0:0:0:
432,172,70019,6,0,B|436:220|416:236|416:236|388:240|356:204,1,132.000005035401,2|0,0:0|0:0,0:0:0:0:
320,148,70244,1,0,0:0:0:0:
240,140,70319,6,0,B|192:136|176:156|176:156|172:184|208:216,1,132.000005035401,2|0,0:0|0:0,0:0:0:0:
264,260,70544,1,0,0:0:0:0:
340,288,70619,6,0,L|440:284,1,88,2|0,0:0|0:0,0:0:0:0:
184,312,70919,2,0,P|176:284|152:276,1,44,2|0,0:0|0:0,0:0:0:0:
116,336,71069,2,0,P|92:344|80:364,1,44
172,384,71219,6,0,L|240:376,1,58.6666666666667,2|0,0:0|0:0,0:0:0:0:
184,208,71419,2,0,L|252:200,1,58.6666666666667,0|2,0:0|0:0,0:0:0:0:
196,32,71619,2,0,L|264:24,1,58.6666666666667
336,56,71819,6,0,L|436:60,1,88,2|0,0:0|0:0,0:0:0:0:
308,200,72119,6,0,P|272:208|240:200,1,66,2|0,0:0|0:0,0:0:0:0:
72,96,72419,6,0,L|172:100,1,88,2|0,0:0|0:0,0:0:0:0:
336,56,72719,2,0,L|436:60,1,88,2|0,0:0|0:0,0:0:0:0:
308,200,73019,6,0,P|272:208|240:200,1,66,2|0,0:0|0:0,0:0:0:0:
180,232,73319,6,0,P|144:224|92:240,1,88,2|0,0:0|0:0,0:0:0:0:
28,344,73619,1,2,0:0:0:0:
104,360,73769,2,0,L|206:353,1,88,0|2,0:0|0:0,0:0:0:0:
412,328,74069,1,0,0:0:0:0:
336,356,74219,2,0,P|344:288|448:260,1,176,2|2,0:0|0:0,0:0:0:0:
476,380,74669,1,0,0:0:0:0:
336,356,74819,6,0,L|328:216,2,132,2|0|0,0:0|0:0|0:0,0:0:0:0:
260,260,75419,6,0,P|256:188|304:152,1,132
376,164,75719,6,0,L|384:116,1,44
484,60,75869,2,0,L|491:103,1,44
304,146,76019,6,0,L|236:138,1,52.7999983886719,8|0,0:0|0:0,0:0:0:0:
144,88,76169,2,0,L|76:96,1,52.7999983886719,0|0,0:0|0:0,0:0:0:0:
24,180,76319,2,0,B|8:232|28:264|28:264|16:300|16:300|32:336,1,158.399995166016
96,356,76619,6,0,L|208:356,1,105.599996777344
252,268,76844,2,0,L|264:320,1,52.7999983886719
324,384,76994,2,0,L|336:332,1,52.7999983886719
96,350,77219,6,0,L|201:350,1,105.599996777344,8|0,0:0|0:0,0:0:0:0:
253,268,77519,6,0,L|55:268,1,198.000007553101
24,180,77819,6,0,P|72:152|152:168,1,132
252,116,78119,1,0,0:0:0:0:
280,192,78219,1,0,0:0:0:0:
336,136,78319,1,0,0:0:0:0:
388,76,78419,2,0,L|384:12,1,44,8|0,0:0|0:0,0:0:0:0:
408,268,78719,6,0,P|404:316|408:336,1,58.6666666666667
472,368,78869,2,0,P|476:320|472:300,1,58.6666666666667
332,304,79019,6,0,P|288:312|244:308,1,88
245,308,79244,1,0,0:0:0:0:
245,308,79319,2,0,L|252:376,1,52.7999983886719
168,332,79469,2,0,L|163:268,1,52.7999983886719
96,356,79619,5,8,0:0:0:0:
36,220,79769,5,0,0:0:0:0:
74,187,79844,1,0,0:0:0:0:
28,200,79919,1,0,0:0:0:0:
66,167,79994,1,0,0:0:0:0:
20,176,80069,1,0,0:0:0:0:
24,56,80219,6,0,B|84:20|84:20|160:28,1,132
184,92,80519,6,0,L|176:136,1,29.3333333333333
200,88,80669,2,0,L|192:132,1,29.3333333333333
272,64,80819,6,0,L|364:60,1,88
508,120,81119,2,0,L|416:116,1,88
336,164,81419,6,0,L|288:168,1,29.3333333333333
324,180,81569,2,0,L|280:184,1,29.3333333333333
376,248,81719,2,0,L|328:252,1,29.3333333333333
364,264,81869,2,0,L|316:268,1,29.3333333333333
244,340,82019,2,0,L|240:296,1,29.3333333333333
228,328,82169,2,0,L|224:284,1,29.3333333333333
160,380,82319,2,0,L|156:336,1,29.3333333333333
144,368,82469,2,0,L|140:324,1,29.3333333333333
48,348,82619,6,0,P|24:252|32:240,1,88
28,100,82919,6,0,B|24:136|24:136|40:160,1,52.7999983886719
196,64,83069,2,0,B|200:28|200:28|184:4,1,52.7999983886719
124,140,83219,1,8,0:0:0:0:
152,284,83369,1,0,0:0:0:0:
256,192,83519,2,0,B|308:184|308:184|356:208,1,105.599996777344
510,179,83819,6,0,P|511:153|504:128,1,52.7999983886719
397,264,83969,2,0,P|396:290|404:316,1,52.7999983886719
404,144,84119,6,0,B|384:100|384:100|396:32,1,99.0000037765504
324,28,84419,2,0,B|312:88|312:88|248:88,1,99.0000037765504,8|0,0:0|0:0,0:0:0:0:
188,72,84719,5,0,0:0:0:0:
160,140,84794,1,0,0:0:0:0:
192,204,84869,1,0,0:0:0:0:
164,272,84944,1,0,0:0:0:0:
196,336,85019,2,0,B|144:352|112:320|112:320|112:368|152:372,1,158.399995166016
276,336,85319,5,0,0:0:0:0:
312,332,85394,1,0,0:0:0:0:
388,356,85469,5,0,0:0:0:0:
424,352,85544,1,0,0:0:0:0:
488,312,85619,6,0,B|512:308|512:308|448:248|492:180,1,158.399995166016,8|0,0:0|0:0,0:0:0:0:
356,92,85919,6,0,P|344:120|344:152,1,52.7999983886719
352,216,86069,2,0,P|360:244|380:264,1,52.7999983886719
428,32,86219,5,0,0:0:0:0:
216,44,86369,1,0,0:0:0:0:
196,160,86519,6,0,B|224:176|224:176|252:152,1,66
216,44,86819,5,0,0:0:0:0:
5,54,86969,1,0,0:0:0:0:
216,44,87119,5,0,0:0:0:0:
5,54,87269,1,0,0:0:0:0:
56,208,87419,6,0,P|40:276|56:340,1,132
72,348,87719,2,0,L|160:348,1,88
332,296,88019,1,8,0:0:0:0:
256,268,88169,2,0,L|168:240,1,88
172,241,88469,1,0,0:0:0:0:
256,348,88619,6,0,B|340:376|340:376|428:376,1,176
484,264,89069,1,0,0:0:0:0:
476,244,89144,1,0,0:0:0:0:
468,224,89219,2,0,L|336:224,2,132,8|0|0,0:0|0:0|0:0,0:0:0:0:
256,220,89819,6,0,P|240:280|256:352,1,132
272,360,90119,2,0,L|364:360,1,88
256,220,90419,1,8,0:0:0:0:
168,248,90569,2,0,L|76:276,1,88
83,273,90869,1,0,0:0:0:0:
20,216,91019,6,0,P|0:128|24:32,1,176
172,80,91469,1,0,0:0:0:0:
198,167,91619,2,0,L|166:255,1,88,8|0,0:0|0:0,0:0:0:0:
100,136,91919,1,0,0:0:0:0:
92,116,91994,1,0,0:0:0:0:
84,96,92069,1,0,0:0:0:0:
264,60,92219,6,0,L|304:192,1,132
312,208,92519,2,0,P|360:224|396:216,1,88
472,184,92819,1,8,0:0:0:0:
488,104,92969,2,0,L|504:16,1,88
503,17,93269,1,0,0:0:0:0:
304,64,93419,6,0,B|333:129|333:129|317:193,1,132
313,209,93719,1,0,0:0:0:0:
284,320,93869,1,0,0:0:0:0:
300,336,93944,1,0,0:0:0:0:
316,352,94019,5,8,0:0:0:0:
216,328,94169,1,0,0:0:0:0:
124,372,94319,1,0,0:0:0:0:
24,348,94469,1,0,0:0:0:0:
96,280,94619,6,0,P|112:220|100:128,1,132
92,136,94919,2,0,L|0:136,1,88
140,52,95219,1,8,0:0:0:0:
220,76,95369,2,0,L|316:76,1,88
448,104,95669,1,0,0:0:0:0:
448,104,95819,6,0,P|460:172|444:240,1,132
428,244,96119,2,0,L|340:244,1,88
224,196,96419,1,0,0:0:0:0:
148,244,96569,2,0,L|168:344,1,88
60,232,96869,1,0,0:0:0:0:
52,212,96944,1,0,0:0:0:0:
44,192,97019,5,4,0:0:0:0:
136,156,97169,1,2,0:2:0:0:
184,72,97319,1,0,0:0:0:0:
92,36,97469,1,0,0:0:0:0:
136,156,97619,5,2,0:2:0:0:
328,192,97769,1,0,0:0:0:0:
480,64,97919,1,2,0:2:0:0:
288,28,98069,1,0,0:0:0:0:
288,28,98144,1,0,0:0:0:0:
288,28,98219,6,0,P|276:72|284:108,1,66.0000025177003,0|2,0:0|0:0,0:0:0:0:
328,192,98519,2,0,P|339:161|337:128,1,66.0000025177003
337,128,98819,2,0,P|328:192|344:260,1,132.000005035401,2|2,0:0|0:0,0:0:0:0:
342,257,99419,5,0,0:0:0:0:
460,304,99569,1,2,0:2:0:0:
352,368,99719,1,0,0:0:0:0:
234,322,99869,1,2,0:2:0:0:
232,208,100019,5,2,0:2:0:0:
0,272,100169,1,0,0:0:0:0:
224,368,100319,1,2,0:2:0:0:
460,304,100469,1,0,0:0:0:0:
460,304,100544,1,0,0:0:0:0:
460,304,100619,6,0,P|472:264|472:236,1,66.0000025177003,0|2,0:0|0:0,0:0:0:0:
424,96,100919,2,0,P|412:56|412:28,1,66.0000025177003,2|0,0:0|0:0,0:0:0:0:
411,32,101219,2,0,P|368:48|268:28,1,132.000005035401,2|2,0:0|0:0,0:0:0:0:
80,156,101819,5,4,0:2:0:0:
4,64,101969,1,2,0:0:0:0:
128,48,102119,1,2,0:2:0:0:
136,72,102194,1,0,0:0:0:0:
144,96,102269,1,0,0:0:0:0:
152,120,102344,1,0,0:0:0:0:
160,144,102419,6,0,L|232:136,1,66.0000025177003,2|0,0:0|0:0,0:0:0:0:
296,128,102644,2,0,L|368:120,1,66.0000025177003,2|0,0:0|0:0,0:0:0:0:
428,112,102869,1,2,0:0:0:0:
496,208,103019,5,0,0:0:0:0:
456,320,103169,1,2,0:0:0:0:
360,244,103319,1,2,0:2:0:0:
384,248,103394,1,0,0:0:0:0:
408,252,103469,1,2,0:0:0:0:
396,272,103544,1,0,0:0:0:0:
384,292,103619,6,0,L|304:288,1,66.0000025177003,2|0,0:0|0:0,0:0:0:0:
232,256,103844,1,2,0:0:0:0:
212,268,103919,2,0,L|132:272,1,66.0000025177003,0|2,0:0|0:0,0:0:0:0:
16,240,104219,5,2,0:0:0:0:
80,332,104369,1,0,0:0:0:0:
116,200,104519,1,2,0:0:0:0:
52,108,104669,1,2,0:0:0:0:
116,200,104819,6,0,P|156:204|192:184,1,66.0000025177003,0|2,0:0|0:0,0:0:0:0:
200,180,105044,1,0,0:0:0:0:
212,160,105119,1,0,0:0:0:0:
160,96,105269,1,2,0:0:0:0:
284,104,105419,5,2,0:0:0:0:
276,84,105494,1,0,0:0:0:0:
272,60,105569,1,0,0:0:0:0:
280,36,105644,1,0,0:0:0:0:
348,64,105719,5,2,0:0:0:0:
356,104,105794,1,0,0:0:0:0:
356,148,105869,1,0,0:0:0:0:
344,188,105944,1,0,0:0:0:0:
408,228,106019,5,2,0:0:0:0:
416,208,106094,1,0,0:0:0:0:
420,184,106169,1,0,0:0:0:0:
412,160,106244,1,2,0:0:0:0:
344,188,106319,5,0,0:0:0:0:
336,228,106394,1,0,0:0:0:0:
336,272,106469,1,2,0:0:0:0:
348,312,106544,1,0,0:0:0:0:
420,352,106619,6,0,L|512:348,1,88,4|2,0:0|0:0,0:0:0:0:
264,308,106919,2,0,L|244:256,1,44,0|0,0:0|0:0,0:0:0:0:
176,268,107069,2,2,L|204:356,1,88,2|2,0:0|0:0,0:0:0:0:
32,312,107369,1,0,0:0:0:0:
152,188,107519,1,2,0:0:0:0:
202,351,107669,1,0,0:0:0:0:
117,331,107819,6,0,L|32:312,1,88,0|2,0:0|0:0,0:0:0:0:
32,312,108044,1,0,0:0:0:0:
32,312,108119,1,0,0:0:0:0:
152,188,108269,1,2,0:0:0:0:
288,200,108419,2,0,L|168:272,1,132,2|2,0:0|0:0,0:0:0:0:
136,260,108719,2,0,L|44:240,1,88,0|2,0:0|0:0,0:0:0:0:
32,96,109019,6,0,L|124:76,1,88,0|2,0:0|0:0,0:0:0:0:
248,76,109319,2,0,L|268:128,1,44
336,116,109469,2,0,L|308:28,1,88,2|2,0:0|0:0,0:0:0:0:
480,72,109769,1,0,0:0:0:0:
360,196,109919,1,2,0:0:0:0:
309,32,110069,1,0,0:0:0:0:
394,52,110219,6,0,L|480:72,1,88,0|2,0:0|0:0,0:0:0:0:
480,72,110444,1,0,0:0:0:0:
480,72,110519,1,0,0:0:0:0:
360,196,110669,1,2,0:0:0:0:
236,208,110819,2,0,L|300:148,1,88,2|0,0:0|0:0,0:0:0:0:
376,124,111119,2,0,L|461:142,1,88,2|0,0:0|0:0,0:0:0:0:
508,308,111419,5,4,0:2:0:0:
436,356,111569,1,0,0:0:0:0:
432,324,111644,1,0,0:0:0:0:
428,292,111719,1,10,0:0:0:0:
424,260,111794,1,0,0:0:0:0:
396,276,111869,1,0,0:0:0:0:
368,292,111944,1,0,0:0:0:0:
340,308,112019,5,2,0:0:0:0:
268,356,112169,1,2,0:0:0:0:
264,324,112244,1,0,0:0:0:0:
260,292,112319,1,8,0:0:0:0:
256,260,112394,1,0,0:0:0:0:
228,276,112469,1,2,0:0:0:0:
200,292,112544,1,0,0:0:0:0:
172,308,112619,5,2,0:0:0:0:
100,356,112769,1,0,0:0:0:0:
96,324,112844,1,0,0:0:0:0:
92,292,112919,1,10,0:0:0:0:
88,260,112994,1,0,0:0:0:0:
60,276,113069,1,0,0:0:0:0:
32,292,113144,1,0,0:0:0:0:
4,308,113219,5,2,0:0:0:0:
172,308,113369,2,0,L|204:356,1,44
340,308,113519,1,10,0:0:0:0:
508,308,113669,1,0,0:0:0:0:
400,72,113819,5,4,0:0:0:0:
428,64,113894,1,0,0:0:0:0:
460,68,113969,1,0,0:0:0:0:
488,80,114044,1,0,0:0:0:0:
436,136,114119,5,2,0:0:0:0:
388,144,114194,1,0,0:0:0:0:
340,140,114269,1,0,0:0:0:0:
296,120,114344,1,0,0:0:0:0:
260,184,114419,5,2,0:0:0:0:
288,192,114494,1,0,0:0:0:0:
320,188,114569,1,0,0:0:0:0:
348,176,114644,1,0,0:0:0:0:
296,120,114719,5,2,0:0:0:0:
248,112,114794,1,0,0:0:0:0:
200,116,114869,1,0,0:0:0:0:
156,136,114944,1,0,0:0:0:0:
81,125,115019,5,6,0:0:0:0:
62,149,115094,1,0,0:0:0:0:
46,178,115169,1,8,0:0:0:0:
41,209,115244,1,0,0:0:0:0:
5,264,115319,5,6,0:0:0:0:
58,271,115394,1,0,0:0:0:0:
105,251,115469,1,8,0:0:0:0:
135,206,115544,1,0,0:0:0:0:
227,167,115619,5,6,0:0:0:0:
231,197,115694,1,0,0:0:0:0:
230,230,115769,1,8,0:0:0:0:
217,260,115844,1,0,0:0:0:0:
213,324,115919,5,6,0:0:0:0:
165,302,115994,1,8,0:0:0:0:
136,260,116069,1,8,0:0:0:0:
135,206,116144,1,8,0:0:0:0:
156,136,116219,5,4,0:0:0:0:
256,192,116294,12,0,118619,0:0:0:0:
