osu file format v9

[General]
AudioFilename: 09. the first the last.mp3
AudioLeadIn: 2018
PreviewTime: 61726
Countdown: 0
SampleSet: Soft
StackLeniency: 0.3
Mode: 0
LetterboxInBreaks: 0

[Editor]
DistanceSpacing: 1
BeatDivisor: 4
GridSize: 4

[Metadata]
Title:the first the last (Full Ver.)
Artist:U
Creator:mercury2004
Version:Harder
Source:Makai Tenshi Djibril Episode 4
Tags:biwako ikari_kyon Front Wing hentai eroge game visual novel opening galge

[Difficulty]
HPDrainRate:7
CircleSize:4
OverallDifficulty:8
ApproachRate:8
SliderMultiplier:1.7
SliderTickRate:1

[Events]
//Background and Video events
0,0,"bg.jpg"
//Break Periods
2,20931,25338
2,27788,31981
2,89502,93909
2,96359,100338
2,158073,162481
2,164717,169338
2,171788,176195
//Storyboard Layer 0 (Background)
//Storyboard Layer 1 (Fail)
//Storyboard Layer 2 (Pass)
//Storyboard Layer 3 (Foreground)
Sprite,Foreground,Centre,"SB\Effect\Effect 2.png",320,240 F,0,205814,205868,0,1 S,0,205868,,0.6288001 M,0,205868,244011,320,239 F,0,244011,244064,1,0
Sprite,Foreground,Centre,"SB\Lyrics\1.png",320,240 S,0,6582,,0.5839999 M,0,6582,16439,268,323,373,323 F,0,6689,7225,0,1 F,0,14725,15154,1,0
Sprite,Foreground,Centre,"SB\Lyrics\2.png",320,240 S,0,12582,,0.7184001 M,0,12582,19439,459,371,369,371 F,0,12689,13225,0,1 F,0,18261,18796,1,0.1808002
Sprite,Foreground,Centre,"SB\Lyrics\3.png",320,240 S,0,15154,,0.6928002 M,0,15154,22439,394,326,494,326 F,0,15261,15796,0,1 F,0,21689,22225,1,0
Sprite,Foreground,Centre,"SB\Lyrics\4 - 6 - 21 - 23 - 39 - 41 - 43 - 50 - 52 - 54.png",320,240 M,0,18582,22439,533,394,460,394 F,0,18689,19225,0,1 F,0,22011,22439,1,0
Sprite,Foreground,Centre,"SB\Lyrics\5 - 22.png",320,240 S,0,22332,,0.7568001 M,0,22332,29296,446,327,545,327 F,0,22439,22868,0,1 F,0,28868,29296,1,0
Sprite,Foreground,Centre,"SB\Lyrics\4 - 6 - 21 - 23 - 39 - 41 - 43 - 50 - 52 - 54.png",320,240 M,0,25439,31868,518,395,457,395 F,0,25546,26082,0,1 F,0,28868,29404,1,0
Sprite,Foreground,Centre,"SB\Lyrics\8.png",320,240 S,0,34011,,0.7376 M,0,34011,40868,502,377,423,377 F,0,34118,34654,0,1 F,0,40118,40654,1,0
Sprite,Foreground,Centre,"SB\Lyrics\7.png",320,240 S,0,29082,,0.7183999 M,0,29082,34011,435,325,499,325 F,0,29189,29618,0,1 F,0,32725,33154,1,0
Sprite,Foreground,Centre,"SB\Lyrics\9.png",320,240 S,0,37225,,0.7248001 M,0,37225,43654,400,327,455,327 F,0,37332,37761,0,1 F,0,43118,43546,1,0
Sprite,Foreground,Centre,"SB\Lyrics\10th.png",320,240 S,0,40868,,0.7440001 M,0,40868,47296,431,378,368,378 F,0,40975,41404,0,1 F,0,46761,47189,1,0
Sprite,Foreground,Centre,"SB\Lyrics\11.png",320,240 S,0,44296,,0.6992002 M,0,44296,50725,337,325,389,325 F,0,44404,44832,0,1 F,0,50189,50618,1,0
Sprite,Foreground,Centre,"SB\Lyrics\12.png",320,240 S,0,47296,,0.8016002 M,0,47296,54154,563,378,468,378 F,0,47404,47832,0,1 F,0,53618,54046,1,0
Sprite,Foreground,Centre,"SB\Lyrics\14.png",320,240 S,0,57582,,0.8079998 M,0,57582,61439,458,325,508,325 F,0,57689,58118,0,1 F,0,60904,61332,1,0
Sprite,Foreground,Centre,"SB\Lyrics\13.png",320,240 S,0,54154,,0.7824004 M,0,54154,61439,554,378,467,378 F,0,54261,54689,0,1 F,0,60904,61332,1,0
Sprite,Foreground,Centre,"SB\Lyrics\15.png",320,240 M,0,61439,,424,382 M,0,61439,70011,385,383,357,383 F,0,61546,,0 F,0,61546,61975,0,1 F,0,69475,69904,1,0 M,0,70011,,338,407
Sprite,Foreground,Centre,"SB\Lyrics\16 - 34 - 45.png",320,240 S,0,67439,,0.7504001 M,0,67439,73439,356,324,428,324 F,0,67546,67975,0,1 F,0,72904,73332,1,0
Sprite,Foreground,Centre,"SB\Lyrics\17.png",320,240 S,0,70439,,0.7504001 M,0,70439,75154,410,385,361,385 F,0,70546,70975,0,1 F,0,74618,75046,1,0
Sprite,Foreground,Centre,"SB\Lyrics\18.png",320,240 S,0,75154,,0.744 M,0,75154,84154,309,333,353,333 F,0,75261,75689,0,1 F,0,83618,84046,1,0
Sprite,Foreground,Centre,"SB\Lyrics\19.png",320,240 S,0,81154,,0.84 M,0,81154,87154,426,383,364,383 F,0,81261,81689,0,1 F,0,86618,87046,1,0
Sprite,Foreground,Centre,"SB\Lyrics\20th.png",320,240 S,0,83939,,0.6992002 M,0,83939,91011,419,332,505,332 F,0,84046,84475,0,1 F,0,90475,90904,1,0
Sprite,Foreground,Centre,"SB\Lyrics\4 - 6 - 21 - 23 - 39 - 41 - 43 - 50 - 52 - 54.png",320,240 M,0,87154,91011,484,391,446,391 F,0,87261,87689,0,1 F,0,90475,90904,1,0
Sprite,Foreground,Centre,"SB\Lyrics\5 - 22.png",320,240 S,0,91011,,0.8271999 M,0,91011,96154,490,336,540,336 F,0,91118,91546,0,1 F,0,95618,96046,1,0
Sprite,Foreground,Centre,"SB\Lyrics\4 - 6 - 21 - 23 - 39 - 41 - 43 - 50 - 52 - 54.png",320,240 M,0,94439,101296,496,392,442,392 F,0,94546,94975,0,1 F,0,100761,101189,1,0
Sprite,Foreground,Centre,"SB\Lyrics\24.png",320,240 S,0,97868,,0.8335999 M,0,97868,101296,495,333,526,333 F,0,97975,98404,0,1 F,0,100761,101189,1,0
Sprite,Foreground,Centre,"SB\Lyrics\25.png",320,240 S,0,102582,,0.7312001 M,0,102582,109439,397,375,346,375 F,0,102689,103118,0,1 F,0,108904,109332,1,0
Sprite,Foreground,Centre,"SB\Lyrics\26.png",320,240 S,0,106011,,0.7440003 M,0,106011,112868,327,327,385,327 F,0,106118,106546,0,1 F,0,112332,112761,1,0
Sprite,Foreground,Centre,"SB\Lyrics\27.png",320,240 S,0,109439,,0.7440001 M,0,109439,116082,433,382,361,382 F,0,109546,109975,0,1 F,0,115546,115975,1,0
Sprite,Foreground,Centre,"SB\Lyrics\28.png",320,240 S,0,112868,,0.7887999 M,0,112868,119296,382,327,429,327 F,0,112975,113404,0,1 F,0,118761,119189,1,0
Sprite,Foreground,Centre,"SB\Lyrics\29.png",320,240 S,0,115868,,0.7696001 M,0,115868,123154,552,382,446,382 F,0,115975,116404,0,1 F,0,122618,123046,1,0
Sprite,Foreground,Centre,"SB\Lyrics\30th.png",320,240 S,0,119296,,0.7503999 M,0,119296,126154,438,327,515,327 F,0,119404,119832,0,1 F,0,125618,126046,1,0
Sprite,Foreground,Centre,"SB\Lyrics\31.png",320,240 S,0,122725,,0.8080002 M,0,122725,130011,549,383,490,383 F,0,122832,123261,0,1 F,0,129475,129904,1,0
Sprite,Foreground,Centre,"SB\Lyrics\32.png",320,240 S,0,126154,,0.7824001 M,0,126154,130011,411,325,455,325 F,0,126261,126689,0,1 F,0,129475,129904,1,0
Sprite,Foreground,Centre,"SB\Lyrics\33.png",320,240 S,0,130439,,0.8335999 M,0,130439,139011,380,391,337,391 F,0,130546,130975,0,1 F,0,138475,138904,1,0
Sprite,Foreground,Centre,"SB\Lyrics\16 - 34 - 45.png",320,240 S,0,136011,,0.712 M,0,136011,143725,334,330,404,330 F,0,136118,136546,0,1 F,0,143189,143618,1,0
Sprite,Foreground,Centre,"SB\Lyrics\35.png",320,240 S,0,139011,,0.744 M,0,139011,143725,442,387,394,387 F,0,139118,139546,0,1 F,0,143189,143618,1,0
Sprite,Foreground,Centre,"SB\Lyrics\36.png",320,240 S,0,143725,,0.8016004 M,0,143725,152725,328,339,397,339 F,0,143832,144261,0.08159988,1 F,0,152189,152618,1,0
Sprite,Foreground,Centre,"SB\Lyrics\37.png",320,240 S,0,149725,,0.8272 M,0,149725,155725,426,385,376,385 F,0,149832,150261,0,1 F,0,155189,155618,1,0
Sprite,Foreground,Centre,"SB\Lyrics\38.png",320,240 S,0,152296,,0.7759999 M,0,152296,155725,426,331,469,331 F,0,152404,152832,0,1 F,0,155189,155618,1,0
Sprite,Foreground,Centre,"SB\Lyrics\4 - 6 - 21 - 23 - 39 - 41 - 43 - 50 - 52 - 54.png",320,240 M,0,155725,161296,485,395,441,395 F,0,155832,156261,0.2159999,1 F,0,160761,161189,1,0
Sprite,Foreground,Centre,"SB\Lyrics\40th.png",320,240 M,0,163011,167296,519,335,590,335 F,0,163118,163546,0,1 F,0,166761,167189,1,0
Sprite,Foreground,Centre,"SB\Lyrics\4 - 6 - 21 - 23 - 39 - 41 - 43 - 50 - 52 - 54.png",320,240 M,0,169868,175011,503,392,435,392 F,0,169975,170404,0,1 F,0,174475,174904,1,0
Sprite,Foreground,Centre,"SB\Lyrics\42.png",320,240 M,0,176725,181868,524,331,595,331 F,0,176832,177261,0,1 F,0,181332,181761,1,0
Sprite,Foreground,Centre,"SB\Lyrics\4 - 6 - 21 - 23 - 39 - 41 - 43 - 50 - 52 - 54.png",320,240 M,0,183154,187011,496,396,469,396 F,0,183261,183689,0,1 F,0,186475,186904,1,0
Sprite,Foreground,Centre,"SB\Lyrics\44.png",320,240 S,0,202011,,0.8079998 M,0,202011,211011,321,339,380,339 F,0,202118,202546,0,1 F,0,210475,210904,1,0
Sprite,Foreground,Centre,"SB\Lyrics\16 - 34 - 45.png",320,240 S,0,208011,,0.7888 M,0,208011,214011,445,387,373,387 F,0,208118,208546,0,1 F,0,213475,213904,1,0
Sprite,Foreground,Centre,"SB\Lyrics\46.png",320,240 S,0,211011,,0.7760001 M,0,211011,216154,338,336,378,336 F,0,211118,211546,0,1 F,0,215618,216046,1,0
Sprite,Foreground,Centre,"SB\Lyrics\47.png",320,240 S,0,215725,,0.8528 M,0,215725,224725,419,398,359,398 F,0,215832,216261,0,1 F,0,224189,224618,1,0
Sprite,Foreground,Centre,"SB\Lyrics\48.png",320,240 S,0,221725,,0.7887999 M,0,221725,229868,325,323,398,323 F,0,221832,222261,0,1 F,0,229332,229761,1,0
Sprite,Foreground,Centre,"SB\Lyrics\4 - 6 - 21 - 23 - 39 - 41 - 43 - 50 - 52 - 54.png",320,240 M,0,227725,231582,476,396,424,396 F,0,227832,228261,0,1 F,0,231046,231475,1,0
Sprite,Foreground,Centre,"SB\Lyrics\51.png",320,240 S,0,231582,,0.9295999 M,0,231582,235868,503,337,579,337 F,0,231689,232118,0,1 F,0,235332,235761,1,0
Sprite,Foreground,Centre,"SB\Lyrics\4 - 6 - 21 - 23 - 39 - 41 - 43 - 50 - 52 - 54.png",320,240 M,0,235011,238868,473,398,435,398 F,0,235118,235546,0,1 F,0,238332,238761,1,0
Sprite,Foreground,Centre,"SB\Lyrics\53.png",320,240 M,0,238439,242725,497,326,561,326 F,0,238546,238975,0,1 F,0,242189,242618,1,0
Sprite,Foreground,Centre,"SB\Lyrics\4 - 6 - 21 - 23 - 39 - 41 - 43 - 50 - 52 - 54.png",320,240 M,0,241868,,471,387 S,0,241868,244011,1,1.0832 F,0,241975,242404,0,1 F,0,244011,244064,1,0
Sprite,Foreground,Centre,"SB\Lyrics\49.png",320,240 S,0,224725,,0.8207999 M,0,224725,227725,495,383,453,383 F,0,224832,225261,0,1 F,0,227189,227618,1,0
Sprite,Foreground,Centre,"SB\Lyrics\extra.png",320,240 S,0,50725,,0.7952 M,0,50725,57582,325,325,392,325 F,0,50832,51261,0,1 F,0,57046,57475,1,0
Sprite,Foreground,Centre,"SB\Effect\flash.jpg",320,240 F,0,205654,205868,0,1 F,0,205868,206296,1,0 F,0,215939,,0 F,0,216046,216154,0.1783664,0.3583999 F,0,216154,216368,0.3583999,0 F,0,216368,231855,0 F,0,231855,231865,0 F,0,231865,231875,0 F,0,231875,231885,0 F,0,231885,231895,0 F,0,231895,231905,0 F,0,231905,231915,0 F,0,231915,231925,0 F,0,231925,231935,0 F,0,231935,231945,0 F,0,231945,231955,0 F,0,231955,231965,0 F,0,231965,231975,0 F,0,231975,231985,0 F,0,231985,231995,0 F,0,231995,232005,0 F,0,232005,232015,0 F,0,232015,232025,0 F,0,232025,232035,0 F,0,232035,232045,0 F,0,232045,232065,0 F,0,232065,232075,0 F,0,232075,232085,0 F,0,232085,232095,0 F,0,232095,232105,0 F,0,232105,232115,0 F,0,232115,232125,0 F,0,232125,232145,0 F,0,232145,243796,0 F,0,243796,244011,0,1 F,0,244011,244439,1,0
//Storyboard Sound Samples
//Background Colour Transformations
3,100,163,162,255

[TimingPoints]
160,428.571428571429,4,1,0,40,1,0
267,-100,4,2,0,60,0,0
802,-100,4,1,0,40,0,0
910,-100,4,2,0,60,0,0
1231,-100,4,1,0,40,0,0
1338,-100,4,2,0,60,0,0
1660,-100,4,1,0,40,0,0
1767,-100,4,2,0,60,0,0
2088,-100,4,1,0,40,0,0
2195,-100,4,2,0,60,0,0
2517,-100,4,2,0,45,0,0
2624,-100,4,2,0,60,0,0
2945,-100,4,1,0,40,0,0
3052,-100,4,2,0,60,0,0
3588,-100,4,1,0,40,0,0
3695,-100,4,2,0,60,0,0
4231,-100,4,1,0,40,0,0
4338,-100,4,2,0,60,0,0
4660,-100,4,1,0,40,0,0
4767,-100,4,2,0,60,0,0
5088,-100,4,1,0,40,0,0
5195,-100,4,2,0,60,0,0
7660,-100,4,1,0,40,0,0
7767,-100,4,2,0,60,0,0
8088,-100,4,1,0,40,0,0
8195,-100,4,2,0,60,0,0
8945,-100,4,1,0,40,0,0
9052,-100,4,2,0,60,0,0
9374,-100,4,1,0,40,0,0
9481,-100,4,2,0,60,0,0
10445,-100,4,1,0,40,0,0
10767,-100,4,2,0,60,0,0
11088,-100,4,1,0,40,0,0
11195,-100,4,2,0,60,0,0
11517,-100,4,1,0,40,0,0
11624,-100,4,2,0,60,0,0
11945,-100,4,1,0,40,0,0
12052,-100,4,2,0,60,0,0
12374,-100,4,1,0,40,0,0
12481,-100,4,2,0,60,0,0
12802,-100,4,1,0,40,0,0
12910,-100,4,2,0,60,0,0
13231,-100,4,1,0,40,0,0
13338,-100,4,2,0,60,0,0
13660,-100,4,1,0,40,0,0
14195,-100,4,2,0,60,0,0
14517,-100,4,1,0,40,0,0
14624,-100,4,2,0,60,0,0
14945,-100,4,1,0,40,0,0
15052,-100,4,2,0,60,0,0
15374,-100,4,1,0,40,0,0
16338,-100,4,2,0,60,0,0
16552,-100,4,1,0,40,0,0
16767,-100,4,2,0,60,0,0
16981,-100,4,1,0,40,0,0
17410,-100,4,2,0,60,0,0
17945,-100,4,1,0,40,0,0
18052,-100,4,2,0,60,0,0
18374,-100,4,1,0,40,0,0
18481,-100,4,2,0,60,0,0
18802,-100,4,1,0,40,0,0
18910,-100,4,2,0,60,0,0
19231,-100,4,1,0,40,0,0
19338,-100,4,2,0,60,0,0
19660,-100,4,1,0,40,0,0
19981,-100,4,2,0,60,0,0
20731,-100,4,1,0,40,0,1
20839,-100,4,2,0,60,0,0
26088,-100,4,1,0,40,0,0
26195,-100,4,2,0,60,0,0
26517,-100,4,1,0,40,0,0
26624,-100,4,2,0,60,0,0
26731,-100,4,1,0,40,0,0
27160,-100,4,2,0,60,0,0
27267,-100,4,1,0,100,0,0
27588,-100,4,2,0,60,0,0
34446,-100,4,2,0,60,0,1
34553,-100,4,2,0,60,0,0
35088,-100,4,1,0,40,0,0
35195,-100,4,2,0,60,0,0
35517,-100,4,1,0,40,0,0
35624,-100,4,2,0,60,0,0
35945,-100,4,1,0,40,0,0
36052,-100,4,2,0,60,0,0
36374,-100,4,1,0,40,0,0
36481,-100,4,2,0,60,0,0
37231,-100,4,1,0,40,0,0
37338,-100,4,2,0,60,0,0
37874,-100,4,1,0,40,0,0
37981,-100,4,2,0,60,0,0
38517,-100,4,1,0,40,0,0
38624,-100,4,2,0,60,0,0
38945,-100,4,1,0,40,0,0
39052,-100,4,2,0,60,0,0
39374,-100,4,1,0,40,0,0
39481,-100,4,2,0,60,0,0
39802,-100,4,1,0,40,0,0
40017,-166.666666666667,4,2,0,60,0,0
40660,-100,4,1,0,40,0,0
40767,-100,4,2,0,60,0,0
41302,-100,4,1,0,40,0,0
41410,-100,4,2,0,60,0,0
41945,-100,4,1,0,40,0,0
42052,-100,4,2,0,60,0,0
42374,-100,4,1,0,40,0,0
42481,-100,4,2,0,60,0,0
42802,-100,4,1,0,40,0,0
42910,-100,4,2,0,60,0,0
44088,-100,4,1,0,40,0,0
44195,-100,4,2,0,60,0,0
44731,-100,4,1,0,40,0,0
44838,-100,4,2,0,60,0,0
45374,-100,4,1,0,40,0,0
45481,-100,4,2,0,60,0,0
45802,-100,4,1,0,40,0,0
45910,-100,4,2,0,60,0,0
46231,-100,4,1,0,40,0,0
46338,-100,4,2,0,60,0,0
46660,-100,4,1,0,40,0,0
46874,-166.666666666667,4,2,0,60,0,0
47517,-100,4,1,0,40,0,0
47624,-100,4,2,0,60,0,0
47945,-100,4,2,0,40,0,0
48052,-100,4,2,0,60,0,0
49017,-100,4,1,0,40,0,0
49124,-100,4,2,0,60,0,0
49660,-100,4,1,0,40,0,0
50195,-100,4,2,0,60,0,0
50731,-100,4,1,0,40,0,0
51052,-100,4,2,0,60,0,0
51374,-100,4,1,0,40,0,0
51588,-100,4,2,0,60,0,0
52445,-100,4,1,0,40,0,0
52552,-100,4,2,0,60,0,0
53088,-100,4,1,0,40,0,0
53624,-100,4,2,0,60,0,0
54374,-100,4,1,0,40,0,0
54481,-100,4,2,0,60,0,0
54802,-100,4,1,0,40,0,0
54910,-100,4,2,0,60,0,0
55874,-100,4,1,0,40,0,0
55981,-100,4,2,0,60,0,0
56945,-100,4,1,0,40,0,0
57052,-100,4,2,0,60,0,0
57802,-100,4,1,0,40,0,0
58338,-100,4,2,0,60,0,0
59302,-100,4,1,0,40,0,0
59410,-100,4,2,0,60,0,0
61874,-83.3333333333333,4,2,0,60,0,1
62517,-83.3333333333333,4,1,0,40,0,1
63052,-83.3333333333333,4,2,0,60,0,1
63374,-83.3333333333333,4,1,0,40,0,1
63910,-83.3333333333333,4,2,0,60,0,1
64445,-83.3333333333333,4,1,0,40,0,1
64552,-83.3333333333333,4,2,0,60,0,1
65302,-83.3333333333333,4,1,0,40,0,1
65410,-83.3333333333333,4,2,0,60,0,1
66160,-83.3333333333333,4,1,0,40,0,1
66267,-83.3333333333333,4,2,0,60,0,1
66802,-83.3333333333333,4,1,0,40,0,1
67338,-83.3333333333333,4,2,0,60,0,1
67874,-83.3333333333333,4,1,0,40,0,1
68302,-83.3333333333333,4,2,0,60,0,1
69374,-83.3333333333333,4,1,0,40,0,1
69910,-83.3333333333333,4,2,0,60,0,1
70445,-83.3333333333333,4,1,0,40,0,1
70552,-83.3333333333333,4,2,0,60,0,1
71302,-83.3333333333333,4,1,0,40,0,1
71410,-83.3333333333333,4,2,0,60,0,1
72160,-83.3333333333333,4,1,0,40,0,1
72267,-83.3333333333333,4,2,0,60,0,1
72802,-83.3333333333333,4,1,0,40,0,1
73338,-100,4,2,0,60,0,1
73874,-83.3333333333333,4,2,0,40,0,1
73981,-83.3333333333333,4,2,0,60,0,1
74302,-83.3333333333333,4,2,0,40,0,1
74410,-83.3333333333333,4,2,0,60,0,1
74731,-83.3333333333333,4,2,0,40,0,1
74838,-83.3333333333333,4,2,0,60,0,1
75481,-100,4,2,0,60,0,0
75589,-83.3333333333333,4,2,0,60,0,1
76445,-83.3333333333333,4,1,0,40,0,1
76552,-83.3333333333333,4,2,0,60,0,1
77088,-83.3333333333333,4,1,0,40,0,1
77624,-83.3333333333333,4,2,0,60,0,1
78160,-83.3333333333333,4,1,0,40,0,1
78267,-83.3333333333333,4,2,0,60,0,1
79017,-83.3333333333333,4,1,0,40,0,1
79124,-83.3333333333333,4,2,0,60,0,1
79874,-83.3333333333333,4,1,0,40,0,1
79981,-83.3333333333333,4,2,0,60,0,1
80731,-83.3333333333333,4,1,0,40,0,1
80838,-83.3333333333333,4,2,0,60,0,1
81588,-83.3333333333333,4,1,0,40,0,1
81695,-83.3333333333333,4,2,0,60,0,1
82445,-83.3333333333333,4,1,0,40,0,1
82552,-83.3333333333333,4,2,0,60,0,1
83302,-83.3333333333333,4,1,0,40,0,1
83410,-83.3333333333333,4,2,0,60,0,1
84160,-83.3333333333333,4,1,0,40,0,1
84374,-166.666666666667,4,2,0,60,0,1
84803,-83.3333333333333,4,2,0,60,0,1
85017,-83.3333333333333,4,1,0,40,0,1
85124,-83.3333333333333,4,2,0,60,0,1
85874,-83.3333333333333,4,1,0,40,0,1
85981,-83.3333333333333,4,2,0,60,0,1
86517,-83.3333333333333,4,1,0,40,0,1
87052,-83.3333333333333,4,2,0,60,0,1
87588,-83.3333333333333,4,2,0,40,0,1
87695,-83.3333333333333,4,2,0,60,0,1
88017,-83.3333333333333,4,2,0,40,0,1
88124,-83.3333333333333,4,2,0,60,0,1
88445,-83.3333333333333,4,2,0,40,0,1
88552,-83.3333333333333,4,2,0,60,0,1
88874,-83.3333333333333,4,2,0,40,0,1
88981,-83.3333333333333,4,2,0,60,0,1
89303,-100,4,2,0,60,0,0
94660,-100,4,1,0,40,0,0
94767,-100,4,2,0,60,0,0
95088,-100,4,1,0,40,0,0
95731,-100,4,2,0,60,0,0
95838,-100,4,1,0,40,0,0
96160,-100,4,2,0,60,0,0
102910,-100,4,2,0,60,0,1
103017,-100,4,1,0,40,0,0
103124,-100,4,2,0,60,0,0
103660,-100,4,1,0,40,0,0
103767,-100,4,2,0,60,0,0
104088,-100,4,1,0,40,0,0
104195,-100,4,2,0,60,0,0
104517,-100,4,1,0,40,0,0
104624,-100,4,2,0,60,0,0
104731,-100,4,1,0,40,0,0
105052,-100,4,2,0,60,0,0
105802,-100,4,1,0,40,0,0
105910,-100,4,2,0,60,0,0
106231,-100,4,1,0,40,0,0
106338,-100,4,2,0,40,0,0
106445,-100,4,1,0,40,0,0
106552,-100,4,2,0,60,0,0
107088,-100,4,1,0,40,0,0
107195,-100,4,2,0,60,0,0
107517,-100,4,1,0,40,0,0
107624,-100,4,2,0,60,0,0
107945,-100,4,1,0,40,0,0
108052,-100,4,1,0,40,0,0
108160,-100,4,1,0,40,0,0
108588,-100,4,2,0,60,0,0
108695,-100,4,1,0,40,0,0
109445,-100,4,2,0,60,0,0
109660,-100,4,1,0,40,0,0
109767,-100,4,2,0,60,0,0
109874,-100,4,1,0,40,0,0
109981,-100,4,2,0,60,0,0
110517,-100,4,1,0,40,0,0
110624,-100,4,2,0,60,0,0
110945,-100,4,1,0,40,0,0
111052,-100,4,2,0,60,0,0
111374,-100,4,1,0,40,0,0
111481,-100,4,2,0,60,0,0
111588,-100,4,1,0,40,0,0
111695,-100,4,2,0,60,0,0
112660,-100,4,1,0,40,0,0
112767,-100,4,2,0,60,0,0
113088,-100,4,1,0,40,0,0
113195,-100,4,2,0,60,0,0
113302,-100,4,1,0,40,0,0
113410,-100,4,2,0,60,0,0
113945,-100,4,1,0,40,0,0
114052,-100,4,2,0,60,0,0
114374,-100,4,1,0,40,0,0
114481,-100,4,2,0,60,0,0
114802,-100,4,1,0,40,0,0
114910,-100,4,2,0,60,0,0
115017,-100,4,1,0,40,0,0
115124,-100,4,2,0,60,0,0
115660,-100,4,1,0,40,0,0
116302,-100,4,2,0,60,0,0
116410,-100,4,1,0,40,0,0
116517,-100,4,2,0,60,0,0
117588,-100,4,1,0,40,0,0
117695,-100,4,2,0,60,0,0
118231,-100,4,1,0,40,0,0
118338,-100,4,2,0,60,0,0
118660,-100,4,1,0,40,0,0
118767,-100,4,2,0,60,0,0
119302,-100,4,1,0,40,0,0
120160,-100,4,2,0,60,0,0
121017,-100,4,1,0,40,0,0
121124,-100,4,2,0,60,0,0
121660,-100,4,1,0,40,0,0
121767,-100,4,2,0,60,0,0
122088,-100,4,1,0,40,0,0
122195,-100,4,2,0,60,0,0
122945,-100,4,1,0,40,0,0
123052,-100,4,2,0,60,0,0
123374,-100,4,1,0,40,0,0
123481,-100,4,2,0,60,0,0
124445,-100,4,1,0,40,0,0
124552,-100,4,2,0,60,0,0
125088,-100,4,1,0,40,0,0
125195,-100,4,2,0,60,0,0
125517,-100,4,1,0,40,0,0
125624,-100,4,2,0,60,0,0
126160,-100,4,1,0,40,0,0
127017,-100,4,2,0,60,0,0
127874,-100,4,1,0,40,0,0
127981,-100,4,2,0,60,0,0
128731,-100,4,1,0,40,0,0
130446,-83.3333333333333,4,2,0,60,0,1
131088,-83.3333333333333,4,1,0,40,0,1
131624,-83.3333333333333,4,2,0,60,0,1
131945,-83.3333333333333,4,1,0,40,0,1
132481,-83.3333333333333,4,2,0,60,0,1
133017,-83.3333333333333,4,1,0,40,0,1
133124,-83.3333333333333,4,2,0,60,0,1
133874,-83.3333333333333,4,1,0,40,0,1
133981,-83.3333333333333,4,2,0,60,0,1
134731,-83.3333333333333,4,1,0,40,0,1
134838,-83.3333333333333,4,2,0,60,0,1
135374,-83.3333333333333,4,1,0,40,0,1
135910,-83.3333333333333,4,2,0,60,0,1
136445,-83.3333333333333,4,1,0,40,0,1
136874,-83.3333333333333,4,2,0,60,0,1
137088,-83.3333333333333,4,1,0,40,0,1
137195,-83.3333333333333,4,2,0,60,0,1
137302,-83.3333333333333,4,1,0,40,0,1
137410,-83.3333333333333,4,2,0,60,0,1
137945,-83.3333333333333,4,1,0,40,0,1
138481,-83.3333333333333,4,2,0,60,0,1
139017,-83.3333333333333,4,1,0,40,0,1
139124,-83.3333333333333,4,2,0,60,0,1
139874,-83.3333333333333,4,1,0,40,0,1
139981,-83.3333333333333,4,2,0,60,0,1
140731,-83.3333333333333,4,1,0,40,0,1
140838,-83.3333333333333,4,2,0,60,0,1
141374,-83.3333333333333,4,1,0,40,0,1
141910,-83.3333333333333,4,2,0,60,0,1
142445,-100,4,2,0,40,0,1
142552,-83.3333333333333,4,2,0,60,0,1
142874,-83.3333333333333,4,2,0,40,0,1
142981,-83.3333333333333,4,2,0,60,0,1
143302,-83.3333333333333,4,2,0,40,0,1
143410,-83.3333333333333,4,2,0,60,0,1
144053,-83.3333333333333,4,2,0,60,0,0
144160,-83.3333333333333,4,2,0,60,0,1
145017,-83.3333333333333,4,1,0,40,0,1
145124,-83.3333333333333,4,2,0,60,0,1
145660,-83.3333333333333,4,1,0,40,0,1
146195,-83.3333333333333,4,2,0,60,0,1
146731,-83.3333333333333,4,1,0,40,0,1
146838,-83.3333333333333,4,2,0,60,0,1
147588,-83.3333333333333,4,1,0,40,0,1
147695,-83.3333333333333,4,2,0,60,0,1
148445,-83.3333333333333,4,1,0,40,0,1
148552,-83.3333333333333,4,2,0,60,0,1
149302,-83.3333333333333,4,1,0,40,0,1
149410,-83.3333333333333,4,2,0,60,0,1
150160,-83.3333333333333,4,1,0,40,0,1
150267,-83.3333333333333,4,2,0,60,0,1
151874,-83.3333333333333,4,1,0,40,0,1
151981,-83.3333333333333,4,2,0,60,0,1
152731,-83.3333333333333,4,1,0,40,0,1
152945,-166.666666666667,4,2,0,60,0,1
153374,-83.3333333333333,4,2,0,60,0,1
153588,-83.3333333333333,4,1,0,40,0,1
153695,-83.3333333333333,4,2,0,60,0,1
154445,-83.3333333333333,4,1,0,40,0,1
154552,-83.3333333333333,4,2,0,60,0,1
155088,-83.3333333333333,4,1,0,40,0,1
155624,-83.3333333333333,4,2,0,60,0,1
156160,-83.3333333333333,4,2,0,40,0,1
156267,-83.3333333333333,4,2,0,60,0,1
156588,-83.3333333333333,4,2,0,40,0,1
156695,-83.3333333333333,4,2,0,60,0,1
157017,-83.3333333333333,4,2,0,40,0,1
157124,-83.3333333333333,4,2,0,60,0,1
157874,-100,4,2,0,60,0,0
171588,-100,4,2,0,40,0,0
171695,-100,4,2,0,60,0,0
178445,-100,4,2,0,15,0,0
183160,-100,4,2,0,60,0,0
183588,-100,4,2,0,40,0,0
183695,-100,4,1,0,40,0,0
184017,-100,4,2,0,40,0,0
184124,-100,4,1,0,40,0,0
184445,-100,4,2,0,40,0,0
184552,-100,4,1,0,40,0,0
184874,-100,4,2,0,40,0,0
184981,-100,4,1,0,40,0,0
185303,-100,4,2,0,60,0,1
185410,-100,4,2,0,60,0,0
186160,-100,4,1,0,40,0,0
186267,-100,4,2,0,60,0,0
187017,-100,4,1,0,40,0,0
187124,-100,4,2,0,60,0,0
187874,-100,4,1,0,40,0,0
187981,-100,4,2,0,60,0,0
188731,-100,4,1,0,40,0,0
188838,-100,4,2,0,60,0,0
189588,-100,4,1,0,40,0,0
189695,-100,4,2,0,60,0,0
190445,-100,4,1,0,40,0,0
190552,-100,4,2,0,60,0,0
191088,-100,4,1,0,40,0,0
192052,-100,4,2,0,60,0,0
193017,-100,4,1,0,40,0,0
193124,-100,4,2,0,60,0,0
193874,-100,4,1,0,40,0,0
193981,-100,4,2,0,60,0,0
194517,-100,4,1,0,40,0,0
195052,-100,4,2,0,60,0,0
196445,-100,4,1,0,40,0,0
196552,-100,4,2,0,60,0,0
197302,-100,4,2,0,40,0,0
197410,-100,4,2,0,60,0,0
197731,-100,4,2,0,40,0,0
197838,-100,4,2,0,60,0,0
198160,-100,4,2,0,40,0,0
198267,-100,4,2,0,60,0,0
198588,-100,4,2,0,40,0,0
198695,-100,4,2,0,60,0,0
199017,-100,4,1,0,40,0,0
199445,-100,4,2,0,60,0,0
199552,-100,4,1,0,40,0,0
200302,-100,4,2,0,60,0,0
200410,-100,4,1,0,60,0,0
200731,-100,4,2,0,60,0,0
202017,-100,4,2,0,40,0,0
202124,-100,4,2,0,60,0,0
202446,-83.3333333333333,4,1,0,60,0,1
202552,-100,4,2,0,60,0,0
203945,-100,4,1,0,40,0,0
204052,-100,4,1,0,40,0,0
205445,-166.666666666667,4,2,0,40,0,0
205552,-166.666666666667,4,2,0,60,0,0
205767,-83.3333333333333,4,2,0,60,0,0
205874,-83.3333333333333,4,2,0,60,0,1
206731,-83.3333333333333,4,1,0,40,0,1
206838,-83.3333333333333,4,2,0,60,0,1
207374,-83.3333333333333,4,1,0,40,0,1
208552,-83.3333333333333,4,2,0,60,0,1
210160,-83.3333333333333,4,1,0,40,0,1
210267,-83.3333333333333,4,2,0,60,0,1
211017,-83.3333333333333,4,1,0,40,0,1
211124,-83.3333333333333,4,2,0,60,0,1
211874,-83.3333333333333,4,1,0,40,0,1
211981,-83.3333333333333,4,2,0,60,0,1
212731,-83.3333333333333,4,1,0,40,0,1
212838,-83.3333333333333,4,2,0,60,0,1
213374,-83.3333333333333,4,1,0,40,0,1
213910,-83.3333333333333,4,2,0,60,0,1
214445,-83.3333333333333,4,2,0,40,0,1
214552,-83.3333333333333,4,2,0,60,0,1
214874,-83.3333333333333,4,2,0,40,0,1
214981,-83.3333333333333,4,2,0,60,0,1
215302,-83.3333333333333,4,2,0,40,0,1
215410,-83.3333333333333,4,2,0,60,0,1
215731,-83.3333333333333,4,2,0,40,0,1
215838,-83.3333333333333,4,2,0,60,0,1
216053,-100,4,2,0,60,0,0
216160,-83.3333333333333,4,2,0,60,0,1
216802,-83.3333333333333,4,1,0,40,0,1
217338,-83.3333333333333,4,2,0,60,0,1
217660,-83.3333333333333,4,1,0,40,0,1
218195,-83.3333333333333,4,2,0,60,0,1
218731,-83.3333333333333,4,1,0,40,0,1
218945,-83.3333333333333,4,2,0,60,0,1
219588,-83.3333333333333,4,1,0,40,0,1
219695,-83.3333333333333,4,2,0,60,0,1
220445,-83.3333333333333,4,1,0,40,0,1
220552,-83.3333333333333,4,2,0,60,0,1
221088,-83.3333333333333,4,1,0,40,0,1
222267,-83.3333333333333,4,2,0,60,0,1
223017,-83.3333333333333,4,1,0,40,0,1
223124,-83.3333333333333,4,2,0,60,0,1
223874,-83.3333333333333,4,1,0,40,0,1
223981,-83.3333333333333,4,2,0,60,0,1
224731,-83.3333333333333,4,1,0,40,0,1
224838,-83.3333333333333,4,2,0,60,0,1
225588,-83.3333333333333,4,1,0,40,0,1
225695,-83.3333333333333,4,2,0,60,0,1
226445,-83.3333333333333,4,1,0,40,0,1
226552,-83.3333333333333,4,2,0,60,0,1
227088,-83.3333333333333,4,1,0,40,0,1
228052,-83.3333333333333,4,2,0,60,0,1
228160,-83.3333333333333,4,2,0,40,0,1
228267,-83.3333333333333,4,2,0,60,0,1
228588,-83.3333333333333,4,2,0,40,0,1
228695,-83.3333333333333,4,2,0,60,0,1
229017,-83.3333333333333,4,2,0,40,0,1
229124,-83.3333333333333,4,2,0,60,0,1
229445,-83.3333333333333,4,2,0,40,0,1
229552,-83.3333333333333,4,2,0,60,0,1
229874,-100,4,2,0,60,0,0
231588,-100,4,1,0,40,0,0
231695,-100,4,2,0,60,0,0
232445,-100,4,1,0,40,0,0
232552,-100,4,2,0,60,0,0
235017,-100,4,1,0,40,0,0
235124,-100,4,2,0,60,0,0
235874,-100,4,1,0,40,0,0
236302,-100,4,2,0,60,0,0
238445,-100,4,1,0,40,0,0
238552,-100,4,2,0,60,0,0
239302,-100,4,1,0,40,0,0
239410,-100,4,2,0,60,0,0
241874,-100,4,1,0,40,0,0
241981,-100,4,2,0,60,0,0
242731,-100,4,1,0,40,0,0
242838,-100,4,2,0,60,0,0

[Colours]
Combo1 : 215,163,91
Combo2 : 242,164,166
Combo3 : 143,143,143

[HitObjects]
200,136,160,1,0
288,280,588,2,0,B|320:272|344:256|352:208,1,85,8|0
200,136,1231,1,0
120,164,1445,1,8
132,80,1660,1,0
344,64,2088,6,0,B|392:80|408:128,1,85,0|8
404,119,2517,1,8
436,288,2945,2,0,B|388:272|372:224,2,85,0|8|0
404,119,3588,6,0,B|360:100|304:152|304:152|252:104,1,170,0|8
260,112,4231,1,0
112,192,4660,1,0
52,252,4874,1,8
136,272,5088,1,0
320,288,5302,6,0,B|412:240,1,85,2|0
192,288,5731,2,0,B|100:240,1,85,2|0
256,200,6160,6,0,B|256:148,3,42.5,8|8|0|0
256,136,6588,2,0,B|256:92,4,42.5,8|8|0|0|4
256,304,7445,5,10
204,240,7659,2,0,B|208:168|144:136|88:168,1,170
116,248,8302,1,10
88,168,8517,2,0,B|100:112|144:72|220:72,1,170
288,140,9159,5,10
408,140,9374,1,0
344,240,9588,2,0,B|300:276|228:276|160:228,1,170,0|10
84,60,10445,5,0
16,108,10659,1,0
64,176,10874,1,10
136,128,11088,2,0,B|196:112|216:132|232:148|304:124,1,170
384,100,11731,1,10
384,100,11945,2,0,B|432:96|468:144|472:196|412:232,1,170
360,272,12588,1,10
280,300,12802,1,0
264,216,13017,5,0
240,204,13231,1,0
240,288,13445,1,10
164,244,13659,1,0
128,168,13874,6,0,B|92:132|92:40|132:8,1,170,0|10
212,16,14517,2,0,B|248:52|248:144|208:176,1,170
232,256,15159,1,10
324,236,15374,6,0,B|396:236|448:208|480:156,2,170,0|0|0
256,292,16445,1,0
172,292,16659,1,0
120,228,16874,1,10
164,156,17088,1,0
236,200,17302,6,0,B|284:240|336:252|416:248,1,170,0|10
312,124,17945,2,0,B|264:84|212:72|132:76,1,170,0|0
153,75,18588,1,10
120,244,18802,6,0,B|100:292|144:336,1,85,0|0
196,268,19231,2,0,B|212:312|268:320,1,85,0|10
264,232,19660,1,0
264,232,19767,1,0
264,232,19874,2,0,B|308:260|384:240|420:192,2,170,0|10|0
168,188,26088,5,0
252,244,26302,1,8
336,188,26517,1,0
332,104,26731,2,0,B|296:60|208:56|164:120,2,170,0|8|4
208,264,32731,6,0,B|156:312,2,42.5,2|0|0
304,180,33160,2,0,B|352:232,2,42.5,2|0|0
256,60,33588,1,2
256,60,34017,1,2
112,140,34231,5,0
108,156,34338,1,0
104,172,34445,2,0,B|92:208|108:244|136:264,1,85,4|0
121,251,34874,1,10
196,292,35088,2,0,B|196:344,2,42.5
196,208,35517,5,0
196,208,35731,1,10
268,164,35945,1,0
280,156,36052,1,0
292,148,36160,2,0,B|332:120|372:148,2,85,0|0|10
172,304,37231,5,0
88,284,37445,1,10
68,200,37660,1,0
64,184,37767,1,0
64,168,37874,2,0,B|52:120|104:88,2,85,0|0|10
172,212,38517,1,0
180,228,38624,1,0
192,240,38731,2,0,B|224:268|276:256,2,85,0|0|10
116,128,39374,6,0,B|76:120,2,42.5
172,212,39802,1,0
172,212,40017,6,0,B|208:240|280:240|328:208,1,153.000003647804,10|0
384,160,40874,5,10
324,100,41088,1,0
308,100,41195,1,0
292,100,41302,2,0,B|260:116|236:96|192:108,2,85,0|0|10
276,220,41945,5,0
292,220,42052,1,0
308,220,42160,2,0,B|340:236|364:216|408:228,2,85,0|0|10
232,312,42802,6,0,B|192:296,1,42.5
172,288,43017,1,0
96,252,43231,1,0
96,252,43445,1,10
188,80,44088,5,0
256,176,44302,1,10
328,80,44517,1,0
328,80,44624,5,0
328,80,44731,1,0
340,164,44945,1,0
256,176,45159,1,10
180,140,45374,2,0,B|128:112,2,42.5
256,176,45802,1,0
332,216,46017,1,10
352,300,46231,5,0
352,300,46338,1,0
352,300,46445,1,0
272,332,46659,1,0
272,332,46874,6,0,B|224:364|200:340|172:308|120:344,1,153.000003647804,10|0
4,340,47731,5,10
124,340,47945,2,0,B|152:296|208:272|280:276,1,170,4|0
356,248,48588,2,0,B|396:232|416:188,1,85,10|0
356,248,49017,2,0,B|328:200|284:168|200:168,1,170,0|10
232,252,49659,2,0,B|292:240|332:192|332:112,1,170
172,192,50302,2,0,B|128:216|80:184,2,85,10|0|0
280,164,50945,5,0
384,196,51159,1,10
488,164,51374,1,0
384,140,51588,1,4
296,72,51802,6,0,B|244:36|184:96,1,85,0|10
256,144,52231,1,0
180,200,52445,2,0,B|228:244|296:244|340:192,1,170,0|10
256,144,53088,6,0,B|208:108|136:108|84:156,1,170
16,204,53731,1,10
96,144,53945,1,0
180,200,54159,1,0
256,144,54374,5,0
256,144,54481,1,0
256,144,54588,1,10
256,60,54802,1,0
255,144,55017,2,0,B|228:220|284:244|255:310,1,170,4|8
184,264,55659,1,0
256,312,55874,6,0,B|272:252|320:208|396:204,1,170,0|10
376,204,56517,2,0,B|320:202|272:158|256:98,1,170
332,44,57159,6,0,B|384:56|392:120,1,85,10|0
432,264,57588,2,0,B|380:252|372:188,1,85
332,44,58017,5,0
404,168,58231,1,0
260,160,58445,1,4
176,96,58659,6,0,B|144:64|96:80,2,85,0|10|0
336,176,59302,2,0,B|368:144|416:160,2,85,0|0|10
256,284,59945,1,0
192,228,60159,1,2
188,212,60267,1,0
188,196,60374,1,0
320,156,60588,1,10
324,172,60695,1,0
324,188,60802,1,0
252,284,61017,6,0,B|220:320,2,42.5,2|0|0
176,236,61445,2,0,B|132:216,2,42.5,10|0|0
176,236,61874,6,0,B|244:228|252:168|248:100|140:100,1,204.000004863739,4|10
100,176,62517,2,0,B|160:200|224:148|324:192,1,204.000004863739
364,264,63159,1,10
264,284,63374,2,0,B|224:352|128:352|96:284,1,204.000004863739
36,120,64017,5,10
88,240,64231,1,0
116,112,64445,1,0
16,196,64659,1,0
148,184,64874,6,0,B|196:228|284:228|344:180,1,204.000004863739,10|0
288,96,65517,2,0,B|228:120|240:184,1,102.00000243187,0|10
280,336,65945,2,0,B|340:312|328:248,1,102.00000243187
336,156,66374,5,0
244,108,66588,1,10
248,208,66802,2,0,B|224:136|176:104|84:104,1,204.000004863739
48,216,67445,1,10
92,308,67659,1,0
48,216,67874,5,0
148,196,68088,1,0
148,196,68195,1,0
148,196,68302,1,10
48,216,68517,1,0
148,196,68731,6,0,B|176:136|240:96|320:100,1,204.000004863739,0|10
364,188,69374,2,0,B|336:248|272:288|192:284,1,204.000004863739
148,196,70017,1,10
204,120,70231,2,0,B|228:68|283:64,1,102.00000243187
352,128,70659,5,0
348,232,70874,1,10
268,292,71088,1,0
216,204,71302,1,0
284,64,71517,5,0
220,204,71731,1,10
352,128,71945,1,0
200,112,72159,2,0,B|156:104|128:124|76:96,1,102.00000243187
32,184,72588,1,10
32,184,72802,2,0,B|96:248|144:140|224:208,1,204.000004863739
292,280,73445,1,10
220,208,73659,1,0
304,152,73874,6,0,B|356:120,2,51.0000012159348,6|0|0
208,152,74302,2,0,B|156:120,2,51.0000012159348,6|0|0
256,236,74731,2,0,B|256:296,2,51.0000012159348,6|0|0
304,152,75159,5,2
208,152,75374,1,2
256,236,75588,1,6
440,328,76017,6,0,B|500:312|484:232,1,102.00000243187,10|0
412,180,76445,1,0
360,268,76659,1,0
300,188,76874,1,10
360,268,77088,2,0,B|320:212|264:196|164:208,1,204.000004863739
80,176,77731,1,10
176,208,77945,1,0
96,268,78159,6,0,B|48:292|44:324|-4:336,1,102.00000243187
176,208,78588,2,0,B|224:184|228:152|276:140,1,102.00000243187,10|0
372,84,79017,1,0
256,148,79231,1,0
372,212,79445,1,10
256,272,79659,1,0
348,316,79874,5,0
256,356,80088,1,0
164,312,80302,1,10
256,272,80517,2,0,B|280:232|344:228,1,102.00000243187
436,188,80945,2,0,B|412:148|348:144,1,102.00000243187,0|10
252,116,81374,5,0
188,196,81588,1,0
256,272,81802,1,0
256,272,81909,1,0
256,272,82017,1,10
352,236,82231,1,0
352,236,82445,6,0,B|352:176|416:160,1,102.00000243187,4|0
448,256,82874,1,10
352,236,83088,2,0,B|324:192|252:200,1,102.00000243187
184,260,83517,1,0
92,216,83731,1,10
92,216,83945,2,0,B|32:216|0:160,1,102.00000243187
60,84,84374,6,0,B|104:60|144:104|176:68,1,102.00000243187
256,44,85017,5,0
344,96,85231,1,0
248,132,85445,1,10
336,184,85659,1,0
436,200,85874,6,0,B|416:264|364:288|308:284|252:232,1,204.000004863739,0|10
336,184,86517,2,0,B|328:140|304:88|256:64|180:60,1,204.000004863739
64,60,87159,5,10
196,60,87374,1,0
300,128,87588,6,0,B|328:144|352:112|404:132,2,102.00000243187,4|0|14
192,208,88231,2,0,B|164:224|140:192|88:212,2,102.00000243187,0|4|0
300,284,88874,2,0,B|328:300|352:268|404:288,2,102.00000243187,14|0|4
316,136,94659,5,0
316,136,94874,1,10
196,256,95088,1,0
196,256,95302,5,0
316,136,95731,1,10
196,256,96159,1,4
256,136,101088,5,0
208,224,101302,1,2
304,224,101517,1,0
256,100,101731,5,2
177,244,101945,1,0
334,244,102159,1,2
388,72,102802,5,0
368,84,102909,1,0
348,80,103017,1,0
264,80,103231,1,0
348,80,103445,1,10
292,176,103659,5,0
276,188,103767,1,0
268,208,103874,1,0
244,288,104088,1,0
268,208,104302,1,10
148,220,104517,6,0,B|100:220,2,42.5
220,172,104945,1,0
224,256,105159,1,10
380,324,105802,6,0,B|408:336|432:304|480:336,2,85,0|10|0
360,320,106338,1,0
340,320,106445,1,0
268,368,106659,2,0,B|220:368,2,42.5,0|0|10
160,284,107088,5,0
140,276,107195,1,0
124,260,107302,2,0,B|84:252|72:216|72:168,1,85
74,198,107731,1,10
112,64,107945,6,0,B|64:32,2,42.5
196,60,108374,1,0
160,136,108588,2,0,B|192:192|252:180,1,85,10|0
304,216,109017,1,0
368,160,109231,1,0
404,84,109445,1,10
368,160,109659,5,0
368,160,109767,1,0
368,160,109874,2,0,B|317:175|269:151,2,85,0|0|10
396,248,110517,1,0
396,248,110624,1,0
396,248,110731,2,0,B|447:263|495:239,2,85,0|0|10
320,280,111374,2,0,B|272:304|264:304,1,42.5
264,304,111588,2,0,B|216:328|144:328|88:288,1,170,0|10
24,80,112659,5,0
104,112,112874,1,10
136,32,113088,1,0
136,32,113195,1,0
136,32,113302,1,0
296,80,113517,5,0
296,80,113731,1,10
432,176,113945,1,0
432,176,114052,1,0
432,176,114159,1,0
296,272,114374,1,0
296,272,114588,1,10
128,232,114802,6,0,B|64:232,2,42.5
208,208,115231,1,0
240,128,115445,1,10
312,88,115659,6,0,B|360:64,3,42.5
352,112,116088,2,0,B|408:104,4,42.5,0|0|10|0|0
368,192,116731,6,0,B|344:256|280:280|192:240,1,170,4|10
144,224,117374,1,0
224,252,117588,2,0,B|248:308|304:340|392:332,1,170,0|10
372,192,118231,2,0,B|348:136|292:104|204:112,1,170
148,116,118874,2,0,B|112:128|68:104|40:128,2,85,10|0|0
260,76,119517,5,0
392,136,119731,1,0
340,268,119945,1,0
460,352,120159,1,4
340,268,120374,6,0,B|296:240|236:276,2,85,0|10|0
296,340,121017,2,0,B|236:360|172:332|176:256,1,170,0|10
260,260,121659,2,0,B|212:288|136:284|84:248,1,170
260,260,122302,5,10
336,220,122517,1,0
296,144,122731,1,0
256,56,122945,5,0
256,56,123052,1,0
256,56,123159,1,10
324,104,123374,1,0
324,104,123588,2,0,B|296:160|204:160|176:84,1,170,0|10
256,56,124231,1,0
336,208,124445,6,0,B|292:240|208:240|152:196,1,170,0|10
176,124,125088,2,0,B|220:92|304:92|360:136,1,170
412,168,125731,1,10
336,208,125945,1,0
336,124,126159,1,0
444,232,126374,5,0
328,332,126588,1,0
196,252,126802,1,0
72,340,127017,1,4
56,204,127231,5,0
56,204,127445,1,10
172,80,127659,1,0
172,80,127874,1,0
172,80,128088,2,0,B|212:56|268:52,1,85,0|10
408,96,128517,2,0,B|368:120|312:124,1,85
204,92,129052,5,0
116,184,129374,1,0
144,264,129588,1,0
308,304,130017,1,4
412,176,130445,6,0,B|440:104|388:40|312:44,1,170,4|10
312,144,131088,2,0,B|288:220|256:244|204:252|152:252,1,204.000004863739
56,252,131731,1,10
156,252,131945,2,0,B|196:320|292:320|324:252,1,204.000004863739
436,184,132588,5,10
384,304,132802,1,0
356,176,133017,1,0
456,260,133231,1,0
356,176,133445,6,0,B|308:220|220:220|160:172,1,204.000004863739,10|0
88,112,134088,2,0,B|4:40,1,102.00000243187,0|10
220,100,134517,2,0,B|304:172,1,102.00000243187
160,216,134945,5,0
220,100,135159,1,10
300,204,135374,2,0,B|324:132|372:100|464:100,1,204.000004863739
464,216,136017,1,10
420,308,136231,5,0
364,216,136445,1,0
316,308,136659,1,0
316,308,136767,1,0
316,308,136874,1,10
268,216,137088,1,0
268,216,137302,6,0,B|276:152|196:132,2,102.00000243187,4|0|10
164,220,137945,2,0,B|184:300|228:332|292:316|336:304,1,204.000004863739
368,220,138588,1,10
300,144,138802,2,0,B|268:100|208:96,1,102.00000243187
112,100,139231,6,0,B|44:104|40:172,1,102.00000243187,0|10
128,216,139659,2,0,B|84:264|148:316,1,102.00000243187
248,256,140088,5,0
160,172,140302,1,10
272,120,140517,1,0
400,208,140731,6,0,B|416:264|376:300,1,102.00000243187
304,236,141159,1,10
264,144,141374,2,0,B|188:176|184:284|248:328,1,204.000004863739
304,236,142017,1,10
264,144,142231,1,0
192,88,142445,5,6
192,88,142552,1,0
192,88,142659,1,0
219,272,142874,1,6
219,272,142981,1,0
219,272,143088,1,0
368,152,143302,1,6
368,152,143409,1,0
368,152,143517,1,0
192,88,143731,5,2
104,200,143945,1,2
216,272,144159,1,6
160,116,144588,6,0,B|140:60|76:56,1,102.00000243187,10|0
64,156,145017,1,0
160,116,145231,1,0
84,56,145445,1,10
64,156,145660,2,0,B|104:212|160:228|256:212,1,204.000004863739
344,188,146302,1,10
276,112,146517,1,0
248,212,146731,2,0,B|224:272|288:308,1,102.00000243187
376,320,147160,2,0,B|400:260|336:224,1,102.00000243187,10|0
248,212,147588,5,0
276,304,147802,1,0
348,232,148017,1,10
248,212,148231,1,0
120,176,148445,5,0
248,212,148660,1,0
208,88,148874,1,10
248,212,149088,2,0,B|284:156|364:156,1,102.00000243187
248,212,149517,2,0,B|284:268|364:268,1,102.00000243187,0|10
392,148,149945,5,0
432,276,150160,1,0
468,148,150374,1,0
468,148,150481,1,0
468,148,150588,1,10
360,76,150802,1,0
360,76,151017,6,0,B|300:76|284:140,1,102.00000243187,4|0
248,228,151445,1,10
124,380,151660,2,0,B|184:380|200:316,1,102.00000243187,0|0
164,228,152088,1,0
92,300,152302,1,10
196,320,152517,2,0,B|256:320|296:268,1,102.00000243187
332,212,152945,6,0,B|364:176|340:144|388:112,1,102.00000243187,2|0
300,56,153588,5,0
300,56,153802,1,0
132,56,154017,1,10
132,56,154231,1,0
140,156,154445,6,0,B|96:216|120:312|216:316,1,204.000004863739,0|10
296,280,155088,2,0,B|340:220|316:124|220:120,1,204.000004863739
216,220,155731,5,10
296,280,155945,1,0
384,228,156160,2,0,B|444:192,2,51.0000012159348,6|0|0
256,144,156588,2,0,B|304:172,2,51.0000012159348,6|0|0
112,192,157017,2,0,B|136:124,2,51.0000012159348,6|0|0
176,272,157445,6,0,B|204:340|312:340|344:268,1,204.000004863739,2|4
340,116,163231,5,2
168,112,163445,1,0
340,116,163660,1,2
168,112,163874,1,2
296,184,164088,5,2
216,184,164302,1,0
256,260,164517,1,2
312,236,170088,5,0
364,168,170302,1,2
200,236,170517,5,0
148,168,170731,1,2
364,168,171160,5,2
148,168,171588,1,6
352,144,176945,5,2
352,240,177160,1,2
256,288,177374,1,0
160,240,177588,1,2
160,144,177802,1,0
256,96,178017,1,2
256,192,178231,5,2
256,192,178445,12,0,183160
336,240,183588,5,6
320,256,183695,1,0
304,272,183802,1,0
208,272,184017,1,6
192,256,184124,1,0
176,240,184231,1,0
176,144,184445,5,6
192,128,184552,1,0
208,112,184660,1,0
304,112,184874,1,6
320,128,184981,1,0
336,144,185088,1,0
256,336,185302,6,0,B|304:320|312:264,1,85,4|0
396,284,185731,2,0,B|396:244|396:228|356:196|356:196|356:116,1,170,10|0
440,124,186374,2,0,B|440:84|416:80|416:36,2,85,0|10|0
444,208,187017,2,0,B|391:223|359:179|355:147|355:147|283:147,1,170,0|10
264,220,187660,2,0,B|224:252|188:220,2,85
228,144,188302,1,10
228,144,188517,1,0
112,60,188731,6,0,B|60:64|36:100|20:156|64:200,2,170,0|10|0
124,144,189802,2,0,B|184:136|196:64,2,85,0|10|0
56,196,190445,1,0
84,276,190660,1,0
164,308,190874,1,10
244,332,191088,2,0,B|304:332|304:332|336:376|376:376|404:348,1,170
398,353,191624,1,0
398,353,191731,1,0
372,272,191945,1,0
396,192,192160,6,0,B|373:169|333:169|301:213|301:213|241:213,1,170,4|10
168,252,192802,2,0,B|112:280,2,42.5
244,212,193231,1,0
244,212,193445,2,0,B|244:160|264:128|296:104|360:108,1,170,10|0
416,164,194088,1,0
352,108,194302,1,10
344,192,194517,2,0,B|280:184|240:140|240:64,1,170
156,80,195160,6,0,B|148:132|172:164,2,85,10|0|4
240,76,195802,1,0
256,64,195910,1,0
276,52,196017,1,10
284,164,196231,1,0
304,160,196338,1,0
324,156,196445,1,0
440,136,196660,5,0
400,248,196874,1,10
324,156,197088,1,0
324,156,197195,1,0
324,156,197302,6,0,B|240:156,1,85,6|0
220,184,197624,1,0
240,212,197731,2,0,B|332:212,1,85,6|0
344,240,198052,1,0
324,268,198160,2,0,B|232:268,1,85,6|0
220,296,198481,1,0
240,324,198588,2,0,B|332:324,1,85,6|0
348,324,198910,1,0
368,324,199017,5,0
440,220,199231,1,0
416,96,199445,1,2
300,44,199660,1,0
176,68,199874,1,0
84,168,200088,1,0
108,292,200302,1,2
224,344,200517,1,0
256,192,200731,12,4,202017
256,192,202445,5,4
332,276,203945,5,0
180,272,204160,1,4
192,204,204802,1,0
256,260,205017,1,0
324,208,205231,1,0
256,136,205445,6,0,B|256:32,1,102.00000243187,6|4
164,224,206088,6,0,B|188:292|276:272,1,102.00000243187,0|10
344,136,206517,2,0,B|320:68|232:88,1,102.00000243187
144,104,206945,1,0
164,224,207160,1,10
272,272,207374,2,0,B|296:328|388:328|408:272|408:272|452:272,2,204.000004863739,0|0|0
272,272,208445,1,0
268,120,208660,1,0
268,120,208767,1,0
268,120,208874,1,10
268,208,209088,1,0
352,64,209302,6,0,B|376:120|348:200,1,102.00000243187,4|0
268,208,209731,1,10
268,120,209945,2,0,B|188:72|124:176|56:92,1,204.000004863739
68,212,210588,1,10
68,212,210802,2,0,B|124:248|196:196,1,102.00000243187
264,120,211231,5,0
168,216,211445,1,10
300,224,211660,5,0
192,300,211874,1,0
236,176,212088,1,0
272,304,212302,1,10
168,216,212517,5,0
300,224,212731,2,0,B|368:216|420:144|396:64,1,204.000004863739,0|10
308,124,213374,2,0,B|240:124|204:168|208:228|208:228|208:228|144:228,1,204.000004863739
64,224,214017,5,10
164,228,214231,1,0
200,324,214445,5,6
182,315,214552,1,0
165,306,214660,1,0
240,236,214874,1,6
258,245,214981,1,0
275,254,215088,1,0
308,156,215302,1,6
290,147,215410,1,0
273,138,215517,1,0
348,72,215731,1,6
366,81,215838,1,0
383,90,215945,1,0
180,220,216160,6,0,B|216:280|324:280|360:212,1,204.000004863739,4|10
356,120,216802,2,0,B|320:60|212:60|176:128,1,204.000004863739
268,176,217445,1,10
356,228,217660,2,0,B|296:276|228:276|224:232|144:232,1,204.000004863739
64,232,218302,1,10
8,144,218517,1,0
64,232,218731,1,0
108,140,218945,1,0
164,224,219160,2,0,B|224:160|288:144|368:144,1,204.000004863739,10|0
432,200,219802,6,0,B|392:236|316:220,1,102.00000243187,0|10
280,136,220231,2,0,B|276:76|212:52,1,102.00000243187
128,20,220660,1,0
116,120,220874,1,10
224,144,221088,2,0,B|264:184|280:280|208:332,2,204.000004863739
224,144,222160,5,0
136,92,222374,1,0
136,92,222481,1,0
136,92,222588,1,10
224,144,222802,1,0
136,92,223017,6,0,B|116:44|60:20,1,102.00000243187,4|0
100,164,223445,2,0,B|51:144|-4:166,1,102.00000243187,10|0
72,240,223874,2,0,B|24:260|0:316,1,102.00000243187
92,356,224302,1,10
188,320,224517,2,0,B|220:296|276:340|312:308,1,102.00000243187
272,220,224945,2,0,B|304:196|360:240|396:208,1,102.00000243187,0|10
452,160,225374,5,0
372,220,225588,1,0
292,156,225802,1,0
372,92,226017,1,10
372,220,226231,1,0
292,156,226445,6,0,B|264:100|184:96,1,102.00000243187
200,200,226874,1,10
268,276,227088,2,0,B|332:260|368:176|328:96,2,204.000004863739
144,256,228160,5,4
144,232,228267,1,0
144,208,228374,1,0
224,88,228588,5,4
224,112,228695,1,0
224,136,228802,1,0
320,256,229017,5,4
320,232,229124,1,0
320,208,229231,1,0
400,88,229445,5,4
400,112,229552,1,0
400,136,229660,1,0
256,192,229874,5,4
256,192,229981,12,0,231588
196,260,231802,6,0,B|164:216|172:180,2,85,0|10|0
316,260,232445,2,0,B|348:216|340:180,2,85,0|0|10
256,180,233088,1,0
256,192,233302,12,0,235017
372,264,235231,5,0
300,312,235445,1,10
212,308,235660,1,0
144,260,235874,1,0
256,192,236088,5,0
256,192,236195,1,0
256,192,236302,2,0,B|280:140|232:88|264:16,1,170,10|4
256,192,236838,12,0,238445
412,284,238660,5,0
352,184,238874,1,10
296,288,239088,1,0
256,176,239302,1,0
212,288,239517,1,0
156,184,239731,1,10
100,288,239945,1,0
256,192,240160,12,0,241874
340,192,242088,5,0
256,88,242302,1,10
168,192,242517,1,0
256,296,242731,2,0,B|256:124,1,170,0|10
256,128,244017,1,4
