osu file format v9

[General]
AudioFilename: 09. the first the last.mp3
AudioLeadIn: 2018
PreviewTime: 61726
Countdown: 0
SampleSet: Normal
StackLeniency: 0.2
Mode: 0
LetterboxInBreaks: 0

[Editor]
DistanceSpacing: 1.2
BeatDivisor: 2
GridSize: 4

[Metadata]
Title:the first the last (Full Ver.)
Artist:U
Creator:mercury2004
Version:Easy
Source:Makai Tenshi Djibril Episode 4
Tags:biwako ikari_kyon Front Wing hentai eroge game visual novel opening galge

[Difficulty]
HPDrainRate:2
CircleSize:3
OverallDifficulty:1
ApproachRate:2
SliderMultiplier:1.0
SliderTickRate:1

[Events]
//Background and Video events
0,0,"bg.jpg"
//Break Periods
2,89502,93742
2,96359,98028
2,158074,161671
2,164931,168528
2,171788,175600
2,202645,204314
//Storyboard Layer 0 (Background)
//Storyboard Layer 1 (Fail)
//Storyboard Layer 2 (Pass)
//Storyboard Layer 3 (Foreground)
Sprite,Foreground,Centre,"SB\Effect\Effect 2.png",320,240 F,0,205814,205868,0,1 S,0,205868,,0.6288001 M,0,205868,244011,320,239 F,0,244011,244064,1,0
Sprite,Foreground,Centre,"SB\Lyrics\1.png",320,240 S,0,6582,,0.5839999 M,0,6582,16439,268,323,373,323 F,0,6689,7225,0,1 F,0,14725,15154,1,0
Sprite,Foreground,Centre,"SB\Lyrics\2.png",320,240 S,0,12582,,0.7184001 M,0,12582,19439,459,371,369,371 F,0,12689,13225,0,1 F,0,18261,18796,1,0.1808002
Sprite,Foreground,Centre,"SB\Lyrics\3.png",320,240 S,0,15154,,0.6928002 M,0,15154,22439,394,326,494,326 F,0,15261,15796,0,1 F,0,21689,22225,1,0
Sprite,Foreground,Centre,"SB\Lyrics\4 - 6 - 21 - 23 - 39 - 41 - 43 - 50 - 52 - 54.png",320,240 M,0,18582,22439,533,394,460,394 F,0,18689,19225,0,1 F,0,22011,22439,1,0
Sprite,Foreground,Centre,"SB\Lyrics\5 - 22.png",320,240 S,0,22332,,0.7568001 M,0,22332,29296,446,327,545,327 F,0,22439,22868,0,1 F,0,28868,29296,1,0
Sprite,Foreground,Centre,"SB\Lyrics\4 - 6 - 21 - 23 - 39 - 41 - 43 - 50 - 52 - 54.png",320,240 M,0,25439,31868,518,395,457,395 F,0,25546,26082,0,1 F,0,28868,29404,1,0
Sprite,Foreground,Centre,"SB\Lyrics\8.png",320,240 S,0,34011,,0.7376 M,0,34011,40868,502,377,423,377 F,0,34118,34654,0,1 F,0,40118,40654,1,0
Sprite,Foreground,Centre,"SB\Lyrics\7.png",320,240 S,0,29082,,0.7183999 M,0,29082,34011,435,325,499,325 F,0,29189,29618,0,1 F,0,32725,33154,1,0
Sprite,Foreground,Centre,"SB\Lyrics\9.png",320,240 S,0,37225,,0.7248001 M,0,37225,43654,400,327,455,327 F,0,37332,37761,0,1 F,0,43118,43546,1,0
Sprite,Foreground,Centre,"SB\Lyrics\10th.png",320,240 S,0,40868,,0.7440001 M,0,40868,47296,431,378,368,378 F,0,40975,41404,0,1 F,0,46761,47189,1,0
Sprite,Foreground,Centre,"SB\Lyrics\11.png",320,240 S,0,44296,,0.6992002 M,0,44296,50725,337,325,389,325 F,0,44404,44832,0,1 F,0,50189,50618,1,0
Sprite,Foreground,Centre,"SB\Lyrics\12.png",320,240 S,0,47296,,0.8016002 M,0,47296,54154,563,378,468,378 F,0,47404,47832,0,1 F,0,53618,54046,1,0
Sprite,Foreground,Centre,"SB\Lyrics\14.png",320,240 S,0,57582,,0.8079998 M,0,57582,61439,458,325,508,325 F,0,57689,58118,0,1 F,0,60904,61332,1,0
Sprite,Foreground,Centre,"SB\Lyrics\13.png",320,240 S,0,54154,,0.7824004 M,0,54154,61439,554,378,467,378 F,0,54261,54689,0,1 F,0,60904,61332,1,0
Sprite,Foreground,Centre,"SB\Lyrics\15.png",320,240 M,0,61439,,424,382 M,0,61439,70011,385,383,357,383 F,0,61546,,0 F,0,61546,61975,0,1 F,0,69475,69904,1,0 M,0,70011,,338,407
Sprite,Foreground,Centre,"SB\Lyrics\16 - 34 - 45.png",320,240 S,0,67439,,0.7504001 M,0,67439,73439,356,324,428,324 F,0,67546,67975,0,1 F,0,72904,73332,1,0
Sprite,Foreground,Centre,"SB\Lyrics\17.png",320,240 S,0,70439,,0.7504001 M,0,70439,75154,410,385,361,385 F,0,70546,70975,0,1 F,0,74618,75046,1,0
Sprite,Foreground,Centre,"SB\Lyrics\18.png",320,240 S,0,75154,,0.744 M,0,75154,84154,309,333,353,333 F,0,75261,75689,0,1 F,0,83618,84046,1,0
Sprite,Foreground,Centre,"SB\Lyrics\19.png",320,240 S,0,81154,,0.84 M,0,81154,87154,426,383,364,383 F,0,81261,81689,0,1 F,0,86618,87046,1,0
Sprite,Foreground,Centre,"SB\Lyrics\20th.png",320,240 S,0,83939,,0.6992002 M,0,83939,91011,419,332,505,332 F,0,84046,84475,0,1 F,0,90475,90904,1,0
Sprite,Foreground,Centre,"SB\Lyrics\4 - 6 - 21 - 23 - 39 - 41 - 43 - 50 - 52 - 54.png",320,240 M,0,87154,91011,484,391,446,391 F,0,87261,87689,0,1 F,0,90475,90904,1,0
Sprite,Foreground,Centre,"SB\Lyrics\5 - 22.png",320,240 S,0,91011,,0.8271999 M,0,91011,96154,490,336,540,336 F,0,91118,91546,0,1 F,0,95618,96046,1,0
Sprite,Foreground,Centre,"SB\Lyrics\4 - 6 - 21 - 23 - 39 - 41 - 43 - 50 - 52 - 54.png",320,240 M,0,94439,101296,496,392,442,392 F,0,94546,94975,0,1 F,0,100761,101189,1,0
Sprite,Foreground,Centre,"SB\Lyrics\24.png",320,240 S,0,97868,,0.8335999 M,0,97868,101296,495,333,526,333 F,0,97975,98404,0,1 F,0,100761,101189,1,0
Sprite,Foreground,Centre,"SB\Lyrics\25.png",320,240 S,0,102582,,0.7312001 M,0,102582,109439,397,375,346,375 F,0,102689,103118,0,1 F,0,108904,109332,1,0
Sprite,Foreground,Centre,"SB\Lyrics\26.png",320,240 S,0,106011,,0.7440003 M,0,106011,112868,327,327,385,327 F,0,106118,106546,0,1 F,0,112332,112761,1,0
Sprite,Foreground,Centre,"SB\Lyrics\27.png",320,240 S,0,109439,,0.7440001 M,0,109439,116082,433,382,361,382 F,0,109546,109975,0,1 F,0,115546,115975,1,0
Sprite,Foreground,Centre,"SB\Lyrics\28.png",320,240 S,0,112868,,0.7887999 M,0,112868,119296,382,327,429,327 F,0,112975,113404,0,1 F,0,118761,119189,1,0
Sprite,Foreground,Centre,"SB\Lyrics\29.png",320,240 S,0,115868,,0.7696001 M,0,115868,123154,552,382,446,382 F,0,115975,116404,0,1 F,0,122618,123046,1,0
Sprite,Foreground,Centre,"SB\Lyrics\30th.png",320,240 S,0,119296,,0.7503999 M,0,119296,126154,438,327,515,327 F,0,119404,119832,0,1 F,0,125618,126046,1,0
Sprite,Foreground,Centre,"SB\Lyrics\31.png",320,240 S,0,122725,,0.8080002 M,0,122725,130011,549,383,490,383 F,0,122832,123261,0,1 F,0,129475,129904,1,0
Sprite,Foreground,Centre,"SB\Lyrics\32.png",320,240 S,0,126154,,0.7824001 M,0,126154,130011,411,325,455,325 F,0,126261,126689,0,1 F,0,129475,129904,1,0
Sprite,Foreground,Centre,"SB\Lyrics\33.png",320,240 S,0,130439,,0.8335999 M,0,130439,139011,380,391,337,391 F,0,130546,130975,0,1 F,0,138475,138904,1,0
Sprite,Foreground,Centre,"SB\Lyrics\16 - 34 - 45.png",320,240 S,0,136011,,0.712 M,0,136011,143725,334,330,404,330 F,0,136118,136546,0,1 F,0,143189,143618,1,0
Sprite,Foreground,Centre,"SB\Lyrics\35.png",320,240 S,0,139011,,0.744 M,0,139011,143725,442,387,394,387 F,0,139118,139546,0,1 F,0,143189,143618,1,0
Sprite,Foreground,Centre,"SB\Lyrics\36.png",320,240 S,0,143725,,0.8016004 M,0,143725,152725,328,339,397,339 F,0,143832,144261,0.08159988,1 F,0,152189,152618,1,0
Sprite,Foreground,Centre,"SB\Lyrics\37.png",320,240 S,0,149725,,0.8272 M,0,149725,155725,426,385,376,385 F,0,149832,150261,0,1 F,0,155189,155618,1,0
Sprite,Foreground,Centre,"SB\Lyrics\38.png",320,240 S,0,152296,,0.7759999 M,0,152296,155725,426,331,469,331 F,0,152404,152832,0,1 F,0,155189,155618,1,0
Sprite,Foreground,Centre,"SB\Lyrics\4 - 6 - 21 - 23 - 39 - 41 - 43 - 50 - 52 - 54.png",320,240 M,0,155725,161296,485,395,441,395 F,0,155832,156261,0.2159999,1 F,0,160761,161189,1,0
Sprite,Foreground,Centre,"SB\Lyrics\40th.png",320,240 M,0,163011,167296,519,335,590,335 F,0,163118,163546,0,1 F,0,166761,167189,1,0
Sprite,Foreground,Centre,"SB\Lyrics\4 - 6 - 21 - 23 - 39 - 41 - 43 - 50 - 52 - 54.png",320,240 M,0,169868,175011,503,392,435,392 F,0,169975,170404,0,1 F,0,174475,174904,1,0
Sprite,Foreground,Centre,"SB\Lyrics\42.png",320,240 M,0,176725,181868,524,331,595,331 F,0,176832,177261,0,1 F,0,181332,181761,1,0
Sprite,Foreground,Centre,"SB\Lyrics\4 - 6 - 21 - 23 - 39 - 41 - 43 - 50 - 52 - 54.png",320,240 M,0,183154,187011,496,396,469,396 F,0,183261,183689,0,1 F,0,186475,186904,1,0
Sprite,Foreground,Centre,"SB\Lyrics\44.png",320,240 S,0,202011,,0.8079998 M,0,202011,211011,321,339,380,339 F,0,202118,202546,0,1 F,0,210475,210904,1,0
Sprite,Foreground,Centre,"SB\Lyrics\16 - 34 - 45.png",320,240 S,0,208011,,0.7888 M,0,208011,214011,445,387,373,387 F,0,208118,208546,0,1 F,0,213475,213904,1,0
Sprite,Foreground,Centre,"SB\Lyrics\46.png",320,240 S,0,211011,,0.7760001 M,0,211011,216154,338,336,378,336 F,0,211118,211546,0,1 F,0,215618,216046,1,0
Sprite,Foreground,Centre,"SB\Lyrics\47.png",320,240 S,0,215725,,0.8528 M,0,215725,224725,419,398,359,398 F,0,215832,216261,0,1 F,0,224189,224618,1,0
Sprite,Foreground,Centre,"SB\Lyrics\48.png",320,240 S,0,221725,,0.7887999 M,0,221725,229868,325,323,398,323 F,0,221832,222261,0,1 F,0,229332,229761,1,0
Sprite,Foreground,Centre,"SB\Lyrics\4 - 6 - 21 - 23 - 39 - 41 - 43 - 50 - 52 - 54.png",320,240 M,0,227725,231582,476,396,424,396 F,0,227832,228261,0,1 F,0,231046,231475,1,0
Sprite,Foreground,Centre,"SB\Lyrics\51.png",320,240 S,0,231582,,0.9295999 M,0,231582,235868,503,337,579,337 F,0,231689,232118,0,1 F,0,235332,235761,1,0
Sprite,Foreground,Centre,"SB\Lyrics\4 - 6 - 21 - 23 - 39 - 41 - 43 - 50 - 52 - 54.png",320,240 M,0,235011,238868,473,398,435,398 F,0,235118,235546,0,1 F,0,238332,238761,1,0
Sprite,Foreground,Centre,"SB\Lyrics\53.png",320,240 M,0,238439,242725,497,326,561,326 F,0,238546,238975,0,1 F,0,242189,242618,1,0
Sprite,Foreground,Centre,"SB\Lyrics\4 - 6 - 21 - 23 - 39 - 41 - 43 - 50 - 52 - 54.png",320,240 M,0,241868,,471,387 S,0,241868,244011,1,1.0832 F,0,241975,242404,0,1 F,0,244011,244064,1,0
Sprite,Foreground,Centre,"SB\Lyrics\49.png",320,240 S,0,224725,,0.8207999 M,0,224725,227725,495,383,453,383 F,0,224832,225261,0,1 F,0,227189,227618,1,0
Sprite,Foreground,Centre,"SB\Lyrics\extra.png",320,240 S,0,50725,,0.7952 M,0,50725,57582,325,325,392,325 F,0,50832,51261,0,1 F,0,57046,57475,1,0
Sprite,Foreground,Centre,"SB\Effect\flash.jpg",320,240 F,0,205654,205868,0,1 F,0,205868,206296,1,0 F,0,215939,,0 F,0,216046,216154,0.1783664,0.3583999 F,0,216154,216368,0.3583999,0 F,0,216368,231855,0 F,0,231855,231865,0 F,0,231865,231875,0 F,0,231875,231885,0 F,0,231885,231895,0 F,0,231895,231905,0 F,0,231905,231915,0 F,0,231915,231925,0 F,0,231925,231935,0 F,0,231935,231945,0 F,0,231945,231955,0 F,0,231955,231965,0 F,0,231965,231975,0 F,0,231975,231985,0 F,0,231985,231995,0 F,0,231995,232005,0 F,0,232005,232015,0 F,0,232015,232025,0 F,0,232025,232035,0 F,0,232035,232045,0 F,0,232045,232065,0 F,0,232065,232075,0 F,0,232075,232085,0 F,0,232085,232095,0 F,0,232095,232105,0 F,0,232105,232115,0 F,0,232115,232125,0 F,0,232125,232145,0 F,0,232145,243796,0 F,0,243796,244011,0,1 F,0,244011,244439,1,0
//Storyboard Sound Samples
//Background Colour Transformations
3,100,163,162,255

[TimingPoints]
160,428.571428571429,4,1,0,30,1,0
61874,-83.3333333333333,4,1,0,30,0,1
75481,-100,4,1,0,30,0,0
75589,-83.3333333333333,4,1,0,30,0,1
89302,-100,4,1,0,30,0,0
130445,-83.3333333333333,4,1,0,30,0,1
144053,-100,4,1,0,30,0,0
144160,-83.3333333333333,4,1,0,30,0,1
157874,-100,4,2,0,30,0,0
183588,-100,4,1,0,30,0,0
205874,-83.3333333333333,4,1,0,30,0,1
216053,-100,4,1,0,30,0,0
216160,-83.3333333333333,4,1,0,30,0,1
244017,-100,4,1,0,30,0,0

[Colours]
Combo1 : 215,163,91
Combo2 : 242,164,166
Combo3 : 143,143,143

[HitObjects]
72,168,34445,2,0,B|120:216|184:152,1,99.9999999999999,4|8
264,172,35302,2,0,B|312:220|376:156,1,99.9999999999999,0|8
308,88,36160,2,0,B|268:36|164:36|120:100,1,200
212,148,37445,1,8
164,236,37874,6,0,B|104:268|40:220,2,99.9999999999999,0|8|0
212,324,39160,1,8
264,236,39588,2,0,B|324:268|388:220,2,99.9999999999999,0|8|0
164,268,41302,6,0,B|152:208|80:204,1,99.9999999999999,0|8
96,104,42160,2,0,B|152:101|164:41,1,99.9999999999999,0|8
264,48,43017,2,0,B|275:106|332:108,1,99.9999999999999,0|8
96,260,44731,6,0,B|128:312|240:312|280:252,1,200
192,204,46017,1,8
160,108,46445,2,0,B|200:48|260:24|340:52,1,200
384,64,47517,6,0,B|428:136,1,50,0|8
404,156,47945,2,0,B|348:184|288:144|240:212,1,150,0|8
160,188,49017,1,0
256,304,49660,5,8
156,316,50088,1,0
84,248,50517,1,8
100,148,50945,2,0,B|96:56|212:32,1,150,0|4
256,108,52017,5,8
256,208,52445,1,0
356,320,53088,6,0,B|420:304|452:228,1,99.9999999999999,8|0
352,204,53945,2,0,B|252:220|240:264|252:324|128:328,1,250,8|4
52,292,55445,5,8
128,224,55874,1,0
184,84,56517,6,0,B|256:112|240:176|276:232|332:236|332:236,1,200,0|0
412,256,57802,1,0
307,364,58445,1,4
223,304,58874,5,8
124,304,59302,1,0
124,204,59731,1,8
172,116,60160,6,0,B|188:68|240:24,1,99.9999999999999,0|8
304,100,61017,2,0,B|352:56|408:48,1,99.9999999999999,0|8
476,136,61874,6,0,B|504:216|484:264|440:312,1,180.000004291534,4|0
332,332,62945,1,0
212,332,63374,1,0
128,244,63802,6,0,B|44:244,1,60.0000014305114,0|8
16,136,64445,1,0
116,140,64874,1,8
236,140,65302,6,0,B|252:76|312:44|404:60|428:104,2,240.000005722046
64,208,67660,2,0,B|64:280,1,60.0000014305114
168,208,68302,1,8
252,300,68731,6,0,B|268:364|328:400|420:380|444:336,2,240.000005722046
200,192,70874,1,8
80,192,71302,1,0
140,88,71731,1,8
240,92,72160,6,0,B|324:64|412:112|480:88,2,240.000005722046,0|0|4
140,84,74302,1,12
52,164,74731,1,4
44,284,75160,1,12
132,332,75588,6,0,B|188:372|244:304|340:352,2,200,4|0|0
88,220,77731,1,8
204,196,78160,2,0,B|260:156|332:204,1,120.000002861023,0|8
424,256,79017,6,0,B|464:196|464:100|400:24,2,240.000005722046
256,88,81588,1,0
176,176,82017,1,8
72,124,82445,6,0,B|32:184|32:280|96:356,2,240.000005722046
300,48,85017,1,0
224,140,85445,1,8
312,224,85874,1,0
204,320,86731,6,0,B|104:328|48:244|52:152,2,240.000005722046
324,320,88874,1,8
324,220,89302,1,4
256,160,95302,5,0
200,264,95731,1,8
320,264,96159,1,4
256,192,99588,12,0,102159
192,264,103017,6,0,B|204:336|260:336|320:332|324:260,1,200,4|0
256,188,104302,1,8
324,112,104731,2,0,B|312:40|256:40|196:44|192:116,2,200
416,192,106874,5,8
176,192,107731,1,8
256,284,108159,2,0,B|328:284,2,50,0|0|8
256,44,109445,5,8
308,132,109874,2,0,B|340:192|292:236,1,99.9999999999999,0|8
204,224,110731,2,0,B|172:165|210:132,2,99.9999999999999,0|8|0
256,308,112017,1,8
64,192,112874,5,8
164,188,113302,2,0,B|212:232|268:140|320:208,2,150,0|0|8
64,192,115017,2,0,B|76:268|132:312|192:324|216:324,1,200
444,192,116731,6,0,B|364:232|308:160|236:192,1,200,4|0
164,236,118017,1,8
112,152,118445,2,0,B|140:80|208:48|260:80|280:72,1,200
268,172,119731,1,8
352,224,120159,6,0,B|324:296|256:328|204:296|180:296,1,200,4|0
112,236,121445,1,8
68,144,121874,2,0,B|124:108|176:188|276:124,1,200
328,208,123159,6,0,B|392:208,2,50,8|0|4
288,300,124017,1,8
192,268,124445,2,0,B|216:188|184:108|88:120,1,200
12,120,125731,1,8
64,36,126159,6,0,B|132:12|168:72|264:32,1,200,0|4
348,84,127445,1,8
432,28,127874,2,0,B|472:76|468:140|440:180|392:200,2,200
332,20,130017,1,8
256,84,130445,6,0,B|256:328,1,240.000005722046,4|0
164,248,131731,1,8
76,328,132159,1,0
28,92,133017,5,0
124,20,133445,1,8
200,116,133874,2,0,B|216:168|300:168|388:168|408:112,2,240.000005722046
68,316,136445,6,0,B|-8:316,2,60.0000014305114,0|0|8
80,196,137302,2,0,B|152:208|200:256|188:316|280:316,1,240.000005722046,4|0
396,312,138588,1,8
488,232,139017,1,0
340,44,139874,5,0
288,152,140302,1,8
236,44,140731,2,0,B|152:40|160:104|140:172|32:176,1,240.000005722046
256,300,142445,6,0,B|400:300,3,120.000002861023,4|12|4|12
436,196,144159,6,0,B|488:132|476:60|420:16|352:24,1,240.000005722046,4|0
264,92,145445,1,8
164,28,145874,1,0
40,232,146731,5,0
160,232,147159,1,8
100,128,147588,2,0,B|144:72|200:60|256:68|308:128,2,240.000005722046
196,348,150159,6,0,B|112:348,2,60.0000014305114,0|0|8
316,348,151017,2,0,B|372:348|436:328|460:256|460:188,2,240.000005722046,4|0|0
132,196,153588,2,0,B|76:196|56:240|16:192,1,120.000002861023,0|8
92,100,154445,2,0,B|164:92|200:132|224:160|228:220|308:216,1,240.000005722046
56,160,156159,6,0,B|56:40,2,120.000002861023,0|8|0
132,256,157445,1,8
204,164,157874,1,4
256,60,163231,5,0
256,108,163445,1,0
164,148,163874,5,0
256,188,164302,1,0
348,148,164731,1,4
196,272,170088,6,0,B|212:324|308:320|312:272,1,150
256,196,171159,1,0
256,96,171588,1,4
256,192,177160,6,0,B|256:72,2,99.9999999999999
256,192,178445,12,0,182731
160,120,183588,6,0,B|108:132|104:184|104:272|152:284,1,200
228,348,184874,1,8
324,316,185302,1,4
248,260,185731,6,0,B|180:224|168:160|208:116|188:44,1,200,8|8
92,96,187017,2,0,B|140:128|184:60|212:48|284:48,1,200
376,48,188302,5,8
456,112,188731,2,0,B|432:110|388:138|376:190|344:202|284:202,1,200
224,124,190017,1,8
124,120,190445,2,0,B|124:180|136:212|188:224|216:268|220:320,1,200
296,348,191731,6,0,B|368:348,2,50,8|0|4
212,292,192588,1,8
104,304,193017,2,0,B|16:240|8:184|8:188|16:128,2,200
152,192,195159,1,8
272,192,195588,6,0,B|320:232|372:196|372:196|472:196,1,200
400,296,196874,1,8
280,296,197302,2,0,B|192:276|180:196|180:196|180:196|124:196,1,200,4|4
256,192,199017,12,4,202445
256,272,205874,6,0,B|256:196|256:196|256:92|144:80,1,240.000005722046,4|0
72,164,207159,1,8
120,272,207588,2,0,B|156:320|208:340|280:360|344:360,1,240.000005722046
420,276,208874,5,8
432,156,209302,1,4
320,216,209731,5,8
228,296,210159,2,0,B|160:264|224:192|180:52,1,240.000005722046
120,172,211445,1,8
56,72,211874,2,0,B|17:193|81:265|13:297,1,240.000005722046
268,260,213588,6,0,B|316:320|396:344|436:336|496:280,1,240.000005722046,0|4
484,176,214874,1,12
440,64,215302,1,4
328,108,215731,1,12
232,32,216159,6,0,B|124:32|120:112|120:112|16:112,1,240.000005722046,4|0
36,232,217445,1,8
156,232,217874,1,0
384,308,218731,6,0,B|264:308,1,120.000002861023,0|8
200,204,219588,2,0,B|448:204,1,240.000005722046
384,100,220874,2,0,B|264:100,1,120.000002861023,8|0
60,192,222159,6,0,B|-4:192,2,60.0000014305114,0|0|8
152,272,223017,5,4
272,276,223445,1,8
356,188,223874,1,0
236,184,224302,1,8
164,88,224731,6,0,B|248:40|308:112|400:72,2,240.000005722046
40,296,227302,5,0
132,220,227731,1,8
220,300,228159,1,4
388,132,229017,5,4
296,208,229445,1,12
208,128,229874,1,4
256,192,230088,12,0,231588
192,192,232445,5,0
320,192,232874,1,0
256,192,233302,12,0,235017
196,280,235874,5,0
316,280,236302,1,8
256,192,236731,12,0,238445
196,280,239302,6,0,B|228:312|276:312|324:264,1,120.000002861023,0|8
256,192,240159,12,0,241874
256,296,242731,5,0
304,184,243159,2,0,B|288:136|216:136|200:208,2,120.000002861023,8|0|0
