osu file format v9

[General]
AudioFilename: Sakura Saku.mp3
AudioLeadIn: 0
PreviewTime: 64052
Countdown: 0
SampleSet: Soft
StackLeniency: 0.7
Mode: 0
LetterboxInBreaks: 1
SkinPreference:Default

[Editor]
DistanceSpacing: 1
BeatDivisor: 4
GridSize: 8

[Metadata]
Title:Sakura Saku
Artist:U
Creator:Vicho-kun
Version:Vicho
Source:Sengoku Tenshi Djibril
Tags:Makai Tenshi Jiburiru 5 Hentai Game Eroge Hinacle climbb65588 Kenezz KenezzEdward Verdisphena

[Difficulty]
HPDrainRate:6
CircleSize:4
OverallDifficulty:7
ApproachRate:8
SliderMultiplier:1.8
SliderTickRate:1

[Events]
//Background and Video events
0,0,"BG.jpg"
Video,0,"Sengoku Tenshi Djibril OP.avi"
//Break Periods
//Storyboard Layer 0 (Background)
//Storyboard Layer 1 (Fail)
//Storyboard Layer 2 (Pass)
//Storyboard Layer 3 (Foreground)
Sprite,Foreground,Centre,"glow.png",320,240 F,0,9324,9869,0,1 M,0,9687,11869,173,182 M,2,11869,13051,173,182,716,206
Sprite,Foreground,Centre,"flower.png",320,240 C,0,9324,,108,91,124 M,0,9324,9597,59,157,91,170 F,0,9324,9869,0,0.41984 R,0,9324,11869,0,2.80576 M,0,9597,11869,91,170,116,179 S,0,9615,,0.6313602 M,2,11869,13051,116,179,721,275 R,0,11869,13051,2.80576,6.20544
Sprite,Foreground,Centre,"flower.png",320,240 S,0,9324,,0.744 C,0,9324,,253,163,177 M,0,9324,9687,178,267,175,252 F,0,9324,9869,0,0.8105602 R,0,9324,11869,0,-1.59744 M,0,9687,11869,175,252,177,242 M,2,11869,13051,177,242,738,193 R,0,11869,13051,-1.59744,2.7648
Sprite,Foreground,Centre,"flower.png",320,240 M,0,9324,9687,216,126,215,150 F,0,9324,9869,0,0.8156799 R,0,9324,11869,0,-1.392641 M,0,9687,11869,215,150 M,2,11869,13051,215,150,770,175 R,0,11869,13051,-1.392641,1.269759
Sprite,Foreground,Centre,"cloud.png",320,240 F,0,66051,66233,0,1 M,0,66051,67440,217,303,260,303 S,0,67012,,1.16384
//Storyboard Sound Samples
//Background Colour Transformations
3,100,163,162,255

[TimingPoints]
597,363.636363636364,4,1,0,90,1,0
3052,-200,4,2,0,90,0,0
11961,-100,4,2,1,90,0,0
64597,-100,4,2,1,90,0,1
74778,-100,4,2,1,90,0,0
76234,-100,4,2,1,90,0,1
96506,-100,4,2,1,90,0,1
99234,-100,4,2,1,90,0,1
99506,-100,4,2,1,90,0,0

[Colours]
Combo1 : 255,89,89
Combo2 : 0,128,255
Combo3 : 182,248,92
Combo4 : 237,39,123

[HitObjects]
176,144,3142,1,0
176,144,3324,1,0
176,144,3506,2,0,B|232:72|336:64,1,180,0|2
352,224,4597,1,0
352,224,4960,2,0,B|296:296|192:312,1,180,0|2
112,200,6051,5,0
112,200,6233,1,0
112,200,6415,2,0,B|160:128|144:24,1,180,0|2
360,96,7506,1,0
360,96,7869,2,0,B|312:168|328:272,1,180,0|2
208,328,8960,5,0
128,344,9142,1,0
88,280,9324,2,0,B|104:184|56:104,1,180,0|2
224,40,10415,1,0
224,40,10778,2,0,B|208:136|264:216,1,180,0|2
288,328,11869,1,0
256,192,12233,12,0,14778
112,128,15142,5,4
112,128,15324,2,0,B|144:96|200:96,1,90,2|4
336,152,15687,1,2
336,152,15869,2,0,B|304:184|248:184,2,90,0|2|4
384,56,16415,5,2
472,120,16597,1,0
472,120,16778,2,0,B|488:160|480:208,1,90,2|4
408,272,17142,1,2
408,272,17324,2,0,B|360:256|312:272,1,90,0|2
152,328,17687,2,0,B|200:344|248:328,1,90,4|2
224,232,18051,6,0,B|128:184|112:96,1,180,0|8
280,72,18597,1,0
280,72,18778,2,0,B|376:120|392:208,1,180,0|8
384,296,19324,2,0,B|416:328|472:320,2,90
296,304,19869,2,0,B|248:304|216:349,1,90,8|0
128,320,20233,1,0
72,248,20415,5,2
55,219,20506,5,0
55,185,20597,1,2
72,157,20687,1,0
100,140,20778,2,0,B|150:123|173:77,1,90,2|4
248,40,21142,6,0,B|296:56|320:104,1,90,2|4
392,144,21506,2,0,B|440:128|464:88,2,90,2|0|2
328,216,22051,1,4
256,280,22233,1,2
184,216,22415,1,0
120,144,22597,2,0,B|72:128|48:88,2,90,2|4|2
216,128,23142,2,0,B|248:88|304:88,1,90,0|2
376,136,23506,1,4
376,136,23687,1,2
376,136,23869,6,0,B|328:216|352:312,1,180,0|8
232,320,24415,1,0
136,248,24597,2,0,B|184:168|160:72,1,180,0|8
232,24,25142,2,0,B|280:8|320:16,1,90
360,96,25506,5,0
360,96,25687,2,0,B|344:144|352:184,1,90,8|0
288,248,26051,5,2
264,288,26142,1,0
224,312,26233,1,2
176,320,26324,1,0
136,312,26415,1,2
96,288,26506,1,0
72,248,26597,1,2
64,208,26687,1,0
72,168,26778,6,0,B|104:80|208:64,1,180,4|8
248,144,27324,1,0
248,144,27506,2,0,B|304:224|408:224,1,180,0|8
464,288,28051,1,0
464,288,28233,2,0,B|432:200|480:112,2,180,0|8|0
384,328,29142,1,0
384,328,29233,1,0
384,328,29324,2,0,B|304:288|208:320,1,180,8|0
120,344,29869,6,0,B|72:336|48:288,1,90,0|8
112,224,30233,1,0
88,136,30415,1,0
176,112,30597,1,0
176,112,30687,1,0
176,112,30778,2,0,B|224:120|264:88,1,90,8|0
336,136,31142,2,0,B|368:56|472:24,2,180,0|8|0
352,224,32051,1,0
352,224,32142,1,0
352,224,32233,1,8
304,296,32415,1,8
304,296,32597,6,0,B|232:248|128:264,1,180,0|8
56,208,33142,1,0
56,208,33324,2,0,B|72:112|168:72,1,180,0|8
256,56,33869,1,0
256,56,34051,2,0,B|320:120|424:112,2,180,0|8|0
192,120,34960,1,0
192,120,35051,1,0
192,120,35142,1,8
232,200,35324,1,8
232,200,35506,6,0,B|136:224|96:312,2,180,0|8|0
288,272,36415,2,0,B|304:320|352:336,1,90,0|8
416,272,36778,1,0
416,272,36960,2,0,B|480:208|464:104,1,180,0|8
408,32,37506,1,0
336,88,37687,1,0
256,48,37869,1,8
256,48,37960,1,0
256,48,38051,1,8
224,136,38233,6,0,B|192:168|136:152,1,90,0|4
80,88,38597,2,0,B|56:48|8:32,2,90,2|8|2
56,176,39142,2,0,B|-8:240|0:344,1,180,0|8
88,352,39687,1,2
88,352,39778,1,0
88,352,39869,2,0,B|160:296|264:320,1,180,0|8
344,352,40415,2,0,B|352:304|400:280,1,90,2|0
456,216,40778,1,2
400,144,40960,5,8
400,104,41051,1,0
384,64,41142,1,2
352,40,41233,1,0
312,32,41324,1,0
240,88,41506,2,0,B|240:136|200:168,1,90,2|8
88,176,41869,2,0,B|88:128|128:96,1,90,2|0
176,24,42233,1,2
176,24,42324,1,0
176,24,42415,1,8
240,88,42596,1,2
240,176,42778,6,0,B|336:192|384:280,2,180,0|8|0
152,200,43687,1,2
152,200,43778,1,0
152,200,43869,1,8
184,288,44051,1,10
184,288,44233,6,0,B|128:360|24:360,1,180,4|8
32,272,44778,1,2
32,272,44960,2,0,B|-16:192|24:96,1,180,0|8
112,120,45506,1,2
112,120,45596,1,0
112,120,45687,2,0,B|160:120|200:80,1,90,0|2
264,32,46051,2,0,B|312:48|328:96,1,90,8|2
400,144,46415,1,0
352,224,46596,1,2
352,224,46687,1,0
352,224,46778,1,8
272,176,46960,6,0,B|232:200|224:256,1,90,2|0
208,336,47324,1,2
208,336,47415,1,0
208,336,47506,1,8
120,344,47687,1,2
120,344,47869,2,0,B|32:296|32:192,1,180,0|8
96,136,48415,1,2
96,136,48506,1,0
96,136,48596,1,0
184,168,48778,5,2
184,168,48960,2,0,B|232:160|256:112,1,90,8|2
320,56,49324,1,0
362,61,49415,1,0
396,93,49506,1,2
406,132,49596,1,0
393,177,49687,1,8
472,224,49869,1,8
400,280,50051,6,0,B|304:288|248:368,1,180,4|0
168,328,50596,2,0,B|120:320|96:280,1,90,0|2
104,152,50960,2,0,B|152:160|176:200,1,90,0|8
248,256,51324,1,0
248,256,51415,1,0
248,256,51506,2,0,B|312:184|280:80,1,180,0|0
328,8,52051,1,0
408,56,52233,2,0,B|492:101|510:197,1,180,2|8
480,280,52778,5,0
400,328,52960,1,0
328,272,53142,1,0
360,184,53324,1,0
360,184,53506,1,0
360,184,53687,2,0,B|312:104|216:80,1,180,2|8
56,96,54233,1,0
56,96,54415,2,0,B|104:176|200:200,1,180
272,248,54960,5,0
272,248,55051,1,0
272,248,55142,2,0,B|256:296|272:336,1,90,2|0
416,280,55506,2,0,B|432:232|416:192,1,90,8|0
400,152,55778,1,0
368,120,55869,2,0,B|264:112|208:48,1,180,4|0
120,16,56415,1,0
104,104,56596,2,0,B|56:184|80:288,1,180,2|8
136,352,57142,1,0
224,336,57324,2,0,B|272:256|248:152,1,180
250,162,57869,1,0
250,162,58051,1,2
256,72,58233,1,0
344,56,58415,5,8
376,53,58506,1,0
407,69,58596,1,8
424,97,58687,1,0
426,129,58778,2,0,B|418:182|448:222,1,90,4|0
400,296,59142,6,0,B|354:324|305:312,1,90,8|0
288,224,59506,2,0,B|256:192|208:184,2,90,0|0|8
224,288,60051,2,0,B|192:320|184:368,2,90
144,248,60596,2,0,B|48:224|8:136,1,180,8|0
64,72,61142,2,0,B|112:72|144:32,1,90,0|8
224,72,61506,1,0
224,72,61596,1,0
224,72,61687,1,4
240,160,61869,6,0,B|264:200|320:200,1,90,2|8
360,128,62233,1,2
448,104,62415,1,8
496,184,62596,1,2
496,184,62778,1,8
440,256,62960,1,2
352,224,63142,5,10
328,264,63233,1,0
288,288,63324,1,2
240,296,63415,1,0
200,288,63506,1,10
160,264,63596,1,0
136,224,63687,1,2
128,184,63778,1,0
136,136,63869,1,10
160,96,63960,1,0
208,80,64051,1,10
296,96,64233,5,10
296,96,64415,1,2
328,184,64596,2,0,B|376:200|424:184,1,90,4|0
472,56,64960,2,0,B|432:40|384:56,1,90,8|2
296,48,65324,1,2
216,96,65506,2,0,B|168:112|120:96,1,90,0|8
96,184,65869,1,2
96,184,65960,1,0
96,184,66051,1,2
40,256,66233,2,0,B|24:304|40:344,1,90,0|8
184,288,66596,2,0,B|200:240|184:200,1,90,2|2
208,112,66960,5,0
208,112,67142,2,0,B|244:76|287:73,1,90,8|2
376,88,67506,2,0,B|392:40|376:0,2,90,2|0|8
376,88,68051,1,2
352,176,68233,1,2
272,224,68415,1,0
272,224,68506,1,0
272,224,68596,1,8
344,280,68778,6,0,B|392:296|440:272,2,90,2|2|0
264,320,69324,2,0,B|176:280|88:320,1,180,8|2
40,248,69869,2,0,B|76:218|75:167,1,90,0|8
96,80,70233,1,0
168,136,70415,1,6
168,136,70596,1,0
256,96,70778,6,0,B|344:56|432:96,2,180,8|2|8
256,184,71687,1,0
176,232,71869,2,0,B|136:256|88:232,2,90,2|0|8
256,280,72415,1,2
256,280,72506,1,0
256,280,72596,1,2
256,184,72778,1,0
336,144,72960,5,8
416,184,73142,1,0
496,144,73324,2,0,B|512:96|496:48,1,90,2|0
336,16,73687,2,0,B|320:64|336:112,1,90,8|0
368,328,74051,2,0,B|384:280|368:232,1,90,2|0
208,192,74415,2,0,B|192:240|208:288,1,90,8|0
256,192,74778,12,0,75869
208,264,76051,5,2
208,264,76142,1,0
208,264,76233,2,0,B|256:344|360:344,1,180,6|8
376,256,76778,1,2
376,256,76869,1,0
376,256,76960,2,0,B|408:216|456:216,1,90,2|0
488,128,77324,1,8
400,96,77506,1,2
400,96,77596,1,0
400,96,77687,2,0,B|360:80|312:88,1,90,2|0
208,176,78051,1,8
208,176,78233,2,0,B|248:192|296:184,1,90,2|2
400,192,78596,5,0
448,280,78778,1,8
440,312,78869,1,0
416,336,78960,1,2
384,344,79051,1,0
352,336,79142,2,0,B|304:312|256:328,1,90,2|0
184,280,79506,2,0,B|168:232|184:184,1,90,8|2
344,152,79869,2,0,B|360:200|344:248,2,90,2|0|8
256,120,80415,5,2
256,120,80506,1,0
256,120,80596,2,0,B|240:72|256:24,2,90,2|0|8
208,200,81142,1,2
208,200,81324,2,0,B|160:216|120:200,1,90,2|0
56,144,81687,1,8
56,96,81778,1,0
80,56,81869,1,8
128,40,81960,1,0
168,48,82051,6,0,B|200:80|256:80,1,90,6|0
424,64,82415,2,0,B|392:32|336:32,2,90,8|0|2
432,152,82960,2,0,B|408:192|416:240,1,90,0|8
384,320,83324,1,0
384,320,83415,1,0
384,320,83506,1,2
296,320,83687,2,0,B|256:296|208:304,1,90,0|8
128,320,84051,1,2
128,320,84233,2,0,B|64:248|80:144,1,180,2|8
168,136,84778,6,0,B|192:176|240:184,1,90,0|2
368,128,85142,2,0,B|344:88|296:80,2,90,0|8|0
336,216,85687,2,0,B|240:248|216:352,1,180,2|8
128,368,86233,1,0
64,304,86415,1,2
112,224,86596,1,2
88,192,86687,1,0
88,152,86778,1,2
96,120,86869,1,0
128,96,86960,1,2
168,88,87051,1,0
208,96,87142,2,0,B|272:160|376:144,1,180,2|8
456,104,87687,5,0
456,104,87869,2,0,B|520:168|512:272,1,180,6|8
440,328,88415,2,0,B|400:296|352:304,1,90,0|2
280,336,88778,1,0
280,336,88960,1,8
216,264,89142,1,0
136,160,89324,5,2
136,288,89506,1,2
216,184,89687,1,10
88,224,89869,1,2
88,224,90051,2,0,B|17:161|33:57,1,180,2|8
120,32,90596,5,0
120,32,90687,1,0
120,32,90778,2,0,B|192:80|296:64,1,180,2|8
384,40,91324,1,0
384,40,91506,2,0,B|456:96|448:208,1,180,2|8
360,208,92051,1,0
296,336,92233,5,2
224,208,92415,1,2
160,336,92596,1,10
88,208,92778,1,2
88,208,92960,2,0,B|40:120|80:32,1,180,0|8
168,40,93506,5,0
176,88,93596,1,0
200,128,93687,2,0,B|280:176|384:144,1,180,6|8
448,104,94233,2,0,B|488:136|488:184,1,90,0|2
432,304,94596,2,0,B|392:272|392:224,1,90,0|8
328,160,94960,1,0
328,160,95142,2,0,B|272:88|168:88,1,180,2|8
80,104,95687,2,0,B|56:64|64:16,2,90,0|2|0
80,104,96233,1,8
256,192,96596,12,0,99142
112,128,99506,5,4
112,128,99687,2,0,B|144:96|200:96,1,90,2|4
232,176,100051,1,2
232,176,100233,2,0,B|200:208|200:264,2,90,0|2|4
304,120,100778,5,2
376,168,100960,1,0
464,144,101142,2,0,B|480:104|472:56,1,90,2|4
384,80,101506,1,2
312,32,101687,2,0,B|264:16|216:32,1,90,0|2
88,120,102051,2,0,B|136:136|184:120,1,90,4|2
264,128,102415,6,0,B|352:168|376:264,1,180,0|8
280,360,102960,1,0
280,360,103142,2,0,B|192:320|168:224,1,180,0|8
200,144,103687,2,0,B|232:176|288:168,2,90
144,72,104233,2,0,B|96:72|64:112,1,90,8|0
65,109,104506,1,0
65,109,104596,1,0
112,192,104778,5,2
95,221,104869,1,0
95,255,104960,1,2
112,283,105051,1,0
140,300,105142,1,2
