osu file format v9

[General]
AudioFilename: Sakura Saku.mp3
AudioLeadIn: 0
PreviewTime: 64052
Countdown: 0
SampleSet: Soft
StackLeniency: 0.7
Mode: 0
LetterboxInBreaks: 1
SkinPreference:Default

[Editor]
Bookmarks: 64597,105688
DistanceSpacing: 1.5
BeatDivisor: 4
GridSize: 4

[Metadata]
Title:Sakura Saku
Artist:U
Creator:Vicho-kun
Version:Verdis
Source:Sengoku Tenshi Djibril
Tags:Makai Tenshi Jiburiru 5 Hentai Game Eroge Hinacle climbb65588 Kenezz KenezzEdward Verdisphena

[Difficulty]
HPDrainRate:4
CircleSize:4
OverallDifficulty:2
ApproachRate:3
SliderMultiplier:1.1
SliderTickRate:1

[Events]
//Background and Video events
0,0,"BG.jpg"
Video,0,"Sengoku Tenshi Djibril OP.avi"
//Break Periods
//Storyboard Layer 0 (Background)
//Storyboard Layer 1 (Fail)
//Storyboard Layer 2 (Pass)
//Storyboard Layer 3 (Foreground)
Sprite,Foreground,Centre,"glow.png",320,240 F,0,9324,9869,0,1 M,0,9687,11869,173,182 M,2,11869,13051,173,182,716,206
Sprite,Foreground,Centre,"flower.png",320,240 C,0,9324,,108,91,124 M,0,9324,9597,59,157,91,170 F,0,9324,9869,0,0.41984 R,0,9324,11869,0,2.80576 M,0,9597,11869,91,170,116,179 S,0,9615,,0.6313602 M,2,11869,13051,116,179,721,275 R,0,11869,13051,2.80576,6.20544
Sprite,Foreground,Centre,"flower.png",320,240 S,0,9324,,0.744 C,0,9324,,253,163,177 M,0,9324,9687,178,267,175,252 F,0,9324,9869,0,0.8105602 R,0,9324,11869,0,-1.59744 M,0,9687,11869,175,252,177,242 M,2,11869,13051,177,242,738,193 R,0,11869,13051,-1.59744,2.7648
Sprite,Foreground,Centre,"flower.png",320,240 M,0,9324,9687,216,126,215,150 F,0,9324,9869,0,0.8156799 R,0,9324,11869,0,-1.392641 M,0,9687,11869,215,150 M,2,11869,13051,215,150,770,175 R,0,11869,13051,-1.392641,1.269759
Sprite,Foreground,Centre,"cloud.png",320,240 F,0,66051,66233,0,1 M,0,66051,67440,217,303,260,303 S,0,67012,,1.16384
//Storyboard Sound Samples
//Background Colour Transformations
3,100,163,162,255

[TimingPoints]
597,363.636363636364,4,2,0,85,1,0
3143,-125,4,2,0,85,0,0
12325,-100,4,2,1,5,0,0
14870,-100,4,2,1,80,0,0
26779,-100,4,2,0,80,0,0
27325,-100,4,2,1,80,0,0
29688,-100,4,2,0,80,0,0
30234,-100,4,2,1,80,0,0
32597,-100,4,2,0,80,0,0
32961,-100,4,2,1,80,0,0
36961,-100,4,2,0,80,0,0
37325,-100,4,2,1,80,0,0
38416,-100,4,2,0,80,0,0
38779,-100,4,2,1,80,0,0
44234,-100,4,2,0,80,0,0
44597,-100,4,2,1,80,0,0
48597,-100,4,1,0,70,0,0
48961,-100,4,2,1,80,0,0
50052,-100,4,2,0,80,0,0
51143,-100,4,2,1,80,0,0
55506,-100,4,2,0,80,0,0
56961,-100,4,2,1,80,0,0
58779,-100,4,2,0,80,0,0
59143,-100,4,2,1,80,0,0
60961,-100,4,2,0,80,0,0
64597,-100,4,2,0,80,0,1
66416,-100,4,2,1,80,0,1
67506,-100,4,2,0,80,0,1
69325,-100,4,2,1,80,0,1
70416,-100,4,2,0,80,0,1
70779,-100,4,2,1,80,0,1
71143,-100,4,2,0,80,0,1
71506,-100,4,2,1,80,0,1
71870,-100,4,2,0,80,0,1
72961,-100,4,2,1,80,0,1
73325,-100,4,2,0,80,0,1
74416,-100,4,2,1,80,0,1
74778,-100,4,2,0,80,0,0
75143,-100,4,2,1,80,0,0
75506,-100,4,2,0,80,0,0
75870,-100,4,2,1,80,0,0
76234,-100,4,2,0,80,0,1
76597,-100,4,2,1,80,0,1
76961,-100,4,2,0,80,0,1
77325,-100,4,2,1,80,0,1
77688,-100,4,2,0,80,0,1
78052,-100,4,2,1,80,0,1
79143,-100,4,2,0,80,0,1
80234,-100,4,2,1,80,0,1
80597,-100,4,2,0,80,0,1
80961,-100,4,2,1,80,0,1
81143,-100,4,2,0,80,0,1
81688,-100,4,2,1,80,0,1
82052,-100,4,2,0,80,0,1
82416,-100,4,2,1,80,0,1
83506,-100,4,2,0,80,0,1
83870,-100,4,2,1,80,0,1
84961,-100,4,2,0,80,0,1
85325,-100,4,2,1,80,0,1
85688,-100,4,2,0,80,0,1
86052,-100,4,2,1,80,0,1
86416,-100,4,2,0,80,0,1
87506,-100,4,2,1,80,0,1
87825,-100,4,2,0,80,0,1
88961,-100,4,2,1,80,0,1
90052,-100,4,2,0,80,0,1
90416,-100,4,2,1,80,0,1
90779,-100,4,2,0,80,0,1
91870,-100,4,2,1,80,0,1
92961,-100,4,2,0,80,0,1
93325,-100,4,2,1,80,0,1
93688,-100,4,2,0,80,0,1
95506,-100,4,2,1,80,0,1
96597,-100,4,2,0,80,0,1
99506,-100,4,2,1,80,0,0

[Colours]
Combo1 : 255,89,89
Combo2 : 0,128,255
Combo3 : 182,248,92
Combo4 : 237,39,123

[HitObjects]
0,168,3142,1,2
64,152,3324,1,0
128,136,3506,2,0,B|128:216|208:264|208:264|208:296,1,176,2|0
256,160,4597,1,0
304,282,4960,2,0,B|304:264|304:264|384:216|384:136,1,176,2|0
512,160,6051,5,2
448,144,6233,1,0
424,80,6415,2,0,B|441:26|395:-13|334:-7|317:45,1,176,2|0
256,160,7506,1,0
193,41,7869,2,0,B|177:-7|116:-13|70:26|88:80,1,176,2|0
24,200,8960,5,0
108,300,9324,2,0,B|124:220|255:200|380:220|396:300,1,352,2|2
172,160,11506,2,0,B|256:144|352:160,1,176,2|4
256,192,12324,12,0,14778
152,33,15142,6,0,B|88:33|56:89,1,110,6|0
128,233,15869,2,0,B|128:113,1,110,2|0
56,272,16597,2,0,B|84:321|148:321,1,110,2|0
304,264,17324,1,2
256,104,17687,1,0
208,264,18051,6,0,B|144:176,1,110,2|8
256,56,18778,1,0
368,176,19142,2,0,B|303:264,2,110,8|0|8
256,56,20233,2,0,B|256:0,2,55,2|0|8
256,136,20778,1,2
328,96,20960,6,0,B|392:96|424:152,1,110,6|0
352,296,21687,2,0,B|352:184,1,110,2|0
432,328,22415,2,0,B|432:208,2,110,2|0|2
352,296,23324,1,0
280,336,23506,2,0,B|224:336,1,55,2|2
152,296,23869,6,0,B|40:264,1,110,0|8
72,104,24597,2,0,B|184:136,1,110,0|8
296,248,25324,2,0,B|184:216,1,110,2|8
216,56,26051,2,0,B|328:88,1,110,0|8
416,224,26778,6,0,B|400:304|400:304|320:344,1,165,4|2
256,304,27506,2,0,B|256:184,2,110,0|8|0
186,341,28415,1,2
186,341,28597,2,0,B|112:304|112:304|96:224,1,165,8|0
176,248,29324,2,2,B|160:176,1,55,10|2
104,136,29687,6,0,B|104:64|160:32|224:56,1,165,4|2
184,128,30415,2,2,B|232:128|232:128|256:152|256:152|280:128|280:128|328:128,1,165
408,136,31142,1,0
408,136,31506,2,0,B|464:168|520:144,2,110,8|2|8
424,304,32597,6,0,B|376:336|312:312,1,110,4|8
256,264,33142,1,2
192,312,33324,2,0,B|134:333|86:301,2,110,0|8|0
96,176,34415,1,8
256,128,34778,1,2
416,176,35142,1,8
416,176,35324,1,2
416,176,35506,1,0
416,8,35869,6,0,B|377:-1|365:71|331:68,1,110,8|0
256,48,36415,1,2
180,68,36597,2,0,B|146:71|134:-1|96:8,1,110,8|0
144,168,37324,2,2,B|128:224|184:264,1,110,10|2
256,224,37869,1,8
328,264,38051,2,2,B|382:225|366:169,1,110,10|4
472,296,38778,6,0,B|496:240|472:184,1,110,8|2
376,56,39506,1,8
304,208,39869,2,0,B|256:236|256:236|208:208,1,110,2|8
136,56,40597,1,2
48,192,40960,2,0,B|26:243|50:299,1,110,8|2
200,240,41687,5,8
200,240,41869,2,0,B|144:224,1,55,2|0
312,240,42415,1,8
312,240,42596,2,0,B|368:224,1,55,2|0
312,384,43142,2,0,B|192:384,1,110,8|2
256,224,43869,5,8
256,144,44051,2,0,B|256:80,1,55,2|4
408,144,44596,6,0,B|464:168|512:136,1,110,8|2
456,288,45324,1,8
304,232,45687,2,0,B|358:218|358:218|381:278,1,110,2|8
216,232,46415,2,0,B|161:218|161:218|142:268,1,110,2|8
256,152,47142,5,2
88,144,47506,2,0,B|128:96|128:96|192:96|208:40,1,165,8|2
256,112,48233,2,0,B|256:232,2,110,8|0|10
304,44,49142,2,0,B|318:96|382:96|382:96|422:144,1,165,2|8
464,304,50051,6,0,B|392:304|392:232|304:232,1,165,4|0
324,316,50778,1,2
460,224,51142,1,8
320,140,51506,2,0,B|248:140|248:212|177:211,1,165,0|2
224,280,52233,1,2
196,116,52596,6,0,B|194:115|138:99|90:131,1,110,8|0
256,152,53324,1,10
420,132,53687,2,0,B|372:100|316:116|314:116,2,110,0|8|0
356,184,54596,2,2,B|296:280,1,110
216,280,55142,2,2,B|157:186,1,110
36,72,55869,6,0,B|76:48|76:48|116:24|164:56|156:120,1,165,4|0
156,100,56596,1,0
256,232,56960,1,8
352,100,57324,2,0,B|345:56|393:24|433:48|433:48|473:72,1,165,2|2
471,70,58051,1,0
456,232,58415,5,8
324,332,58778,1,4
296,168,59142,1,8
176,280,59506,1,0
128,124,59869,1,8
16,248,60233,1,0
176,280,60596,1,8
128,124,60960,1,4
256,192,61687,12,2,64233
144,32,64596,6,0,B|80:48|48:88|40:152,1,165,4|2
40,232,65324,2,4,B|47:290|79:330|143:346,1,165,4|2
176,272,66051,1,4
320,184,66415,1,8
176,104,66778,1,2
320,184,67142,1,8
384,32,67506,6,0,B|448:48|480:88|488:152,1,165,4|2
488,232,68233,2,0,B|480:290|448:330|384:346,1,165,4|2
312,304,68960,1,4
160,232,69324,2,0,B|176:216|176:216|144:160|144:160|160:144,1,110,8|0
312,88,70051,1,8
432,200,70415,6,0,B|392:248|320:240,1,110,4|8
256,264,70960,1,2
177,241,71142,2,0,B|120:248|80:200,2,110,4|8|4
152,160,72051,2,0,B|104:128|96:64,1,110,2|2
176,64,72596,1,4
256,208,72960,1,8
336,64,73324,5,4
415,68,73506,2,0,B|408:128|360:160,1,110,2|2
432,200,74051,2,0,B|392:248|335:241,2,110,4|8|4
360,168,74960,6,0,B|312:144,1,55,4|10
256,80,75324,1,0
201,143,75506,2,2,B|152:168,2,55,4|4|8
256,304,76233,6,0,B|256:192,1,110,4|10
416,144,76960,2,0,B|408:200|336:216,1,110,4|10
176,216,77687,2,0,B|109:201|101:145,2,110,4|8|0
184,136,78596,1,8
64,256,78960,1,8
56,336,79142,6,0,B|120:336|120:336|160:368|224:360,1,165,4|2
296,360,79869,2,0,B|352:368|392:336|392:336|455:336,1,165,6|10
424,256,80596,2,0,B|314:256,1,110,4|10
256,192,81142,1,4
200,256,81324,2,0,B|88:256,1,110,0|8
48,96,82051,6,0,B|24:144|24:144|48:200,1,110,4|8
128,188,82596,1,0
176,120,82778,2,0,B|216:80|208:16,1,110,2|10
340,120,83506,2,0,B|300:80|308:16,1,110,4|8
388,44,84051,1,0
432,112,84233,2,2,B|480:216,1,110,2|10
396,356,84960,6,0,B|344:388|288:376,1,110,4|8
128,356,85687,2,0,B|180:388|236:376,1,110,6|8
100,276,86415,2,6,B|172:294|172:294|254:257|254:257|335:294|335:294|408:276,1,330,6|10
460,120,87869,6,0,B|388:200|388:200|364:168|316:184,1,165,6|0
256,160,88596,1,2
256,324,88960,1,8
176,180,89324,2,0,B|151:169|127:201|127:201|55:121,1,165,2|0
136,104,90051,1,2
256,216,90415,1,8
336,72,90778,6,0,B|304:119|256:111|256:111|200:103|187:119,1,165,4|0
160,196,91506,1,2
16,116,91869,1,8
176,72,92233,2,0,B|208:119|256:111|256:111|312:103|325:119,1,165,2|0
316,200,92960,1,2
440,88,93324,5,8
440,88,93506,1,0
440,88,93687,2,6,B|409:-4|317:26|317:26|256:57|195:26|195:26|103:-4|72:88,1,440
132,240,95506,2,0,B|125:186|175:145,1,110,8|2
340,144,96233,2,0,B|390:185|383:239,1,110,8|2
256,192,96687,12,2,99142
368,280,99506,2,0,B|312:280|312:280|272:232,1,110,6|0
432,176,100233,2,0,B|312:176,1,110,2|0
432,56,100960,2,0,B|376:56|376:56|341:97,2,110,2|0|2
416,136,101869,2,0,B|344:224,1,110,0|2
312,296,102415,1,0
200,176,102778,6,0,B|144:176|144:176|112:232,1,110,8|0
256,128,103506,1,8
392,224,103869,2,0,B|365:177|365:177|309:177,2,110,0|8|0
312,248,104778,6,2,B|192:248,1,110
