osu file format v9

[General]
AudioFilename: Sakura Saku.mp3
AudioLeadIn: 0
PreviewTime: 64052
Countdown: 0
SampleSet: Soft
StackLeniency: 0.7
Mode: 0
LetterboxInBreaks: 1
SkinPreference:Default

[Editor]
DistanceSpacing: 1.2
BeatDivisor: 4
GridSize: 4

[Metadata]
Title:Sakura Saku
Artist:U
Creator:Vicho-kun
Version:Kenezz
Source:Sengoku Tenshi Djibril
Tags:Makai Tenshi Jiburiru 5 Hentai Game Eroge Hinacle climbb65588 Kenezz KenezzEdward Verdisphena

[Difficulty]
HPDrainRate:1
CircleSize:3
OverallDifficulty:1
ApproachRate:2
SliderMultiplier:0.799999999999999
SliderTickRate:1

[Events]
//Background and Video events
0,0,"BG.jpg"
Video,0,"Sengoku Tenshi Djibril OP.avi"
//Break Periods
//Storyboard Layer 0 (Background)
//Storyboard Layer 1 (Fail)
//Storyboard Layer 2 (Pass)
//Storyboard Layer 3 (Foreground)
Sprite,Foreground,Centre,"glow.png",320,240 F,0,9324,9869,0,1 M,0,9687,11869,173,182 M,2,11869,13051,173,182,716,206
Sprite,Foreground,Centre,"flower.png",320,240 C,0,9324,,108,91,124 M,0,9324,9597,59,157,91,170 F,0,9324,9869,0,0.41984 R,0,9324,11869,0,2.80576 M,0,9597,11869,91,170,116,179 S,0,9615,,0.6313602 M,2,11869,13051,116,179,721,275 R,0,11869,13051,2.80576,6.20544
Sprite,Foreground,Centre,"flower.png",320,240 S,0,9324,,0.744 C,0,9324,,253,163,177 M,0,9324,9687,178,267,175,252 F,0,9324,9869,0,0.8105602 R,0,9324,11869,0,-1.59744 M,0,9687,11869,175,252,177,242 M,2,11869,13051,177,242,738,193 R,0,11869,13051,-1.59744,2.7648
Sprite,Foreground,Centre,"flower.png",320,240 M,0,9324,9687,216,126,215,150 F,0,9324,9869,0,0.8156799 R,0,9324,11869,0,-1.392641 M,0,9687,11869,215,150 M,2,11869,13051,215,150,770,175 R,0,11869,13051,-1.392641,1.269759
Sprite,Foreground,Centre,"cloud.png",320,240 F,0,66051,66233,0,1 M,0,66051,67440,217,303,260,303 S,0,67012,,1.16384
//Storyboard Sound Samples
//Background Colour Transformations
3,100,163,162,255

[TimingPoints]
597,363.636363636364,4,2,0,100,1,0
3052,-133.333333333333,4,2,0,100,0,0
12143,-133.333333333333,4,2,0,5,0,0
15052,-100,4,2,0,100,0,0
15234,-100,4,2,1,100,0,0
49961,-133.333333333333,4,2,0,100,0,0
58688,-100,4,2,1,100,0,0
64597,-100,4,2,1,100,0,1
74778,-100,4,2,1,100,0,0
76234,-100,4,2,1,100,0,1
87870,-100,4,2,0,100,0,1
87961,-100,4,2,1,100,0,1
96688,-100,4,2,1,5,0,1
98870,-100,4,2,1,100,0,1
99506,-100,4,2,0,100,0,0
99597,-100,4,2,1,100,0,0

[Colours]
Combo1 : 255,89,89
Combo2 : 0,128,255
Combo3 : 182,248,92
Combo4 : 237,39,123

[HitObjects]
160,192,3142,1,0
120,117,3506,2,0,B|72:145|64:201|76:245|116:265,1,179.999994635582,2|0
200,264,4960,2,0,B|256:300|312:264,1,119.999996423721,2|0
352,192,6051,5,0
395,265,6415,2,0,B|436:245|448:201|440:145|391:116,1,179.999994635582,2|0
312,88,7869,2,0,B|256:52|200:88,1,119.999996423721,2|0
256,152,8960,5,0
188,204,9324,2,0,B|192:268|256:296|256:296|320:268|324:204,1,239.999992847443,2|0
256,52,11506,1,2
256,192,12233,12,4,15142
256,64,26778,5,4
164,84,27142,2,0,B|192:160|160:240,1,160,8|8
256,256,28233,2,0,B|256:340,2,79.9999999999999,0|8|0
256,160,29324,1,8
256,64,29687,5,2
348,84,30051,2,0,B|320:160|352:240,1,160,8|8
296,324,31142,2,0,B|256:340|216:324,2,79.9999999999999,0|8|0
256,236,32233,1,8
256,132,32597,6,0,B|300:128|324:96,1,79.9999999999999,2|8
256,132,33324,2,0,B|212:128|188:96,1,79.9999999999999,0|8
92,100,34051,1,0
40,180,34415,2,0,B|84:256|168:268,1,160,8|8
256,228,35506,5,0
345,267,35869,2,0,B|428:256|472:180,2,160,8|8|8
256,300,37687,2,0,B|256:380,2,79.9999999999999,0|8|4
316,224,38778,6,0,B|376:160|344:72,1,160,8|8
256,36,39869,1,0
166,75,40233,2,0,B|136:160|196:224,1,160,8|8
100,240,41324,6,0,B|112:280|148:300,1,79.9999999999999,2|8
216,368,42051,2,0,B|256:380|296:368,1,79.9999999999999,0|8
363,300,42778,2,0,B|400:280|412:240,2,79.9999999999999,0|8|0
304,224,43869,1,8
208,224,44233,5,4
128,276,44596,2,0,B|56:228|72:136,1,160,8|8
112,48,45687,1,0
180,116,46051,2,0,B|256:160|332:116,1,160,8|8
400,48,47142,5,2
440,136,47506,2,0,B|456:228|384:276,1,160,8|8
296,316,48596,2,0,B|216:316,2,79.9999999999999,0|8|0
256,228,49687,1,8
336,200,50051,6,0,B|364:144|432:140,1,119.999996423721,4|0
312,24,51506,2,0,B|256:60|200:24,1,119.999996423721,2|0
79,139,52960,6,0,B|148:144|176:200,2,119.999996423721,2|2|0
88,308,55142,1,0
256,288,55869,6,0,B|320:280|356:228,1,119.999996423721,4|0
256,92,57324,2,0,B|192:100|156:152,1,119.999996423721,2|0
340,204,58778,6,0,B|412:240,2,79.9999999999999,4|8|0
304,292,59869,2,0,B|376:328,2,79.9999999999999,8|0|8
208,292,60960,2,0,B|136:328,1,79.9999999999999,0|8
100,240,61687,6,0,B|171:204,1,79.9999999999999,4|8
180,108,62415,2,0,B|256:84|256:84|332:108,2,160,0|2|0
128,188,64233,1,8
140,284,64596,6,0,B|188:280|208:316,1,79.9999999999999,4|8
304,316,65324,2,0,B|323:280|371:284,1,79.9999999999999,0|8
384,188,66051,1,2
316,116,66415,2,0,B|272:104|256:68|256:68|240:104|196:116,1,160,8|8
208,212,67506,6,0,B|208:292,1,79.9999999999999,4|8
304,292,68233,2,0,B|304:212,1,79.9999999999999,0|8
316,116,68960,2,0,B|372:60,2,79.9999999999999,2|8|0
256,40,70051,1,8
196,116,70415,6,0,B|140:60,2,79.9999999999999,4|8|0
184,212,71506,2,0,B|256:272|328:212,2,160,8|8|8
128,132,73324,6,0,B|92:156|88:200,1,79.9999999999999,2|8
28,272,74051,2,0,B|43:314|84:322,1,79.9999999999999,0|8
156,256,74778,2,0,B|204:252|204:252|216:292|256:312|296:292|308:252|308:252|356:256,1,240,0|8
427,322,76233,6,0,B|468:314|484:272,1,79.9999999999999,4|8
423,198,76960,2,0,B|420:156|384:132,1,79.9999999999999,0|8
296,84,77687,2,0,B|256:76|256:76|216:84,2,79.9999999999999,2|8|0
256,172,78778,1,8
176,228,79142,6,0,B|208:300,1,79.9999999999999,4|8
304,300,79869,2,0,B|336:226,1,79.9999999999999,0|8
256,172,80596,1,2
164,144,80960,2,0,B|116:224|164:296,1,160,8|8
256,324,82051,5,4
348,294,82415,2,0,B|396:224|348:144,1,160,8|8
324,52,83506,2,0,B|280:48|256:84,1,79.9999999999999,0|8
188,52,84233,2,0,B|232:48|256:84,1,79.9999999999999,0|8
208,168,84960,5,4
304,168,85324,1,8
296,264,85687,2,0,B|256:276|216:264,1,79.9999999999999,0|8
180,352,86415,2,0,B|256:396|332:352,1,160,0|0
256,292,87506,1,8
328,228,87869,6,0,B|408:240|476:180,1,160,4|0
472,84,88960,1,8
404,16,89324,2,0,B|372:44|380:88,1,79.9999999999999,2|8
284,92,90051,2,0,B|260:120|256:168,1,79.9999999999999,2|8
184,228,90778,6,0,B|104:240|36:180,1,160,4|0
40,84,91869,1,8
108,16,92233,2,0,B|140:44|132:88,1,79.9999999999999,2|8
228,92,92960,2,0,B|252:120|256:168,1,79.9999999999999,2|8
348,196,93687,6,0,B|352:292|256:304,1,160,4|0
256,208,94778,1,8
164,196,95142,2,0,B|160:292|256:304,1,160,2|2
256,192,96596,12,0,98778
152,208,99506,6,0,B|100:268,2,79.9999999999999,4|4|0
216,280,100596,2,0,B|256:292|296:280,1,79.9999999999999,4|0
360,208,101324,2,0,B|412:268,2,79.9999999999999,4|0|4
332,116,102415,6,0,B|332:48|256:4|180:48|180:116,1,240,2|0
136,204,103869,2,0,B|212:248|256:176|256:176|300:248|376:204,1,280,2|0
