osu file format v9

[General]
AudioFilename: Sakura Saku.mp3
AudioLeadIn: 0
PreviewTime: 64052
Countdown: 0
SampleSet: Soft
StackLeniency: 0.7
Mode: 0
LetterboxInBreaks: 1
SkinPreference:Default

[Editor]
DistanceSpacing: 1.7
BeatDivisor: 4
GridSize: 4

[Metadata]
Title:Sakura Saku
Artist:U
Creator:Vicho-kun
Version:Hinacle
Source:Sengoku Tenshi Djibril
Tags:Makai Tenshi Jiburiru 5 Hentai Game Eroge Hinacle climbb65588 Kenezz KenezzEdward Verdisphena

[Difficulty]
HPDrainRate:6
CircleSize:4
OverallDifficulty:5
ApproachRate:7
SliderMultiplier:1.7
SliderTickRate:1

[Events]
//Background and Video events
0,0,"BG.jpg"
Video,0,"Sengoku Tenshi Djibril OP.avi"
//Break Periods
//Storyboard Layer 0 (Background)
//Storyboard Layer 1 (Fail)
//Storyboard Layer 2 (Pass)
//Storyboard Layer 3 (Foreground)
Sprite,Foreground,Centre,"glow.png",320,240 F,0,9324,9869,0,1 M,0,9687,11869,173,182 M,2,11869,13051,173,182,716,206
Sprite,Foreground,Centre,"flower.png",320,240 C,0,9324,,108,91,124 M,0,9324,9597,59,157,91,170 F,0,9324,9869,0,0.41984 R,0,9324,11869,0,2.80576 M,0,9597,11869,91,170,116,179 S,0,9615,,0.6313602 M,2,11869,13051,116,179,721,275 R,0,11869,13051,2.80576,6.20544
Sprite,Foreground,Centre,"flower.png",320,240 S,0,9324,,0.744 C,0,9324,,253,163,177 M,0,9324,9687,178,267,175,252 F,0,9324,9869,0,0.8105602 R,0,9324,11869,0,-1.59744 M,0,9687,11869,175,252,177,242 M,2,11869,13051,177,242,738,193 R,0,11869,13051,-1.59744,2.7648
Sprite,Foreground,Centre,"flower.png",320,240 M,0,9324,9687,216,126,215,150 F,0,9324,9869,0,0.8156799 R,0,9324,11869,0,-1.392641 M,0,9687,11869,215,150 M,2,11869,13051,215,150,770,175 R,0,11869,13051,-1.392641,1.269759
Sprite,Foreground,Centre,"cloud.png",320,240 F,0,66051,66233,0,1 M,0,66051,67440,217,303,260,303 S,0,67012,,1.16384
//Storyboard Sound Samples
//Background Colour Transformations
3,100,163,162,255

[TimingPoints]
597,363.636363636364,4,1,0,80,1,0
3052,-133.333333333333,4,2,1,70,0,0
11961,-100,4,2,1,5,0,0
14870,-100,4,2,1,80,0,0
19597,-100,4,2,1,70,0,0
20325,-100,4,2,1,75,0,0
20961,-100,4,2,1,80,0,0
49234,-100,4,2,1,70,0,0
64597,-100,4,2,1,70,0,1
74778,-100,4,2,1,70,0,0
76234,-100,4,2,1,70,0,1
96506,-100,4,2,1,5,0,1
99234,-100,4,2,1,80,0,1
99506,-100,4,2,1,80,0,0

[Colours]
Combo1 : 255,89,89
Combo2 : 0,128,255
Combo3 : 182,248,92
Combo4 : 237,39,123

[HitObjects]
288,140,3142,1,0
208,116,3324,1,0
176,192,3506,2,0,B|124:240|56:208,1,127.499996200204
192,308,4233,2,0,B|244:260|312:292,1,127.499996200204,2|0
412,160,4960,2,0,B|360:208|292:176,2,127.499996200204,0|0|2
244,44,6051,5,0
168,80,6233,1,0
88,56,6415,2,0,B|40:108|64:176,1,127.499996200204
124,328,7142,1,2
228,200,7506,1,0
63,174,7869,2,0,B|40:108|88:56,2,127.499996200204,0|0|2
192,276,8960,5,0
264,316,9142,1,0
340,284,9324,2,0,B|392:244|372:164,1,127.499996200204
224,96,10051,2,0,B|172:136|192:216,2,127.499996200204,2|0|0
60,124,11142,2,0,B|112:84|92:4,2,127.499996200204,0|2|0
256,192,12233,12,0,14778
176,112,15142,6,0,B|136:88|88:104,2,85,2|0|0
336,112,15687,2,0,B|360:72|344:24,2,85,2|0|0
336,272,16233,2,0,B|376:296|424:280,2,85,2|0|0
176,272,16778,2,0,B|152:312|168:360,2,85,2|0|0
256,192,17324,5,2
240,104,17506,2,0,B|200:80|152:96,2,85,0|2|0
320,128,18051,2,0,B|400:192|480:136,1,170,4|8
496,248,18597,1,0
456,352,18778,2,0,B|376:288|296:344,1,170,4|8
216,360,19324,2,0,B|176:376|128:360,1,85
88,288,19687,5,2
88,288,19778,1,0
88,288,19869,1,0
152,200,20051,5,2
152,200,20142,1,0
152,200,20233,1,0
248,248,20415,5,2
272,264,20506,1,0
304,272,20597,1,2
336,264,20687,1,0
360,248,20778,1,2
384,232,20869,1,0
408,216,20960,6,0,B|448:192|496:216,1,85,2|0
408,88,21324,2,0,B|368:112|320:88,1,85,0|2
200,176,21687,6,0,B|240:152|288:176,1,85,0|0
200,48,22051,2,0,B|160:72|112:48,1,85,2|0
56,112,22415,5,0
24,192,22597,1,2
48,272,22778,1,0
128,304,22960,1,0
212,288,23142,5,2
344,256,23324,1,0
232,180,23506,1,2
364,148,23687,1,0
248,76,23869,6,0,B|172:20|84:64,1,170,4|8
52,140,24415,1,0
64,224,24597,2,0,B|140:280|228:236,1,170,4|8
328,200,25142,1,0
432,160,25324,2,0,B|496:232|456:320,1,170,0|8
384,360,25869,1,0
304,328,26051,5,2
272,320,26142,1,0
240,316,26233,1,0
208,320,26324,1,0
176,328,26415,1,2
144,332,26506,1,0
112,328,26597,1,0
80,320,26687,1,0
56,304,26778,6,0,B|0:232|48:144,1,170,4|8
112,88,27324,1,0
184,136,27506,2,0,B|264:192|352:136,1,170,0|8
416,96,28051,1,0
464,168,28233,5,0
288,352,28597,1,8
72,216,28960,1,0
248,32,29324,1,8
312,88,29506,5,0
312,88,29597,1,0
312,88,29687,2,0,B|376:160|328:248,1,170,4|8
232,176,30233,1,0
152,264,30415,2,0,B|88:192|136:104,1,170,0|8
232,176,30960,5,0
232,176,31142,1,0
420,348,31506,1,8
476,100,31869,1,0
232,176,32233,1,8
152,208,32415,5,0
152,208,32506,1,0
152,208,32597,2,0,B|112:232|64:216,1,85,4|0
120,88,32960,2,0,B|160:64|208:80,1,85,8|0
288,96,33324,1,0
372,112,33506,2,0,B|412:136|468:112,2,85,0|8|0
288,96,34051,6,0,B|216:160|264:256,1,170,0|8
160,264,34597,1,0
64,224,34778,2,0,B|136:160|88:64,1,170,0|8
192,40,35324,5,0
192,40,35415,1,0
192,40,35506,2,0,B|232:64|280:48,1,85,4|0
360,36,35869,1,8
360,36,36051,1,0
444,44,36233,2,0,B|460:84|444:132,1,85
312,204,36597,2,0,B|296:164|312:116,1,85,8|0
444,204,36960,2,0,B|500:284|444:368,1,170,4|8
348,312,37506,1,0
248,352,37687,2,0,B|168:400|80:352,1,170,0|8
56,272,38233,5,0
56,272,38324,1,0
56,272,38415,2,0,B|40:232|56:184,1,85,4|0
72,104,38778,1,8
152,72,38960,1,0
224,120,39142,2,0,B|304:176|392:128,1,170,0|8
456,88,39687,1,0
480,168,39869,6,0,B|496:208|480:256,1,85,0|0
352,320,40233,2,0,B|336:280|352:232,1,85,8|0
376,80,40597,6,0,B|392:120|376:168,1,85,0|0
248,232,40960,2,0,B|232:192|248:144,1,85,8|8
256,64,41324,5,4
176,40,41506,1,0
176,40,41597,1,0
176,40,41687,2,0,B|136:56|88:40,1,85,8|0
40,112,42051,1,0
88,184,42233,1,0
88,184,42324,1,0
88,184,42415,2,0,B|112:232|88:272,1,85,8|0
160,320,42778,6,0,B|200:328,1,42.5,2|0
312,344,43051,2,0,B|352:336,1,42.5,0|2
464,304,43324,1,0
448,192,43506,2,0,B|376:128|288:184,1,170,2|8
208,208,44051,5,0
208,208,44142,1,0
208,208,44233,2,0,B|168:232|120:216,1,85,4|0
48,96,44596,2,0,B|88:72|136:88,1,85,8|0
240,104,44960,1,0
348,128,45142,2,0,B|368:168|352:216,1,85,0|8
224,288,45506,2,0,B|204:248|220:200,2,85
288,344,46051,6,0,B|328:368|376:352,1,85,8|0
336,272,46415,2,0,B|381:260|403:215,1,85,2|0
320,184,46778,2,0,B|344:144|327:95,1,85,8|8
248,136,47142,6,0,B|236:90|191:68,1,85,2|0
64,88,47506,2,0,B|75:133|120:155,1,85,8|0
168,224,47869,1,0
128,304,48051,2,0,B|88:328|40:312,2,85,0|8|0
212,328,48596,5,0
244,332,48687,1,0
276,336,48778,1,0
308,332,48869,1,0
340,328,48960,2,0,B|384:312|432:328,1,85,8|0
464,248,49324,5,2
428,100,49506,1,2
372,240,49687,1,2
496,164,49869,1,2
348,152,50051,2,0,B|272:208|176:144,1,170,4|8
128,96,50596,1,0
64,152,50778,2,0,B|0:224|56:320,1,170
128,352,51324,1,0
208,328,51506,2,0,B|376:328,1,170,0|8
448,280,52051,1,0
416,200,52233,2,0,B|352:120|416:32,1,170
152,56,52960,6,0,B|112:32|64:48,1,85
136,184,53324,2,0,B|176:208|224:192,1,85,8|0
352,120,53687,6,0,B|312:96|264:112,1,85
336,248,54051,2,0,B|376:272|424:256,1,85,0|0
472,192,54415,5,0
256,352,54778,1,8
40,192,55142,5,2
80,72,55324,1,2
152,176,55506,1,2
192,56,55687,1,2
264,160,55869,2,0,B|336:232|416:168,2,170,4|8|0
232,80,56778,5,0
148,64,56960,1,0
120,144,57142,1,0
188,196,57324,2,0,B|260:268|196:348,2,170,0|8|0
120,144,58233,1,0
148,64,58415,2,0,B|184:40|232:56,1,85,2|2
312,72,58778,5,4
368,136,58960,1,0
336,216,59142,2,0,B|304:240|248:224,1,85,8|0
168,336,59506,2,0,B|200:312|256:328,1,85,0|0
336,344,59869,1,8
336,344,60051,1,0
424,328,60233,6,0,B|448:288|432:240,1,85
304,152,60596,2,0,B|280:192|296:240,1,85,8|0
440,160,60960,2,0,B|464:120|448:72,2,85,0|0|8
416,240,61506,5,0
376,312,61687,2,0,B|336:328|288:312,1,85,4|0
136,312,62051,2,0,B|120:272|136:224,1,85,8|0
136,72,62415,2,0,B|176:56|224:72,1,85
376,72,62778,2,0,B|392:112|376:160,1,85,8|0
368,240,63142,5,2
356,272,63233,1,0
332,296,63324,1,2
300,304,63415,1,0
268,296,63506,2,0,B|228:272|180:288,1,85,8|0
92,296,63869,5,2
60,284,63960,1,0
36,260,64051,1,2
28,228,64142,1,0
36,196,64233,2,0,B|60:156|44:108,1,85,8|8
40,28,64596,6,0,B|124:0|124:72|212:32,1,170,4|8
288,20,65142,1,0
372,40,65324,2,0,B|432:120|376:200,1,170,0|8
336,272,65869,1,0
264,320,66051,2,0,B|224:336|176:320,1,85
112,200,66415,2,0,B|152:184|200:200,2,85,8|0|0
96,284,66960,5,0
96,284,67051,1,0
96,284,67142,2,0,B|56:308|8:292,1,85,8|8
40,152,67506,2,0,B|104:88|200:136,1,170,4|8
256,232,68051,1,0
312,328,68233,2,0,B|376:392|472:344,1,170,0|8
488,264,68778,5,0
440,192,68960,2,0,B|408:160|416:104,1,85
288,64,69324,2,0,B|320:96|312:152,1,85,8|0
296,224,69687,1,0
232,280,69869,2,0,B|192:304|144:280,1,85,0|8
80,232,70233,5,8
80,232,70324,1,0
80,232,70415,1,4
32,160,70596,1,0
56,80,70778,1,8
136,48,70960,1,0
216,72,71142,2,0,B|288:128|376:80,1,170,4|8
460,56,71687,5,0
460,56,71778,1,0
460,56,71869,2,0,B|480:96|464:144,1,85,0|0
336,224,72233,2,0,B|316:184|332:136,2,85,8|0|0
368,304,72778,1,0
296,352,72960,6,0,B|256:376|208:360,1,85,8|0
120,248,73324,2,0,B|160:224|208:240,1,85,4|0
288,248,73687,1,8
376,256,73869,2,0,B|400:216|384:168,1,85
376,88,74233,1,0
288,24,74415,1,8
200,88,74596,1,0
288,152,74778,5,2
296,184,74869,1,0
300,216,74960,1,2
296,248,75051,1,0
288,280,75142,2,0,B|248:304|200:288,1,85,8|0
120,280,75506,2,0,B|104:320|120:368,2,85,0|0|8
128,192,76051,5,8
128,192,76142,1,0
128,192,76233,2,0,B|160:120|80:104|128:24,1,170,4|8
200,72,76778,1,0
272,120,76960,2,0,B|352:176|432:120,1,170,0|8
352,232,77506,1,0
272,296,77687,2,0,B|352:352|432:296,2,170,2|8|2
192,240,78596,2,0,B|204:200,2,42.5,0|0|8
108,280,78960,5,8
108,280,79051,1,0
108,280,79142,2,0,B|36:224|68:128,1,170,4|8
144,72,79687,1,0
236,88,79869,2,0,B|308:144|276:240,1,170,0|8
292,324,80415,1,0
376,336,80596,6,0,B|416:360|464:344,1,85,4|0
440,200,80960,2,0,B|400:176|352:192,1,85,8|0
216,260,81324,6,0,B|256:284|304:268,1,85,4|0
280,124,81688,2,0,B|240:100|192:116,1,85,8|8
112,120,82051,6,0,B|40:192|96:280,1,170,4|8
92,274,82596,1,0
224,344,82778,6,0,B|296:272|240:184,1,170,0|8
243,189,83324,1,0
216,108,83506,5,2
104,52,83687,1,2
48,164,83869,1,8
160,220,84051,1,2
216,108,84233,6,0,B|288:52|384:100,1,170,4|8
456,128,84778,1,0
456,128,84869,1,0
456,128,84960,2,0,B|472:168|456:216,1,85
408,280,85324,1,8
328,256,85506,1,0
328,256,85596,1,0
328,256,85687,2,0,B|288:232|248:256,1,85
168,344,86051,2,0,B|208:368|248:344,2,85,8|8|0
88,312,86596,5,2
76,280,86687,1,0
80,248,86778,1,2
96,220,86869,1,0
112,192,86960,1,2
108,160,87051,1,0
96,128,87142,6,0,B|152:56|256:96,1,170,4|8
328,128,87687,1,0
412,116,87869,2,0,B|476:180|436:276,2,170,0|8|0
360,48,88778,1,0
276,64,88960,2,0,B|236:80|188:64,1,85,8|0
108,48,89324,5,2
60,120,89506,1,2
80,200,89687,1,2
160,236,89869,1,2
240,208,90051,2,0,B|312:144|404:200,1,170,4|8
448,264,90596,1,0
400,336,90778,6,0,B|328:400|236:344,2,170,0|8|0
448,264,91687,1,0
472,184,91869,2,0,B|496:144|472:96,1,85,8|0
432,24,92233,5,2
368,128,92415,1,2
296,32,92596,1,2
232,136,92778,1,2
160,40,92960,1,4
160,40,93051,1,0
160,40,93142,2,0,B|120:64|72:48,1,85,0|8
40,128,93506,5,0
104,184,93687,2,0,B|168:256|120:344,1,170,0|8
248,360,94233,1,0
368,320,94415,2,0,B|304:248|352:160,1,170,0|8
376,80,94960,1,0
376,80,95051,1,0
376,80,95142,2,0,B|336:56|288:72,1,85,4|0
192,176,95506,2,0,B|232:200|280:184,1,85,8|0
200,56,95869,2,0,B|120:0|32:48,1,170,0|8
256,192,96596,12,0,99142
320,344,99506,6,0,B|280:368|240:352,1,85,2|0
160,320,99869,1,0
112,248,100051,2,0,B|88:208|112:160,1,85,2|0
232,112,100415,2,0,B|256:152|232:200,2,85,0|2|0
208,32,100960,1,0
128,60,101142,2,0,B|88:84|40:68,2,85,2|0|0
208,32,101687,5,2
328,40,101869,1,0
320,160,102051,1,2
200,152,102233,1,0
264,96,102415,6,0,B|344:48|424:112,1,170,4|8
448,192,102960,1,0
448,192,103051,1,0
448,192,103142,2,0,B|472:232|456:280,1,85
336,336,103506,2,0,B|312:296|328:248,1,85,8|0
328,168,103869,2,0,B|248:104|160:160,2,170,0|8|0
408,200,104778,6,0,B|448:224|488:208,2,85,0|8|4
