osu file format v5

[General]
AudioFilename: U - Little My Star.mp3
AudioLeadIn: 0
PreviewTime: 70706
Countdown: 1
SampleSet: Soft
StackLeniency: 0.7
Mode: 0
LetterboxInBreaks: 1
EditorBookmarks: 24619
EditorDistanceSpacing: 1

[Metadata]
Title:Little My Star
Artist:U
Creator:vytalibus
Version:Jibril Aries (Hard)
Source:Makai Tenshi Jibril Jiburiru Eroge
Tags:

[Difficulty]
HPDrainRate:8
CircleSize:5
OverallDifficulty:8
SliderMultiplier:1.4
SliderTickRate:1

[Events]
//Background and Video events
1,0,"U - Little My Star_xvid.avi"
0,0,"Untitled-2 copy.png"
//Break Periods
2,13618,23685
//Storyboard Layer 0 (Background)
//Storyboard Layer 1 (Failing)
//Storyboard Layer 2 (Passing)
//Storyboard Layer 3 (Foreground)
//Storyboard Sound Samples
//Background Colour Transformations
3,100,163,162,255

[TimingPoints]
2910,338.983050847458,4,2,0,100,1,0
13268,-100,4,1,0,100,0,0
24520,-100,4,2,0,100,0,0
29604,-100,4,1,0,100,0,0
29943,-100,4,2,0,100,0,0
35028,-100,4,1,0,100,0,0
35367,-100,4,2,0,100,0,0
40452,-100,4,1,0,100,0,0
40791,-100,4,2,0,100,0,0
45452,-100,4,1,0,100,0,0
66384,-100,4,1,0,30,0,0
66554,-100,4,1,0,40,0,0
66723,-100,4,1,0,50,0,0
66893,-100,4,1,0,60,0,0
67062,-100,4,1,0,70,0,0
67232,-100,4,1,0,80,0,0
67571,-100,4,1,0,90,0,0
67910,-100,4,1,0,100,0,0
70365,-100,4,1,0,100,0,1

[HitObjects]
256,40,2910,2,4,C|232:56|224:104|208:120|144:104|120:120|136:144|168:176|176:192|152:248|152:280|184:280|248:240|264:240|328:280|360:280|360:248|336:192|344:176|376:144|392:120|368:104|304:120|288:104|280:56,2,980,4|4|4
40,224,8333,5,4
112,344,8672,1,0
184,224,9011,1,4
256,344,9350,1,0
328,224,9689,5,4
400,224,9859,1,0
472,224,10028,1,0
400,344,10367,1,4
184,160,11045,5,4
112,160,11215,1,0
40,160,11384,1,0
112,280,11723,1,4
328,104,12401,5,4
400,104,12571,1,0
472,104,12740,1,0
400,224,13079,1,4
256,224,13418,5,4
40,304,24435,6,0,B|88:272|136:336|184:304,1,140,4|0
168,240,24943,1,0
232,272,25113,1,0
296,304,25282,2,0,B|336:304|320:272|360:272,1,70,4|0
488,224,25791,6,0,B|440:192|392:256|344:224,1,140,4|0
360,160,26299,1,0
296,192,26469,1,0
232,224,26638,2,0,B|192:224|208:192|168:192,1,70,4|0
40,144,27147,6,0,B|88:112|136:176|184:144,1,140,4|0
168,80,27655,1,0
232,112,27825,1,0
296,144,27994,2,0,B|336:144|320:112|360:112,1,70,4|0
488,64,28503,2,4,B|440:32|392:96|344:64,3,140
280,72,29689,1,0
208,72,29859,6,0,B|112:80|112:176,1,140,4|0
48,184,30367,1,0
104,232,30537,1,0
168,264,30706,2,0,B|208:216|184:176,1,70,4|0
304,120,31215,6,0,B|400:128|400:224,1,140,4|0
464,232,31723,1,0
408,280,31893,1,0
344,312,32062,2,0,B|304:264|328:224,1,70,4|0
208,160,32571,6,0,B|112:168|112:264,1,140,4|0
48,272,33079,1,0
104,320,33248,1,0
168,352,33418,2,0,B|208:304|184:264,1,70,4|0
328,288,33926,2,4,B|272:264|315:198|256:176,3,140
256,104,35113,1,0
256,32,35282,5,4
112,32,35621,2,0,B|40:72,1,70
112,104,35960,2,0,B|40:144,2,70,0|4|0
256,104,36638,5,4
400,104,36977,2,0,B|472:144,1,70
400,176,37316,2,0,B|472:216,2,70,0|4|0
256,176,37994,5,4
112,176,38333,2,0,B|40:216,1,70
112,248,38672,2,0,B|40:288,2,70,0|4|0
248,248,39350,2,4,B|168:280|336:312|256:344,3,140
328,344,40537,1,0
400,344,40706,5,4
256,344,41045,1,0
184,344,41215,1,0
184,272,41384,2,0,B|104:272,2,70,0|4|0
328,272,42062,5,4
328,128,42401,1,0
328,128,42571,2,0,C|326:190|184:192,1,210,0|4
256,72,43418,5,4
256,208,43757,2,0,C|256:288,1,70
256,278,44096,1,4
256,192,44265,12,4,45282
32,72,45621,5,0
128,328,45960,1,8
208,72,46299,6,0,B|192:176|88:184,1,140,4|0
64,208,46808,1,8
120,248,46977,2,0,B|264:216,1,140,0|8
304,72,47655,6,0,B|320:176|424:184,1,140,4|0
448,208,48164,1,8
392,248,48333,2,0,B|248:216,1,140,0|8
184,88,49011,6,0,B|136:152|192:224,1,140,4|0
256,216,49520,1,8
328,216,49689,2,0,B|379:151|331:87,1,140,0|8
184,88,50367,2,0,L|256:207|333:87,1,280,4|2
256,88,51215,1,6
256,296,51723,5,4
400,296,52062,2,0,L|328:296,1,70,0|8
328,224,52401,2,8,B|344:176|304:112|256:152,1,140,0|8
256,296,53079,5,4
112,296,53418,2,0,L|184:296,1,70,0|8
184,224,53757,2,8,B|168:176|208:112|256:152,1,140,0|8
256,296,54435,5,4
360,112,54943,5,4
152,112,55452,5,4
256,16,55791,6,4,B|256:176,1,140,4|8
256,296,56469,1,0
216,232,56638,1,8
216,232,56723,1,0
296,232,56903,1,8
296,232,56987,1,0
336,296,57147,6,4,B|400:280|408:256|400:192,1,140,4|0
328,192,57655,1,8
256,192,57825,2,0,B|192:176|184:152|192:88,1,140,0|8
176,232,58503,6,4,B|112:216|104:192|112:128,1,140,4|0
184,128,59011,1,8
256,128,59181,2,0,B|320:112|328:88|320:24,1,140,0|8
408,128,59859,6,0,B|408:216|320:216,1,140,4|0
256,224,60367,1,8
189,215,60537,2,8,B|104:216|104:128,1,140,0|8
256,192,61215,12,2,62232
88,48,62571,5,4
88,184,62909,1,0
88,184,63079,2,8,B|128:271|216:73|256:184,1,210
256,320,63926,5,4
392,320,64265,1,0
392,320,64435,2,8,B|479:280|281:192|392:152,1,210,8|8
392,80,65113,1,2
320,80,65282,5,4
176,80,65621,1,0
176,80,65791,2,8,B|263:120|65:208|176:248,1,210
224,296,66469,1,4
296,304,66638,5,4
368,288,66808,1,4
432,256,66977,1,4
480,200,67147,1,4
488,128,67316,1,4
488,128,67411,1,0
488,128,67496,1,0
472,56,67655,1,4
472,56,67750,1,0
472,56,67835,1,0
400,56,67994,5,2
256,128,68333,1,2
112,200,68672,1,2
256,272,69011,1,2
256,192,69689,12,6,70367
40,72,70706,5,0
136,328,71045,1,8
40,72,71384,1,0
136,328,71723,1,8
40,72,72062,5,0
64,136,72232,1,0
88,200,72401,1,8
136,328,72740,2,0,B|184:288|184:200,1,140,0|2
232,72,73418,5,0
256,136,73587,1,0
280,200,73757,1,8
328,328,74096,2,0,B|376:288|376:200,1,140,0|2
424,72,74774,5,0
400,136,74943,2,0,B|384:168|320:184,1,70,0|8
280,200,75282,2,0,B|232:208|184:184,1,70
144,168,75621,2,8,B|104:152|96:112,1,70
88,48,75960,1,8
160,72,76130,5,4
256,328,76469,1,8
160,72,76808,1,0
256,328,77147,1,8
160,72,77486,5,0
184,136,77655,1,0
208,200,77825,1,8
256,328,78164,2,0,B|304:288|304:200,1,140,0|2
352,72,78842,5,0
328,136,79011,1,0
304,200,79181,1,8
256,328,79520,2,0,B|208:288|208:200,1,140,0|2
256,192,80198,12,4,81215
472,72,81554,5,0
376,328,81893,1,8
472,72,82232,1,0
376,328,82571,1,8
472,72,82909,5,0
448,136,83079,1,0
424,200,83248,1,8
376,328,83587,2,0,B|328:288|328:200,1,140,0|2
280,72,84265,5,0
256,136,84435,1,0
232,200,84604,1,8
184,328,84943,2,0,B|136:288|136:200,1,140,0|2
88,72,85621,5,0
112,136,85791,2,0,B|128:168|192:184,1,70,0|8
232,200,86130,2,0,B|280:208|328:184,1,70
368,168,86469,2,8,B|408:152|416:112,1,70
424,48,86808,1,8
352,72,86977,5,4
256,328,87316,1,8
352,72,87655,1,0
256,328,87994,1,8
352,72,88333,5,0
328,136,88503,1,0
304,200,88672,1,8
256,328,89011,2,0,B|208:288|208:200,1,140,0|2
160,72,89689,5,0
184,136,89859,1,0
208,200,90028,1,8
256,328,90367,2,0,B|304:288|304:200,1,140,0|2
256,192,91045,12,4,92062
