osu file format v10

[General]
AudioFilename: c81.mp3
AudioLeadIn: 1000
PreviewTime: 97331
Countdown: 0
SampleSet: Normal
StackLeniency: 0.6
Mode: 0
LetterboxInBreaks: 0

[Editor]
DistanceSpacing: 1.4
BeatDivisor: 4
GridSize: 4

[Metadata]
Title:Kansha Kangeki
TitleUnicode:かんしゃ☆かんげき
Artist:U
ArtistUnicode:U
Creator:alacat
Version:Insane
Source:
Tags:c81 B2IN Nichiyouki nich95 ULTRA U GALAXY Kansha Festival !
BeatmapID:186428
BeatmapSetID:62736

[Difficulty]
HPDrainRate:7
CircleSize:4
OverallDifficulty:7
ApproachRate:9
SliderMultiplier:1.8
SliderTickRate:1

[Events]
//Background and Video events
0,0,"bg.jpg"
//Break Periods
//Storyboard Layer 0 (Background)
//Storyboard Layer 1 (Fail)
//Storyboard Layer 2 (Pass)
//Storyboard Layer 3 (Foreground)
//Storyboard Sound Samples
//Background Colour Transformations
3,100,163,162,255

[TimingPoints]
521,324.324324324324,4,1,0,30,1,0
4088,-100,4,1,0,5,0,0
4412,-100,4,1,0,60,0,0
8304,-100,4,1,0,50,0,0
8466,-100,4,2,0,40,0,0
8629,-80,4,1,0,60,0,0
8791,-100,4,2,0,40,0,0
8953,-66.6666666666667,4,1,0,70,0,0
9115,-100,4,2,0,40,0,0
9277,-57.1428571428571,4,1,0,80,0,0
9439,-100,4,2,0,40,0,0
9602,-100,4,1,0,60,0,1
9683,-100,4,1,0,60,0,0
14142,-80,4,1,0,60,0,0
14791,-100,4,1,0,60,0,0
28412,-80,4,1,0,60,0,0
29061,-100,4,1,0,60,0,0
40412,-100,4,1,0,40,0,0
40737,-100,4,1,0,60,0,0
51115,-100,4,1,0,50,0,0
53629,-100,4,1,0,30,0,0
53710,-100,4,1,0,50,0,0
56223,-100,4,1,0,30,0,0
56304,-100,4,1,0,50,0,0
58899,-100,4,1,0,65,0,0
69277,-100,4,1,0,75,0,1
92629,-100,4,2,0,75,0,0
97331,-100,4,1,0,65,0,0
97818,-100,4,1,0,65,0,1
97899,-100,4,1,0,65,0,0
102358,-80,4,1,0,65,0,0
103007,-100,4,1,0,65,0,0
108196,-100,4,1,0,75,0,1
108277,-100,4,1,0,5,0,0

[Colours]
Combo1 : 155,255,155
Combo2 : 255,164,164
Combo3 : 181,255,255
Combo4 : 255,174,136

[HitObjects]
256,192,1493,12,0,4088,0:0:0
164,64,4412,5,2,0:0:0
48,152,5710,5,2,0:0:0
164,236,7007,5,2,0:0:0
180,344,7656,1,2,0:0:0
276,280,8304,6,0,B|300:324|292:368,1,90,2|0,0:0|0:0,0:0:0
332,224,8629,2,0,B|384:260|396:316,1,112.5,2|0,0:0|0:0,0:0:0
348,144,8953,2,0,B|416:152|464:212,1,135.000005149842,2|0,0:0|0:0,0:0:0
320,64,9277,2,0,B|400:48|476:88,1,157.500001502037,2|0,0:0|0:0,0:0:0
264,128,9602,5,4,0:0:0
192,196,9764,1,0,0:0:0
140,56,9926,2,0,B|108:92|116:140,1,90,8|0,0:0|0:0,0:0:0
84,312,10250,2,0,B|116:276|108:228,1,90
72,56,10575,2,0,B|56:101|82:142,1,90,8|0,0:0|0:0,0:0:0
176,172,10899,5,0,0:0:0
268,212,11061,1,0,0:0:0
348,124,11223,2,0,B|304:104|260:112,1,90,8|0,0:0|0:0,0:0:0
176,172,11548,1,0,0:0:0
124,284,11710,1,0,0:0:0
233,377,11872,2,0,B|257:324|247:271,1,90,8|0,0:0|0:0,0:0:0
176,172,12196,6,0,B|184:96|260:72,1,135
304,80,12520,2,0,B|396:80,1,90,8|0,0:0|0:0,0:0:0
476,136,12845,1,0,0:0:0
476,136,12926,1,0,0:0:0
476,136,13007,1,0,0:0:0
384,176,13169,1,8,0:0:0
484,36,13331,1,0,0:0:0
300,228,13493,6,0,B|284:272|296:316,1,90
464,316,13818,2,0,B|480:272|468:228,1,90,8|0,0:0|0:0,0:0:0
216,176,14142,6,0,B|200:231|216:287,1,112.5
384,288,14466,2,0,B|399:232|383:176,1,112.5,8|0,0:0|0:0,0:0:0
316,104,14791,6,0,B|280:76|232:68,1,90,4|0,0:0|0:0,0:0:0
64,40,15115,1,8,0:0:0
136,108,15277,1,0,0:0:0
208,264,15439,2,0,B|228:220|216:176,1,90
44,128,15764,2,0,B|24:172|36:216,1,90,8|0,0:0|0:0,0:0:0
78,305,16088,5,0,0:0:0
268,366,16250,1,0,0:0:0
331,171,16412,1,8,0:0:0
136,108,16575,1,0,0:0:0
120,204,16737,5,0,0:0:0
236,44,16899,1,0,0:0:0
120,204,17061,1,8,0:0:0
236,44,17223,1,0,0:0:0
284,236,17385,6,0,B|310:276|353:298,1,90
228,148,17710,2,0,B|201:107|158:85,1,90,8|0,0:0|0:0,0:0:0
80,120,18034,1,0,0:0:0
28,192,18196,1,0,0:0:0
28,192,18277,1,0,0:0:0
28,192,18358,2,0,P|24:240|32:280,1,90,8|0,0:0|0:0,0:0:0
88,24,18683,5,0,0:0:0
424,24,19007,1,0,0:0:0
256,316,19331,1,0,0:0:0
256,64,19656,2,0,B|256:156,1,90
188,228,19980,5,4,0:0:0
76,328,20142,1,0,0:0:0
76,328,20223,1,0,0:0:0
76,328,20304,2,0,B|68:276|88:240,1,90,8|0,0:0|0:0,0:0:0
124,148,20629,1,0,0:0:0
264,224,20791,1,0,0:0:0
212,80,20953,1,8,0:0:0
264,224,21115,1,0,0:0:0
312,68,21277,6,0,B|356:88|380:128|376:176,1,135
360,224,21602,2,0,B|352:280|388:308,1,90,8|0,0:0|0:0,0:0:0
272,168,21926,1,0,0:0:0
272,168,22007,1,0,0:0:0
272,168,22088,2,0,B|224:152|184:160,1,90,0|8,0:0|0:0,0:0:0
80,292,22412,5,0,0:0:0
80,292,22493,1,0,0:0:0
80,292,22575,2,0,B|80:244|100:204,1,90
184,68,22899,1,8,0:0:0
96,116,23061,1,0,0:0:0
176,240,23223,2,0,B|200:196|204:156,1,90
236,336,23548,2,0,B|260:292|264:252,1,90,8|0,0:0|0:0,0:0:0
272,60,23872,6,0,B|332:64|384:112|380:184,1,180,0|8,0:0|0:0,0:0:0
448,36,24358,2,0,B|493:75|506:144|459:200,1,180
420,288,24845,1,8,0:0:0
236,336,25007,5,0,0:0:0
236,336,25088,1,0,0:0:0
236,336,25169,2,0,B|284:336|324:312,1,90,4|0,0:0|0:0,0:0:0
380,180,25493,1,8,0:0:0
312,108,25656,1,0,0:0:0
212,116,25818,1,0,0:0:0
172,204,25980,1,0,0:0:0
260,284,26142,2,0,B|280:240|272:196,1,90,8|0,0:0|0:0,0:0:0
112,128,26466,6,0,B|32:164|44:256|80:292,1,180,0|8,0:0|0:0,0:0:0
380,180,26953,1,0,0:0:0
380,180,27277,2,0,B|400:136|396:92,1,90,0|8,0:0|0:0,0:0:0
220,96,27602,5,0,0:0:0
220,96,27683,1,0,0:0:0
220,96,27764,2,0,B|200:140|204:184,1,90
276,252,28088,2,0,B|296:208|292:164,1,90,8|0,0:0|0:0,0:0:0
156,36,28412,6,0,B|120:84|124:144,1,112.5
340,316,28737,2,0,B|376:268|372:208,1,112.5,8|0,0:0|0:0,0:0:0
352,112,29061,5,0,0:0:0
304,14,29223,1,0,0:0:0
352,112,29385,1,8,0:0:0
235,58,29548,1,0,0:0:0
352,112,29710,1,0,0:0:0
208,135,29872,1,8,0:0:0
352,112,30034,1,8,0:0:0
231,219,30196,1,0,0:0:0
352,112,30358,6,0,B|388:152|384:196,1,90,4|0,0:0|0:0,0:0:0
328,344,30683,2,0,B|292:304|296:260,1,90,8|0,0:0|0:0,0:0:0
336,172,31007,1,0,0:0:0
296,264,31169,1,0,0:0:0
200,296,31331,1,8,0:0:0
112,256,31493,1,0,0:0:0
144,164,31656,6,0,B|164:120|144:76,1,90
144,76,31899,1,0,0:0:0
144,76,31980,1,8,0:0:0
52,116,32142,1,0,0:0:0
460,116,32466,1,0,0:0:0
384,180,32629,1,8,0:0:0
300,76,32791,5,0,0:0:0
300,76,32872,1,0,0:0:0
300,76,32953,2,0,B|280:120|288:164,1,90
320,256,33277,1,8,0:0:0
416,284,33439,1,0,0:0:0
472,200,33602,2,0,B|484:156|484:112,1,90
372,240,33926,2,0,B|360:284|360:328,1,90,8|0,0:0|0:0,0:0:0
456,352,34250,5,0,0:0:0
399,165,34412,1,0,0:0:0
266,308,34575,1,8,0:0:0
176,348,34737,2,0,B|132:352|84:348,2,90
399,165,35223,1,8,0:0:0
399,165,35548,5,0,0:0:0
484,116,35710,1,0,0:0:0
484,116,35791,1,0,0:0:0
484,116,35872,2,0,B|504:68|496:28,1,90,8|0,0:0|0:0,0:0:0
316,104,36196,2,0,B|348:68|396:68,1,90
488,224,36520,2,0,B|456:260|408:260,1,90,8|0,0:0|0:0,0:0:0
320,216,36845,5,0,0:0:0
130,168,37007,1,0,0:0:0
184,356,37170,1,8,0:0:0
344,288,37331,2,0,B|384:204|356:112,1,180
284,44,37818,1,8,0:0:0
130,168,37980,5,0,0:0:0
130,168,38061,1,0,0:0:0
130,168,38142,2,0,B|108:208|120:256,1,90
208,300,38466,1,8,0:0:0
286,168,38629,2,0,B|308:208|296:256,1,90
208,300,38953,1,0,0:0:0
286,168,39115,1,8,0:0:0
208,36,39277,1,0,0:0:0
112,64,39439,5,0,0:0:0
56,228,39602,1,0,0:0:0
40,132,39764,1,0,0:0:0
148,264,39926,1,0,0:0:0
112,64,40088,1,0,0:0:0
400,320,40412,1,0,0:0:0
400,320,40737,6,0,B|420:280|420:232,1,90,4|0,0:0|0:0,0:0:0
392,140,41061,1,8,0:0:0
296,168,41223,1,0,0:0:0
372,80,41385,1,0,0:0:0
336,212,41548,1,0,0:0:0
324,60,41710,1,8,0:0:0
388,220,41872,1,0,0:0:0
468,48,42034,5,0,0:0:0
468,48,42196,2,0,B|488:92|484:136,1,90,0|8,0:0|0:0,0:0:0
456,232,42520,1,0,0:0:0
392,308,42683,2,0,B|348:316|304:296,1,90
140,328,43007,2,0,B|132:284|152:240,1,90,8|0,0:0|0:0,0:0:0
208,160,43331,5,0,0:0:0
298,122,43493,1,0,0:0:0
337,214,43656,1,8,0:0:0
246,253,43818,1,0,0:0:0
108,160,43980,1,0,0:0:0
298,122,44142,1,0,0:0:0
246,253,44304,1,8,0:0:0
436,216,44466,1,0,0:0:0
260,372,44629,6,0,B|236:328|248:284,1,90
272,188,44953,1,8,0:0:0
307,13,45115,2,0,B|331:57|319:99,1,90
160,208,45439,1,0,0:0:0
388,168,45602,1,8,0:0:0
120,40,45926,5,0,0:0:0
40,96,46088,1,0,0:0:0
40,96,46169,1,0,0:0:0
40,96,46250,2,0,B|52:188,1,90,8|0,0:0|0:0,0:0:0
92,276,46575,1,0,0:0:0
188,300,46737,1,0,0:0:0
356,256,46899,1,8,0:0:0
260,232,47061,1,0,0:0:0
168,196,47223,6,0,B|160:152|176:108,2,90,0|0|8,0:0|0:0|0:0,0:0:0
256,376,47710,1,0,0:0:0
256,8,48034,1,0,0:0:0
336,64,48196,2,0,B|356:108|352:152,1,90,8|0,0:0|0:0,0:0:0
100,248,48520,6,0,B|56:168|100:76,1,180,0|8,0:0|0:0,0:0:0
252,96,49007,2,0,B|272:140|268:184,1,90
212,264,49331,1,0,0:0:0
252,352,49493,1,8,0:0:0
212,264,49656,1,0,0:0:0
124,220,49818,6,0,B|76:224|32:220,1,90
304,288,50142,2,0,B|352:284|396:288,1,90,8|0,0:0|0:0,0:0:0
212,264,50466,1,0,0:0:0
48,76,50791,1,8,0:0:0
116,144,50953,1,0,0:0:0
164,28,51115,6,0,B|212:48|232:144|200:192,1,180,4|0,0:0|0:0,0:0:0
160,324,51602,1,0,0:0:0
160,324,51764,1,0,0:0:0
68,216,52088,1,0,0:0:0
68,216,52250,2,0,B|72:168|96:132,1,90
444,168,52737,1,0,0:0:0
444,168,52899,2,0,B|440:216|416:252,1,90
256,56,53385,6,0,B|224:100|284:144|256:184,1,135
256,184,53710,1,0,0:0:0
220,320,54034,5,0,0:0:0
152,292,54196,1,0,0:0:0
88,320,54358,2,0,B|32:304|4:228|40:164,1,180
424,64,55007,2,0,B|480:80|508:156|472:220,1,180
404,212,55493,1,0,0:0:0
360,156,55656,1,0,0:0:0
252,372,55980,6,0,B|220:332|280:288|256:244,1,135
256,244,56305,1,4,0:0:0
168,132,56629,5,0,0:0:0
128,272,56791,1,0,0:0:0
128,272,56953,1,0,0:0:0
84,136,57277,1,0,0:0:0
84,136,57439,2,0,B|88:84|124:60,1,90
428,248,57926,1,0,0:0:0
428,248,58088,2,0,B|424:300|388:324,1,90
84,136,58575,1,0,0:0:0
352,68,58899,6,0,B|352:120|376:156,1,90,4|0,0:0|0:0,0:0:0
428,248,59223,1,8,0:0:0
480,152,59385,1,0,0:0:0
328,240,59548,2,0,B|284:260|268:304,1,90,2|0,0:0|0:0,0:0:0
268,304,59791,1,0,0:0:0
268,304,59872,2,0,B|179:328,1,90,10|0,0:0|0:0,0:0:0
76,352,60196,5,0,0:0:0
21,164,60358,1,0,0:0:0
211,211,60520,1,8,0:0:0
52,260,60683,1,0,0:0:0
73,81,60845,1,2,0:0:0
160,120,61007,1,0,0:0:0
160,120,61088,1,0,0:0:0
160,120,61169,2,0,B|180:76|224:60,1,90,10|0,0:0|0:0,0:0:0
332,44,61493,5,6,0:0:0
470,83,61656,1,0,0:0:0
431,221,61818,1,8,0:0:0
292,181,61980,1,2,0:0:0
280,84,62142,5,2,0:0:0
394,169,62305,1,0,0:0:0
308,284,62467,1,8,0:0:0
193,197,62629,1,0,0:0:0
216,100,62791,5,2,0:0:0
276,229,62954,1,0,0:0:0
147,290,63116,1,8,0:0:0
86,159,63278,1,2,0:0:0
151,86,63440,5,2,0:0:0
162,228,63603,1,0,0:0:0
18,238,63765,1,8,0:0:0
9,94,63927,1,0,0:0:0
256,196,64088,5,4,0:0:0
256,232,64737,1,4,0:0:0
256,268,65385,1,4,0:0:0
256,304,66034,1,4,0:0:0
256,340,66683,5,4,0:0:0
350,285,66845,2,0,B|398:273|442:277,2,90,0|8|0,0:0|0:0|0:0,0:0:0
180,140,67331,2,0,B|132:128|88:132,1,90
256,192,67656,2,0,B|304:204|348:200,1,90,8|0,0:0|0:0,0:0:0
420,132,67980,1,0,0:0:0
496,192,68142,1,0,0:0:0
472,288,68304,1,8,0:0:0
372,284,68466,2,0,B|324:296|280:292,1,90
188,264,68791,5,0,0:0:0
16,360,68953,1,8,0:0:0
188,264,69115,1,0,0:0:0
188,264,69196,1,0,0:0:0
188,264,69277,2,0,B|216:224|212:180,1,90,6|0,0:0|0:0,0:0:0
136,92,69602,2,0,B|108:132|112:176,1,90,8|0,0:0|0:0,0:0:0
284,336,69926,2,0,B|328:352|372:348,1,90,2|0,0:0|0:0,0:0:0
480,140,70250,2,0,B|436:124|392:128,1,90,8|0,0:0|0:0,0:0:0
248,208,70575,5,2,0:0:0
392,128,70737,1,0,0:0:0
232,120,70899,1,8,0:0:0
356,224,71061,2,0,B|364:268|352:316,1,90,2|0,0:0|0:0,0:0:0
256,364,71385,5,0,0:0:0
156,172,71548,1,8,0:0:0
256,364,71710,1,0,0:0:0
256,364,71791,1,0,0:0:0
256,364,71872,2,0,B|348:364,1,90,6|0,0:0|0:0,0:0:0
444,224,72196,2,0,B|352:224,1,90,8|0,0:0|0:0,0:0:0
252,260,72520,1,2,0:0:0
160,316,72683,1,0,0:0:0
56,184,72845,2,0,B|40:228|60:272,1,90,8|0,0:0|0:0,0:0:0
160,316,73169,5,2,0:0:0
314,360,73331,1,0,0:0:0
359,204,73493,1,8,0:0:0
202,159,73656,1,2,0:0:0
476,328,73980,5,0,0:0:0
408,124,74142,1,8,0:0:0
476,328,74304,1,0,0:0:0
476,328,74385,1,0,0:0:0
476,328,74466,2,0,B|440:356|392:360,1,90,6|0,0:0|0:0,0:0:0
36,328,74791,2,0,B|72:356|120:360,1,90,8|0,0:0|0:0,0:0:0
224,308,75115,1,2,0:0:0
336,336,75277,1,0,0:0:0
224,308,75439,1,8,0:0:0
152,212,75602,6,0,B|132:168|148:124,1,90,0|2,0:0|0:0,0:0:0
236,48,75926,2,0,B|328:44,2,90,0|8|2,0:0|0:0|0:0,0:0:0
36,168,76412,1,0,0:0:0
60,284,76575,5,0,0:0:0
116,120,76737,1,8,0:0:0
232,252,76899,2,0,B|324:252,1,90,0|6,0:0|0:0,0:0:0
424,312,77223,1,0,0:0:0
424,312,77304,1,0,0:0:0
424,312,77385,2,0,B|460:280|452:228,1,90,8|0,0:0|0:0,0:0:0
292,184,77710,1,2,0:0:0
164,304,77872,1,0,0:0:0
328,356,78034,1,8,0:0:0
256,40,78358,5,0,0:0:0
256,76,78683,1,0,0:0:0
256,112,79007,1,0,0:0:0
256,128,79088,1,0,0:0:0
256,144,79169,1,0,0:0:0
256,160,79250,1,0,0:0:0
256,176,79331,1,0,0:0:0
256,192,79412,1,0,0:0:0
256,208,79493,1,0,0:0:0
256,224,79575,1,0,0:0:0
256,240,79656,6,0,B|256:332,1,90,6|0,0:0|0:0,0:0:0
352,280,79980,2,0,B|352:188,1,90,8|0,0:0|0:0,0:0:0
160,104,80304,2,0,B|160:196,1,90,2|0,0:0|0:0,0:0:0
444,336,80629,2,0,B|444:244,1,90,8|0,0:0|0:0,0:0:0
440,140,80953,5,2,0:0:0
352,280,81115,1,0,0:0:0
220,180,81277,1,8,0:0:0
132,320,81439,2,0,B|40:320,1,90,2|0,0:0|0:0,0:0:0
132,320,81764,5,0,0:0:0
312,200,81926,1,8,0:0:0
132,320,82088,1,0,0:0:0
132,320,82169,1,0,0:0:0
132,320,82251,2,0,B|108:276|116:232,1,90,6|0,0:0|0:0,0:0:0
56,144,82575,2,0,B|100:120|144:128,1,90,8|0,0:0|0:0,0:0:0
228,196,82899,1,2,0:0:0
332,160,83061,1,0,0:0:0
240,76,83223,1,8,0:0:0
300,228,83385,1,0,0:0:0
376,316,83548,5,2,0:0:0
200,280,83710,1,0,0:0:0
332,160,83872,1,8,0:0:0
156,124,84034,2,0,B|64:124,1,90,2|0,0:0|0:0,0:0:0
156,124,84358,5,0,0:0:0
368,84,84520,1,8,0:0:0
164,132,84683,1,0,0:0:0
164,132,84764,1,0,0:0:0
164,132,84845,2,0,B|148:180|168:224,1,90,6|0,0:0|0:0,0:0:0
364,268,85169,2,0,B|380:220|360:176,1,90,8|0,0:0|0:0,0:0:0
264,224,85493,2,0,B|248:272|268:316,1,90,2|0,0:0|0:0,0:0:0
464,360,85817,2,0,B|480:312|460:268,1,90,8|0,0:0|0:0,0:0:0
344,352,86142,5,2,0:0:0
168,352,86304,1,0,0:0:0
344,352,86466,1,8,0:0:0
168,352,86628,1,2,0:0:0
68,292,86791,5,0,0:0:0
68,292,86872,1,0,0:0:0
68,292,86953,1,0,0:0:0
68,292,87034,1,0,0:0:0
68,292,87115,1,8,0:0:0
84,176,87277,1,0,0:0:0
152,80,87439,2,0,B|196:64|240:80,1,90,6|0,0:0|0:0,0:0:0
360,304,87764,2,0,B|316:320|272:304,1,90,8|0,0:0|0:0,0:0:0
48,80,88088,1,2,0:0:0
360,304,88412,5,8,0:0:0
440,220,88575,2,0,B|456:172|444:128,1,90,0|6,0:0|0:0,0:0:0
72,164,88899,2,0,B|56:212|68:256,1,90,0|8,0:0|0:0,0:0:0
468,324,89223,1,0,0:0:0
468,324,89385,1,2,0:0:0
72,164,89710,5,8,0:0:0
136,68,89872,1,0,0:0:0
136,68,89953,1,0,0:0:0
136,68,90034,2,0,B|184:52|224:52,1,90,6|0,0:0|0:0,0:0:0
328,108,90358,1,8,0:0:0
420,184,90520,1,0,0:0:0
412,80,90683,2,0,B|364:80|329:108,1,90,2|0,0:0|0:0,0:0:0
404,264,91007,2,0,B|452:268|488:228,1,90,8|0,0:0|0:0,0:0:0
328,108,91331,6,0,B|232:96|164:176,1,180,6|8,0:0|0:0,0:0:0
332,340,91980,2,0,B|424:340,1,90,0|0,0:0|0:0,0:0:0
456,228,92304,2,0,B|364:228,1,90,8|0,0:0|0:0,0:0:0
132,248,92791,5,2,0:0:0
88,140,92953,1,0,0:0:0
204,164,93115,1,0,0:0:0
40,220,93277,1,2,0:0:0
160,92,93439,1,0,0:0:0
228,256,93601,1,0,0:0:0
4,140,93764,1,4,0:0:0
300,316,94088,5,2,0:0:0
300,316,94169,1,0,0:0:0
300,316,94250,1,0,0:0:0
408,276,94412,1,0,0:0:0
316,204,94575,1,2,0:0:0
200,336,94737,1,0,0:0:0
340,264,94899,1,0,0:0:0
88,140,95061,1,4,0:0:0
316,204,95385,5,2,0:0:0
360,96,95547,1,0,0:0:0
244,120,95709,1,0,0:0:0
408,176,95871,1,2,0:0:0
288,48,96033,1,0,0:0:0
220,212,96195,1,0,0:0:0
444,96,96358,1,4,0:0:0
468,360,96683,5,2,0:0:0
364,312,96845,1,0,0:0:0
248,300,97007,1,0,0:0:0
140,344,97169,1,4,0:0:0
80,120,97493,6,0,B|172:120,1,90
280,72,97818,1,4,0:0:0
332,176,97980,1,0,0:0:0
448,164,98142,2,0,B|468:204|456:256,1,90,8|0,0:0|0:0,0:0:0
340,300,98466,2,0,B|304:328|256:332,1,90
128,292,98791,2,0,B|100:256|104:208,1,90,8|0,0:0|0:0,0:0:0
188,128,99115,5,0,0:0:0
128,292,99277,1,0,0:0:0
24,160,99439,1,8,0:0:0
188,128,99602,1,0,0:0:0
272,212,99764,1,0,0:0:0
440,240,99926,1,0,0:0:0
280,300,100088,1,8,0:0:0
384,164,100250,1,0,0:0:0
340,64,100412,6,0,B|304:32|256:32,1,90
148,68,100737,1,8,0:0:0
160,192,100899,1,0,0:0:0
36,212,101061,2,0,B|17:262|36:312,1,90
144,360,101386,1,8,0:0:0
284,276,101548,1,0,0:0:0
348,204,101710,6,0,B|308:178|263:180,1,90
225,344,102035,2,0,B|264:369|309:367,1,90,8|0,0:0|0:0,0:0:0
417,133,102359,6,0,B|367:105|308:108,1,112.5
270,272,102683,2,0,B|321:299|379:296,1,112.5,8|0,0:0|0:0,0:0:0
492,324,103007,5,4,0:0:0
484,152,103169,1,0,0:0:0
484,152,103250,1,0,0:0:0
484,152,103331,2,0,B|500:108|488:64,1,90,8|0,0:0|0:0,0:0:0
376,32,103656,1,0,0:0:0
304,124,103818,1,0,0:0:0
360,224,103980,2,0,B|356:276|328:308,1,90,8|0,0:0|0:0,0:0:0
259,214,104304,5,0,0:0:0
206,129,104466,1,0,0:0:0
280,37,104629,2,0,B|306:77|305:122,1,90,8|0,0:0|0:0,0:0:0
259,214,104953,1,0,0:0:0
132,268,105115,1,8,0:0:0
16,189,105277,6,0,B|71:152|133:154,2,90,8|0|0,0:0|0:0|0:0,0:0:0
495,189,105926,1,8,0:0:0
62,192,106250,1,0,0:0:0
449,192,106575,1,8,0:0:0
127,145,106899,6,0,B|99:192|127:247,1,90
384,244,107223,2,0,B|412:192|384:145,1,90,8|0,0:0|0:0,0:0:0
256,36,107548,1,0,0:0:0
256,348,107872,1,8,0:0:0
256,192,108034,1,0,0:0:0
256,192,108115,1,0,0:0:0
256,192,108196,5,4,0:0:0
