osu file format v10

[General]
AudioFilename: c81.mp3
AudioLeadIn: 1000
PreviewTime: 97331
Countdown: 0
SampleSet: Normal
StackLeniency: 0.7
Mode: 0
LetterboxInBreaks: 0

[Editor]
DistanceSpacing: 1
BeatDivisor: 4
GridSize: 4

[Metadata]
Title:Kansha Kangeki
TitleUnicode:かんしゃ☆かんげき
Artist:U
ArtistUnicode:U
Creator:alacat
Version:Easy
Source:
Tags:c81 B2IN Nichiyouki nich95 ULTRA U GALAXY Kansha Festival !
BeatmapID:188123
BeatmapSetID:62736

[Difficulty]
HPDrainRate:2
CircleSize:2
OverallDifficulty:2
ApproachRate:3
SliderMultiplier:0.8
SliderTickRate:1

[Events]
//Background and Video events
0,0,"bg.jpg"
//Break Periods
//Storyboard Layer 0 (Background)
//Storyboard Layer 1 (Fail)
//Storyboard Layer 2 (Pass)
//Storyboard Layer 3 (Foreground)
//Storyboard Sound Samples
//Background Colour Transformations
3,100,163,162,255

[TimingPoints]
521,324.324324324324,4,1,0,30,1,0
4412,-100,4,1,0,40,0,0
5710,-100,4,2,0,60,0,0
8304,-100,4,1,0,40,0,0
8953,-100,4,1,0,50,0,0
9602,-100,4,1,0,60,0,1
9683,-100,4,1,0,60,0,0
30358,-100,4,1,0,50,0,0
40737,-100,4,1,0,60,0,0
51115,-100,4,1,0,50,0,0
58899,-100,4,1,0,60,0,0
69277,-100,4,1,0,75,0,1
89710,-100,4,2,0,60,0,1
90034,-100,4,1,0,75,0,1
92629,-100,4,2,0,55,0,0
97331,-100,4,1,0,65,0,0
97818,-100,4,1,0,65,0,1
97899,-100,4,1,0,65,0,0
108196,-100,4,1,0,75,0,1
108277,-100,4,1,0,5,0,0

[Colours]
Combo1 : 155,255,155
Combo2 : 255,164,164
Combo3 : 181,255,255
Combo4 : 255,174,136

[HitObjects]
256,192,1493,12,8,4412,0:0:0
108,216,5710,5,8,0:0:0
388,60,7007,2,0,B|428:136|396:216,1,160,0|8,0:0|0:0,0:0:0
296,340,8304,6,0,B|216:340,1,80,0|8,0:0|0:0,0:0:0
184,268,8953,2,0,B|104:268,1,80,0|8,0:0|0:0,0:0:0
40,220,9602,5,4,0:0:0
112,76,10250,1,8,0:0:0
264,124,10899,2,0,B|344:144|424:104,2,160,0|8|0,0:0|0:0|0:0,0:0:0
112,76,12845,5,8,0:0:0
36,216,13493,2,0,B|24:308|84:364,1,160,0|8,0:0|0:0,0:0:0
236,320,14791,5,4,0:0:0
312,180,15439,1,8,0:0:0
188,80,16088,2,0,B|100:64|36:120,2,160,0|8|0,0:0|0:0|0:0,0:0:0
344,100,18034,5,8,0:0:0
448,220,18683,2,0,B|456:300,2,80,0|0|8,0:0|0:0|0:0,0:0:0
404,152,19656,1,0,0:0:0
344,100,19980,6,0,B|260:72|184:104,1,160,4|8,0:0|0:0,0:0:0
140,256,21277,2,0,B|224:284|300:252,2,160,0|8|0,0:0|0:0|0:0,0:0:0
52,124,23223,5,8,0:0:0
192,44,23872,2,0,B|256:24|296:92|348:68,1,160,0|8,0:0|0:0,0:0:0
504,84,25169,6,0,B|464:156|480:244,1,160,4|8,0:0|0:0,0:0:0
364,348,26466,1,0,0:0:0
212,292,27115,1,8,0:0:0
72,368,27764,6,0,B|4:308|24:220,1,160,0|8,0:0|0:0,0:0:0
96,80,29061,2,0,B|176:80,1,80,0|8,0:0|0:0,0:0:0
228,140,29710,2,0,B|308:140,1,80,0|8,0:0|0:0,0:0:0
380,176,30358,6,0,B|432:240|408:328,1,160,4|8,0:0|0:0,0:0:0
256,272,31656,2,0,B|196:248|136:272,2,120,0|0|8,0:0|0:0|0:0,0:0:0
328,312,32953,5,0,0:0:0
256,168,33602,1,8,0:0:0
112,100,34250,2,0,B|48:92|20:28,2,120,0|0|8,0:0|0:0|0:0,0:0:0
192,104,35548,5,0,0:0:0
332,184,36196,1,8,0:0:0
256,324,36845,2,0,P|312:348|376:352,2,120,0|0|8,0:0|0:0|0:0,0:0:0
192,276,38142,5,0,0:0:0
64,180,38791,1,8,0:0:0
176,68,39439,2,0,B|256:56,2,80,0|0|8,0:0|0:0|0:0,0:0:0
120,124,40412,1,0,0:0:0
40,132,40737,6,0,B|16:208|52:292,1,160,4|8,0:0|0:0,0:0:0
204,236,42034,2,0,B|272:188|356:204,2,160,0|8|0,0:0|0:0|0:0,0:0:0
308,360,43980,5,8,0:0:0
464,332,44629,2,0,B|444:172,1,160,0|8,0:0|0:0,0:0:0
388,116,45602,1,0,0:0:0
312,140,45926,6,0,B|236:168|156:124,2,160,0|8|0,0:0|0:0|0:0,0:0:0
464,96,47872,1,8,0:0:0
408,244,48520,6,0,B|376:320|376:320|344:348|300:328,1,160,0|8,0:0|0:0,0:0:0
148,288,49818,2,0,B|68:300,2,80,0|0|8,0:0|0:0|0:0,0:0:0
292,216,51115,6,0,B|332:140|296:60,1,160,4|8,0:0|0:0,0:0:0
136,68,52412,2,0,B|96:144|132:224,1,160,0|8,0:0|0:0,0:0:0
184,284,53385,2,0,B|268:300,1,80
384,192,54358,5,8,0:0:0
288,64,55007,2,0,B|324:36|368:36,2,80,0|0|8,0:0|0:0|0:0,0:0:0
240,128,55980,1,0,0:0:0
164,148,56304,5,4,0:0:0
88,288,56953,1,8,0:0:0
236,348,57602,2,0,B|312:308|392:336,1,160,0|8,0:0|0:0,0:0:0
464,192,58899,5,4,0:0:0
304,192,59548,1,8,0:0:0
144,192,60196,2,0,B|64:192,2,80,0|0|8,0:0|0:0|0:0,0:0:0
256,80,61493,6,0,P|336:80,2,80,4|0|8,0:0|0:0|0:0,0:0:0
104,128,62791,1,0,0:0:0
52,280,63439,1,8,0:0:0
204,340,64088,6,0,B|368:340,1,160,4|12,0:0|0:0,0:0:0
428,192,65385,2,0,B|264:192,1,160,4|12,0:0|0:0,0:0:0
112,228,66683,6,0,B|56:164|92:76,2,160,4|8|0,0:0|0:0|0:0,0:0:0
224,340,68629,2,0,B|304:340,1,80,8|0,0:0|0:0,0:0:0
372,300,69277,6,0,B|400:268|400:224,1,80,6|8,0:0|0:0,0:0:0
324,200,69926,2,0,B|340:160|328:116,1,80,2|8,0:0|0:0,0:0:0
256,92,70575,2,0,B|176:104,2,80,2|8|2,0:0|0:0|0:0,0:0:0
404,36,71872,6,0,B|475:86|465:182,1,160,6|2,0:0|0:0,0:0:0
404,228,72845,1,8,0:0:0
340,276,73169,2,0,B|340:356,2,80,2|8|2,0:0|0:0|0:0,0:0:0
188,328,74466,6,0,B|108:340,1,80,6|8,0:0|0:0,0:0:0
32,316,75115,2,0,B|20:236,1,80,2|8,0:0|0:0,0:0:0
80,184,75764,1,2,0:0:0
44,112,76088,2,0,B|60:76|99:56,1,80,8|2,0:0|0:0,0:0:0
260,80,77061,6,0,B|312:108|364:52|424:84,1,160,6|2,0:0|0:0,0:0:0
468,144,78034,2,0,B|480:228,1,80,8|6,0:0|0:0,0:0:0
436,292,78683,1,8,0:0:0
356,276,79007,2,0,B|344:192,1,80,2|8,0:0|0:0,0:0:0
292,136,79656,6,0,P|220:104|140:120,1,160,6|2,0:0|0:0,0:0:0
88,176,80629,1,8,0:0:0
24,220,80953,2,0,P|32:304,1,80,2|8,0:0|0:0,0:0:0
88,356,81602,1,2,0:0:0
152,308,81926,1,8,0:0:0
216,360,82250,6,0,B|280:308|368:336,1,160,6|2,0:0|0:0,0:0:0
444,316,83223,1,8,0:0:0
464,240,83548,2,0,B|496:164,2,80,2|8|2,0:0|0:0|0:0,0:0:0
384,248,84520,1,8,0:0:0
316,204,84845,6,0,B|224:180|164:248,1,160,6|10,0:0|0:0,0:0:0
100,284,85818,1,8,0:0:0
36,236,86142,2,0,P|20:156,1,80,2|8,0:0|0:0,0:0:0
56,84,86791,2,0,B|92:64|136:60,1,80,2|8,0:0|0:0,0:0:0
208,84,87439,6,0,B|288:76,2,80,4|8|0,0:0|0:0|0:0,0:0:0
180,160,88412,1,2,0:0:0
244,208,88737,2,0,B|324:200,2,80,8|8|0,0:0|0:0|0:0,0:0:0
216,284,89710,1,8,0:0:0
244,360,90034,6,0,B|324:348,1,80,6|8,0:0|0:0,0:0:0
348,272,90683,2,0,B|428:260,1,80,2|8,0:0|0:0,0:0:0
484,204,91331,1,2,0:0:0
404,64,91980,2,0,P|344:56|284:64,1,120,8|0,0:0|0:0,0:0:0
216,104,92791,6,0,P|156:120|100:112,2,120,0|0|4,0:0|0:0|0:0,0:0:0
280,152,94088,6,0,B|279:218|226:255,2,120,0|0|4,0:0|0:0|0:0,0:0:0
356,128,95385,6,0,B|392:184|368:244,2,120,0|0|4,0:0|0:0|0:0,0:0:0
296,76,96683,6,0,B|176:76,1,120,0|4,0:0|0:0,0:0:0
104,40,97493,1,0,0:0:0
44,92,97818,5,4,0:0:0
100,240,98466,1,8,0:0:0
256,200,99115,2,0,P|324:244|404:252,2,160,0|8|0,0:0|0:0|0:0,0:0:0
188,56,101061,5,8,0:0:0
40,116,101710,2,0,B|48:196,1,80,0|8,0:0|0:0,0:0:0
124,220,102358,2,0,B|132:300,1,80,0|8,0:0|0:0,0:0:0
200,344,103007,6,0,B|288:316|360:336,1,160,4|8,0:0|0:0,0:0:0
428,192,104304,2,0,B|464:348,2,160,0|8|0,0:0|0:0|0:0,0:0:0
304,92,106250,5,8,0:0:0
156,156,106899,2,0,B|76:160,2,80,0|8|0,0:0|0:0|0:0,0:0:0
228,188,107872,1,8,0:0:0
268,256,108196,5,4,0:0:0
