osu file format v14

[General]
AudioFilename: Hi-Fi day1.mp3
AudioLeadIn: 2500
PreviewTime: 59123
Countdown: 0
SampleSet: Soft
StackLeniency: 0.7
Mode: 0
LetterboxInBreaks: 1
EpilepsyWarning: 1
WidescreenStoryboard: 1

[Editor]
DistanceSpacing: 1
BeatDivisor: 4
GridSize: 32
TimelineZoom: 1

[Metadata]
Title:Hi-Fi day
TitleUnicode:Hi-Fi day
Artist:U
ArtistUnicode:U
Creator:Flask
Version:Normal
Source:
Tags:gwave superfeature's vol.12 ultra u2 hifi Loneight smallboat bossandy l1106188 Broze qoot8123
BeatmapID:644391
BeatmapSetID:285279

[Difficulty]
HPDrainRate:3
CircleSize:3
OverallDifficulty:3
ApproachRate:4
SliderMultiplier:1.2
SliderTickRate:1

[Events]
//Background and Video events
0,0,"37497740.jpg",0,0
//Break Periods
2,88861,102111
2,177476,196265
//Storyboard Layer 0 (Background)
//Storyboard Layer 1 (Fail)
//Storyboard Layer 2 (Pass)
//Storyboard Layer 3 (Foreground)
//Storyboard Sound Samples

[TimingPoints]
47,461.538461538462,4,2,1,50,1,0
13316,-100,4,2,1,30,0,0
14816,-100,4,2,2,50,0,0
14931,-100,4,2,1,50,0,0
15623,-100,4,2,2,50,0,0
15854,-100,4,2,1,50,0,0
16547,-100,4,2,2,50,0,0
17239,-100,4,2,1,50,0,0
19316,-100,4,2,2,50,0,0
19547,-100,4,2,1,50,0,0
20239,-100,4,2,2,50,0,0
20931,-100,4,2,1,50,0,0
23931,-100,4,2,2,50,0,0
24623,-100,4,2,1,50,0,0
29008,-100,4,2,1,30,0,0
29470,-100,4,2,1,50,0,0
29585,-100,4,2,2,50,0,0
29700,-100,4,2,1,50,0,0
30393,-100,4,2,2,50,0,0
30623,-100,4,2,1,50,0,0
31316,-100,4,2,2,50,0,0
31547,-100,4,2,1,50,0,0
34085,-100,4,2,2,50,0,0
34316,-100,4,2,1,50,0,0
35008,-100,4,2,2,50,0,0
35239,-100,4,2,1,50,0,0
37777,-100,4,2,2,50,0,0
38239,-100,4,2,1,50,0,0
38700,-100,4,2,2,50,0,0
39393,-100,4,2,1,50,0,0
42393,-100,4,2,2,50,0,0
42623,-100,4,2,1,50,0,0
44354,-100,4,2,2,50,0,0
44470,-100,4,2,1,50,0,0
45162,-100,4,2,2,50,0,0
45393,-100,4,2,1,50,0,0
48854,-100,4,2,2,50,0,0
49085,-100,4,2,1,50,0,0
52547,-100,4,2,2,50,0,0
52777,-100,4,2,1,50,0,0
59123,-100,4,2,1,70,0,1
64547,-100,4,2,2,70,0,1
64777,-100,4,2,1,70,0,1
65470,-100,4,2,2,70,0,1
65700,-100,4,2,1,70,0,1
71931,-100,4,2,1,30,0,1
73085,-100,4,2,1,50,0,1
73431,-100,4,2,1,30,0,1
73893,-100,4,2,1,70,0,1
75623,-100,4,2,2,70,0,1
75854,-100,4,2,1,70,0,1
76547,-100,4,2,2,70,0,1
76777,-100,4,2,1,70,0,1
79316,-100,4,2,2,70,0,1
79547,-100,4,2,1,70,0,1
80239,-100,4,2,2,70,0,1
80470,-100,4,2,1,70,0,1
86239,-100,4,2,3,70,0,1
86470,-100,4,2,1,70,0,1
86700,-100,4,2,1,30,0,1
88547,-100,4,2,1,50,0,1
88662,-100,4,2,2,50,0,0
88777,-100,4,2,1,50,0,0
103431,-100,4,2,2,50,0,0
103547,-100,4,2,1,50,0,0
104239,-100,4,2,2,50,0,0
104470,-100,4,2,1,50,0,0
105162,-100,4,2,2,50,0,0
105854,-100,4,2,1,50,0,0
107931,-100,4,2,2,50,0,0
108162,-100,4,2,1,50,0,0
112547,-100,4,2,2,50,0,0
113239,-100,4,2,1,50,0,0
115777,-100,4,2,2,50,0,0
116470,-100,4,2,1,50,0,0
118200,-100,4,2,2,50,0,0
118316,-100,4,2,1,50,0,0
119008,-100,4,2,2,50,0,0
119239,-100,4,2,1,50,0,0
120854,-100,4,2,2,50,0,0
121085,-100,4,2,1,50,0,0
122700,-100,4,2,2,50,0,0
122931,-100,4,2,1,50,0,0
123623,-100,4,2,2,50,0,0
123854,-100,4,2,1,50,0,0
124547,-100,4,2,2,50,0,0
124777,-100,4,2,1,50,0,0
126393,-100,4,2,2,50,0,0
126623,-100,4,2,1,50,0,0
127316,-100,4,2,2,50,0,0
127547,-100,4,2,1,50,0,0
128239,-100,4,2,2,50,0,0
128470,-100,4,2,1,50,0,0
132970,-100,4,2,2,50,0,0
133085,-100,4,2,1,50,0,0
133777,-100,4,2,2,50,0,0
134008,-100,4,2,1,50,0,0
134700,-100,4,2,2,50,0,0
135393,-100,4,2,1,50,0,0
137470,-100,4,2,2,50,0,0
137700,-100,4,2,1,50,0,0
141162,-100,4,2,2,50,0,0
141393,-100,4,2,1,50,0,0
142085,-100,4,2,2,50,0,0
142777,-100,4,2,1,50,0,0
147739,-100,4,2,1,70,0,1
149470,-100,4,2,2,70,0,1
149700,-100,4,2,1,70,0,1
149931,-100,4,2,3,70,0,1
150162,-100,4,2,1,70,0,1
153162,-100,4,2,2,70,0,1
153393,-100,4,2,1,70,0,1
154085,-100,4,2,2,70,0,1
154316,-100,4,2,1,70,0,1
156854,-100,4,2,2,70,0,1
157085,-100,4,2,1,70,0,1
164239,-100,4,2,2,70,0,1
164470,-100,4,2,1,70,0,1
165162,-100,4,2,2,70,0,1
165393,-100,4,2,1,70,0,1
167931,-100,4,2,2,70,0,1
168162,-100,4,2,1,70,0,1
168854,-100,4,2,2,70,0,1
169085,-100,4,2,1,70,0,1
174854,-100,4,2,3,70,0,1
175085,-100,4,2,1,70,0,1
177277,-100,4,2,2,50,0,0
177393,-100,4,2,1,30,0,0
197585,-100,4,2,1,70,0,1
197700,-100,4,2,1,70,0,0
212354,-100,4,2,1,70,0,1
217777,-100,4,2,2,70,0,1
218008,-100,4,2,1,70,0,1
218700,-100,4,2,2,70,0,1
218931,-100,4,2,1,70,0,1
232547,-100,4,2,2,70,0,1
232777,-100,4,2,1,70,0,1
233470,-100,4,2,2,70,0,1
233700,-100,4,2,1,70,0,1
241893,-100,4,2,1,50,0,0

[Colours]
Combo1 : 70,163,255
Combo2 : 255,117,117
Combo3 : 255,255,121
Combo4 : 255,143,89
Combo5 : 98,249,158

[HitObjects]
70,98,47,5,0,0:0:0:0:
46,203,508,1,2,0:0:0:0:
113,287,970,2,0,P|165:306|236:284,1,120,0|2,0:0|0:0,0:0:0:0:
314,229,1893,2,0,P|371:213|427:233,1,120,0|2,0:0|0:0,0:0:0:0:
461,274,2585,2,0,P|449:204|484:87,1,180,2|2,0:0|0:0,0:0:0:0:
394,29,3739,5,0,0:0:0:0:
304,89,4200,1,2,0:0:0:0:
202,53,4662,2,0,L|139:42,1,60,0|2,0:0|0:0,0:0:0:0:
51,101,5354,2,0,B|65:170|65:170|32:227|69:284,1,180,2|0,0:0|0:0,0:0:0:0:
100,313,6277,2,0,L|287:312,1,180,2|2,0:0|0:0,0:0:0:0:
383,282,7431,5,8,0:3:0:0:
457,360,7893,1,10,0:3:0:0:
489,257,8354,2,0,L|494:137,1,120,8|10,0:3|0:3,0:0:0:0:
388,163,9277,2,0,L|383:283,1,120,8|10,0:3|0:3,0:0:0:0:
341,317,9970,2,0,P|254:331|172:289,1,180,2|10,0:0|0:3,0:0:0:0:
113,201,11123,6,0,P|57:176|-4:187,1,120,8|10,0:3|0:3,0:0:0:0:
44,284,12047,2,0,L|47:350,1,60,8|2,0:3|0:0,0:0:0:0:
152,323,12739,2,0,P|225:348|334:310,1,180,2|8,0:0|0:3,0:0:0:0:
394,241,13893,2,0,P|452:224|514:238,1,120,8|8,0:3|0:3,0:0:0:0:
511,127,14816,6,0,P|443:129|379:35,1,180,6|2,0:0|0:0,0:0:0:0:
271,38,15970,1,2,0:0:0:0:
192,112,16431,1,2,0:0:0:0:
105,47,16893,1,2,0:0:0:0:
34,128,17354,2,0,P|16:224|46:315,1,180,2|10,0:0|0:3,0:0:0:0:
146,303,18508,6,0,P|215:276|321:313,1,180,10|2,0:3|0:0,0:0:0:0:
405,361,19662,1,2,0:0:0:0:
463,270,20123,1,2,0:0:0:0:
372,211,20585,1,2,0:0:0:0:
312,304,21047,2,0,P|269:249|285:142,1,180,2|10,0:0|0:3,0:0:0:0:
363,72,22200,6,0,P|425:81|496:69,2,120,10|10|10,0:3|0:3|0:3,0:0:0:0:
312,54,23354,1,2,0:0:0:0:
212,96,23816,1,2,0:0:0:0:
298,160,24277,1,2,0:0:0:0:
313,53,24739,2,0,L|110:32,1,180,2|8,0:0|0:3,0:0:0:0:
40,88,25893,6,0,L|34:218,1,120,10|10,0:3|0:3,0:0:0:0:
49,315,26816,2,0,L|65:377,1,60,8|2,0:3|0:0,0:0:0:0:
167,341,27508,2,0,P|243:357|328:293,1,180,2|0,0:0|0:0,0:0:0:0:
345,192,28662,1,0,0:0:0:0:
444,150,29123,2,0,L|422:94,1,60,8|8,0:3|0:3,0:0:0:0:
390,49,29585,6,0,P|334:27|260:51,1,120,6|8,0:0|0:3,0:0:0:0:
237,75,30277,1,2,0:0:0:0:
148,137,30739,1,2,0:0:0:0:
244,185,31200,2,0,P|252:244|235:314,1,120,2|2,0:0|0:0,0:0:0:0:
194,332,31893,1,8,0:3:0:0:
194,332,32123,2,0,P|114:313|7:340,1,180,2|8,0:0|0:3,0:0:0:0:
16,225,33277,6,0,L|5:159,2,60,8|2|8,0:3|0:0|0:3,0:0:0:0:
62,196,33970,2,0,L|181:176,1,120,2|2,0:0|0:0,0:0:0:0:
288,175,34893,2,0,L|407:195,1,120,2|2,0:0|0:0,0:0:0:0:
449,226,35585,1,8,0:3:0:0:
449,226,35816,2,0,P|456:290|376:376,1,180,2|8,0:0|0:3,0:0:0:0:
280,346,36970,6,0,P|258:294|272:227,1,120,8|8,0:3|0:3,0:0:0:0:
287,182,37662,1,2,0:0:0:0:
191,130,38123,1,2,0:0:0:0:
112,204,38585,2,0,P|124:269|99:326,1,120,2|2,0:0|0:0,0:0:0:0:
20,251,39508,2,0,P|11:175|86:102,1,180,2|8,0:0|0:3,0:0:0:0:
183,126,40662,6,0,P|240:143|302:132,1,120,8|8,0:3|0:3,0:0:0:0:
396,88,41585,2,0,L|462:84,1,60,8|2,0:3|0:0,0:0:0:0:
256,192,42277,12,8,43431,0:3:0:0:
471,274,44354,6,0,L|477:213,2,60,4|2|8,0:0|0:0|0:3,0:0:0:0:
432,312,45047,2,0,P|377:325|310:313,1,120,2|2,0:0|0:0,0:0:0:0:
264,296,45739,1,8,0:3:0:0:
264,296,45970,2,0,P|205:285|147:299,1,120,2|2,0:0|0:0,0:0:0:0:
44,332,46893,2,0,L|37:266,1,60,2|8,0:0|0:3,0:0:0:0:
70,169,47585,1,10,0:3:0:0:
67,60,48047,6,0,L|6:53,2,60,8|2|8,0:3|0:0|0:3,0:0:0:0:
118,77,48739,2,0,P|183:86|249:71,1,120,2|2,0:0|0:0,0:0:0:0:
286,57,49431,1,8,0:3:0:0:
286,57,49662,2,0,P|350:44|413:58,1,120,2|2,0:0|0:0,0:0:0:0:
477,132,50585,2,0,L|528:180,1,60,2|8,0:0|0:3,0:0:0:0:
468,267,51277,1,10,0:3:0:0:
361,246,51739,6,0,L|367:313,2,60,8|2|8,0:3|0:0|0:3,0:0:0:0:
342,195,52431,2,0,P|292:158|226:163,1,120,2|2,0:0|0:0,0:0:0:0:
186,180,53123,1,8,0:3:0:0:
186,180,53354,2,0,P|132:193|60:182,1,120,2|2,0:0|0:0,0:0:0:0:
25,284,54277,2,0,L|85:292,1,60,2|8,0:0|0:3,0:0:0:0:
181,339,54970,1,10,0:3:0:0:
283,303,55431,6,0,P|347:293|419:317,1,120,8|8,0:3|0:3,0:0:0:0:
449,326,56123,1,2,0:0:0:0:
490,291,56354,2,0,P|503:231|492:166,1,120,8|8,0:3|0:3,0:0:0:0:
416,98,57277,2,0,P|442:54|513:39,2,120,8|8|8,0:3|0:3|0:3,0:0:0:0:
367,121,58431,2,0,L|301:113,1,60,8|8,0:0|0:0,0:0:0:0:
204,145,59123,5,4,0:0:0:0:
165,44,59585,1,8,0:0:0:0:
91,123,60047,2,0,P|72:191|90:253,1,120,8|8,0:3|0:0,0:0:0:0:
127,267,60739,2,0,L|247:279,2,120,2|2|2,0:0|0:0|0:0,0:0:0:0:
48,340,62123,2,0,L|14:291,2,60,2|8|2,0:0|0:0|0:0,0:0:0:0:
97,362,62816,6,0,L|217:374,1,120,8|8,0:3|0:0,0:0:0:0:
322,355,63739,2,0,P|343:303|339:238,1,120,8|8,0:3|0:0,0:0:0:0:
304,198,64431,2,0,P|372:228|439:162,1,180,2|8,0:0|0:0,0:0:0:0:
424,109,65354,2,0,P|356:79|289:145,1,180,2|8,0:0|0:0,0:0:0:0:
197,204,66508,5,4,0:0:0:0:
129,119,66970,1,8,0:0:0:0:
47,189,67431,2,0,P|25:129|38:65,1,120,8|8,0:3|0:0,0:0:0:0:
66,31,68123,2,0,P|124:12|195:35,2,120,2|2|2,0:0|0:0|0:0,0:0:0:0:
36,135,69508,2,0,L|22:204,2,60,2|8|2,0:0|0:0|0:0,0:0:0:0:
73,173,70200,6,0,P|126:206|192:197,1,120,8|8,0:3|0:0,0:0:0:0:
273,145,71123,2,0,P|331:128|392:147,1,120,8|8,0:3|0:0,0:0:0:0:
424,182,71816,2,0,L|501:184,1,60,2|8,0:0|0:3,0:0:0:0:
455,287,72508,1,8,0:3:0:0:
357,334,72970,2,0,L|347:268,2,60,8|8|8,0:3|0:0|0:0,0:0:0:0:
251,308,73893,5,4,0:0:0:0:
148,340,74354,1,8,0:0:0:0:
58,279,74816,2,0,P|46:222|69:154,1,120,8|8,0:3|0:0,0:0:0:0:
109,136,75508,2,0,P|167:147|228:137,2,120,2|2|2,0:0|0:0|0:0,0:0:0:0:
54,42,76893,2,0,L|-17:31,2,60,2|8|2,0:0|0:0|0:0,0:0:0:0:
107,37,77585,6,0,P|168:22|237:33,1,120,8|8,0:3|0:0,0:0:0:0:
315,86,78508,2,0,P|370:103|445:89,1,120,8|8,0:3|0:0,0:0:0:0:
467,55,79200,2,0,P|436:131|477:226,1,180,2|8,0:0|0:0,0:0:0:0:
468,164,80123,2,0,P|434:245|465:327,1,180,2|8,0:0|0:0,0:0:0:0:
363,362,81277,5,4,0:0:0:0:
274,299,81739,1,8,0:0:0:0:
172,336,82200,2,0,P|110:343|46:317,1,120,8|8,0:3|0:0,0:0:0:0:
23,280,82893,2,0,L|6:160,2,120,2|2|2,0:0|0:0|0:0,0:0:0:0:
111,218,84277,2,0,L|102:156,2,60,2|8|2,0:0|0:0|0:0,0:0:0:0:
155,248,84970,6,0,P|214:261|278:249,1,120,8|8,0:3|0:0,0:0:0:0:
348,175,85893,2,0,P|416:155|501:237,1,180,8|2,0:3|0:0,0:0:0:0:
481,269,86816,2,0,P|468:341|476:393,2,120,8|8|8,0:3|0:3|0:3,0:0:0:0:
373,277,88200,2,0,L|368:339,2,60,8|8|6,0:3|0:3|0:0,0:0:0:0:
1,257,103431,6,0,P|69:255|133:349,1,180,4|2,0:0|0:0,0:0:0:0:
241,346,104585,1,2,0:0:0:0:
320,272,105046,1,2,0:0:0:0:
407,337,105508,1,2,0:0:0:0:
478,256,105969,2,0,P|496:160|466:69,1,180,2|8,0:0|0:3,0:0:0:0:
366,81,107123,6,0,P|297:108|191:71,1,180,8|2,0:3|0:0,0:0:0:0:
107,23,108277,1,2,0:0:0:0:
49,114,108738,1,2,0:0:0:0:
140,173,109200,1,2,0:0:0:0:
200,80,109662,2,0,P|243:135|227:242,1,180,2|8,0:0|0:3,0:0:0:0:
149,312,110815,6,0,P|87:303|16:315,2,120,8|8|8,0:3|0:3|0:3,0:0:0:0:
200,330,111969,1,2,0:0:0:0:
300,288,112431,1,2,0:0:0:0:
214,224,112892,1,2,0:0:0:0:
199,331,113354,2,0,L|402:352,1,180,2|8,0:0|0:3,0:0:0:0:
470,293,114508,6,0,L|476:163,1,120,8|8,0:3|0:3,0:0:0:0:
463,69,115431,2,0,L|447:7,1,60,8|2,0:3|0:0,0:0:0:0:
345,43,116123,2,0,P|269:27|184:91,1,180,2|8,0:0|0:3,0:0:0:0:
167,192,117277,1,8,0:3:0:0:
68,234,117738,2,0,L|90:290,1,60,8|8,0:3|0:3,0:0:0:0:
122,335,118200,6,0,P|178:357|252:333,1,120,6|8,0:0|0:3,0:0:0:0:
275,309,118892,1,2,0:0:0:0:
364,247,119354,1,2,0:0:0:0:
268,199,119815,2,0,P|260:140|277:70,1,120,2|2,0:0|0:0,0:0:0:0:
318,52,120508,1,8,0:3:0:0:
318,52,120738,2,0,P|398:71|505:44,1,180,2|8,0:0|0:3,0:0:0:0:
496,159,121892,6,0,L|507:225,2,60,8|2|8,0:3|0:0|0:3,0:0:0:0:
450,188,122585,2,0,L|331:208,1,120,2|2,0:0|0:0,0:0:0:0:
224,209,123508,2,0,L|105:189,1,120,2|2,0:0|0:0,0:0:0:0:
63,158,124200,1,8,0:3:0:0:
63,158,124431,2,0,P|56:94|136:8,1,180,2|8,0:0|0:3,0:0:0:0:
232,38,125585,6,0,P|254:90|240:157,1,120,8|8,0:3|0:3,0:0:0:0:
225,202,126277,1,2,0:0:0:0:
321,254,126738,1,2,0:0:0:0:
400,180,127200,2,0,P|388:115|413:58,1,120,2|2,0:0|0:0,0:0:0:0:
492,133,128123,2,0,P|501:209|426:282,1,180,2|8,0:0|0:3,0:0:0:0:
329,258,129277,6,0,P|272:241|210:252,1,120,8|8,0:3|0:3,0:0:0:0:
116,296,130200,2,0,L|50:300,1,60,8|2,0:3|0:0,0:0:0:0:
256,192,130892,12,8,132046,0:3:0:0:
41,110,132969,6,0,L|35:171,2,60,6|2|8,0:0|0:0|0:3,0:0:0:0:
80,72,133662,2,0,P|135:59|202:71,1,120,2|2,0:0|0:0,0:0:0:0:
248,88,134354,1,8,0:3:0:0:
248,88,134585,2,0,P|306:98|364:84,1,120,2|2,0:0|0:0,0:0:0:0:
468,52,135508,2,0,L|475:118,1,60,2|8,0:0|0:3,0:0:0:0:
442,215,136200,1,8,0:3:0:0:
445,324,136662,6,0,L|506:331,2,60,8|2|8,0:3|0:0|0:3,0:0:0:0:
394,307,137354,2,0,P|329:298|263:313,1,120,2|2,0:0|0:0,0:0:0:0:
226,327,138046,1,8,0:3:0:0:
226,327,138277,2,0,P|162:340|99:326,1,120,2|2,0:0|0:0,0:0:0:0:
35,252,139200,2,0,L|-16:204,1,60,2|8,0:0|0:3,0:0:0:0:
44,117,139892,1,8,0:3:0:0:
151,138,140354,6,0,L|145:71,2,60,8|2|8,0:3|0:0|0:3,0:0:0:0:
170,189,141046,2,0,P|220:226|286:221,1,120,2|2,0:0|0:0,0:0:0:0:
326,204,141738,1,8,0:3:0:0:
326,204,141969,2,0,P|380:191|452:202,1,120,2|2,0:0|0:0,0:0:0:0:
487,100,142892,2,0,L|427:92,1,60,2|8,0:0|0:3,0:0:0:0:
331,45,143585,1,8,0:3:0:0:
229,81,144046,6,0,P|165:91|93:67,1,120,8|8,0:3|0:3,0:0:0:0:
63,58,144738,1,2,0:0:0:0:
22,93,144969,2,0,P|9:153|20:218,1,120,8|8,0:3|0:3,0:0:0:0:
96,286,145892,2,0,P|70:330|-1:345,2,120,8|8|8,0:3|0:3|0:3,0:0:0:0:
145,263,147046,2,0,L|211:271,1,60,8|8,0:0|0:0,0:0:0:0:
308,239,147738,5,4,0:0:0:0:
347,340,148200,1,8,0:0:0:0:
421,261,148662,2,0,P|440:193|422:131,1,120,8|8,0:3|0:0,0:0:0:0:
385,117,149354,2,0,L|265:105,2,120,2|2|2,0:0|0:0|0:0,0:0:0:0:
464,44,150738,2,0,L|498:93,2,60,2|8|2,0:0|0:0|0:0,0:0:0:0:
415,22,151431,6,0,L|295:10,1,120,8|8,0:3|0:0,0:0:0:0:
190,29,152354,2,0,P|169:81|173:146,1,120,8|8,0:3|0:0,0:0:0:0:
208,186,153046,2,0,P|140:156|73:222,1,180,2|8,0:0|0:0,0:0:0:0:
88,275,153969,2,0,P|156:305|223:239,1,180,2|8,0:0|0:0,0:0:0:0:
315,180,155123,5,4,0:0:0:0:
383,265,155585,1,8,0:0:0:0:
465,195,156046,2,0,P|487:255|474:319,1,120,8|8,0:3|0:0,0:0:0:0:
446,353,156738,2,0,P|388:372|317:349,2,120,2|2|2,0:0|0:0|0:0,0:0:0:0:
476,249,158123,2,0,L|490:180,2,60,2|8|2,0:0|0:0|0:0,0:0:0:0:
439,211,158815,6,0,P|386:178|320:187,1,120,8|8,0:3|0:0,0:0:0:0:
239,239,159738,2,0,P|181:256|120:237,1,120,8|8,0:3|0:0,0:0:0:0:
88,202,160431,2,0,L|11:200,1,60,2|0,0:0|0:0,0:0:0:0:
57,97,161123,1,8,0:0:0:0:
155,50,161585,2,0,L|165:116,2,60,8|8|8,0:3|0:0|0:0,0:0:0:0:
261,76,162508,5,4,0:0:0:0:
364,44,162969,1,8,0:0:0:0:
454,105,163431,2,0,P|466:162|443:230,1,120,8|8,0:3|0:0,0:0:0:0:
403,248,164123,2,0,P|345:237|284:247,2,120,2|2|2,0:0|0:0|0:0,0:0:0:0:
458,342,165508,2,0,L|529:353,2,60,2|8|2,0:0|0:0|0:0,0:0:0:0:
405,347,166200,6,0,P|343:361|275:351,1,120,8|8,0:3|0:0,0:0:0:0:
197,298,167123,2,0,P|142:281|67:295,1,120,8|8,0:3|0:0,0:0:0:0:
45,329,167815,2,0,P|76:253|35:158,1,180,2|8,0:0|0:0,0:0:0:0:
44,220,168738,2,0,P|77:138|46:56,1,180,2|8,0:0|0:0,0:0:0:0:
149,22,169892,5,4,0:0:0:0:
238,85,170354,1,8,0:0:0:0:
340,48,170815,2,0,P|402:41|466:67,1,120,8|8,0:3|0:0,0:0:0:0:
489,104,171508,2,0,L|506:224,2,120,2|2|2,0:0|0:0|0:0,0:0:0:0:
401,166,172892,2,0,L|410:228,2,60,2|8|2,0:0|0:0|0:0,0:0:0:0:
357,136,173585,6,0,P|298:123|234:135,1,120,8|8,0:3|0:0,0:0:0:0:
164,209,174508,2,0,P|96:229|11:147,1,180,8|2,0:3|0:0,0:0:0:0:
31,115,175431,2,0,P|43:42|36:-9,2,120,8|8|8,0:3|0:3|0:3,0:0:0:0:
139,107,176815,2,0,L|144:45,2,60,8|2|4,0:3|0:0|0:0,0:0:0:0:
88,66,197585,6,0,L|94:210,1,120,4|8,0:0|0:0,0:0:0:0:
190,140,198508,2,0,L|194:259,1,120,10|8,0:3|0:0,0:0:0:0:
291,211,199431,2,0,L|297:355,2,120,10|8|10,0:3|0:0|0:3,0:0:0:0:
329,173,200585,2,0,L|396:180,1,60,2|8,0:0|0:0,0:0:0:0:
432,80,201277,6,0,L|294:66,1,120,10|8,0:3|0:0,0:0:0:0:
204,68,202200,2,0,L|84:80,1,120,2|8,0:3|0:0,0:0:0:0:
84,188,203123,2,0,L|222:202,2,120,10|8|10,0:3|0:0|0:3,0:0:0:0:
45,288,204508,1,8,0:0:0:0:
130,354,204970,6,0,P|197:359|252:329,1,120,4|8,0:0|0:0,0:0:0:0:
321,262,205893,2,0,P|383:249|441:271,1,120,10|8,0:3|0:0,0:0:0:0:
488,173,206816,2,0,P|497:113|482:50,1,120,10|8,0:3|0:0,0:0:0:0:
385,11,207739,2,0,P|328:33|281:77,1,120,10|8,0:3|0:0,0:0:0:0:
288,180,208662,6,0,P|335:217|397:236,2,120,10|8|10,0:3|0:0|0:3,0:0:0:0:
192,129,210047,1,8,0:0:0:0:
256,192,210508,12,0,211431,0:0:0:0:
97,95,212354,6,0,L|110:231,1,120,4|8,0:0|0:0,0:0:0:0:
191,283,213277,2,0,P|256:292|319:266,1,120,8|8,0:3|0:0,0:0:0:0:
349,242,213970,2,0,P|412:225|475:239,2,120,2|2|2,0:0|0:0|0:0,0:0:0:0:
280,158,215354,2,0,L|294:98,2,60,2|8|2,0:0|0:0|0:0,0:0:0:0:
237,191,216047,6,0,P|181:218|114:218,1,120,8|8,0:3|0:0,0:0:0:0:
95,115,216970,2,0,P|151:88|218:88,1,120,8|8,0:3|0:0,0:0:0:0:
258,103,217662,2,0,P|325:126|426:77,1,180,2|8,0:0|0:0,0:0:0:0:
447,130,218585,2,0,P|393:176|385:288,1,180,2|8,0:0|0:0,0:0:0:0:
313,363,219739,5,4,0:0:0:0:
258,269,220200,1,8,0:0:0:0:
164,323,220662,2,0,P|107:331|44:308,1,120,8|8,0:3|0:0,0:0:0:0:
29,260,221354,2,0,L|22:389,2,120,2|2|2,0:0|0:0|0:0,0:0:0:0:
49,153,222739,2,0,L|20:97,2,60,2|8|2,0:0|0:0|0:0,0:0:0:0:
90,187,223431,6,0,P|146:202|223:180,1,120,8|8,0:3|0:0,0:0:0:0:
307,153,224354,1,8,0:3:0:0:
408,190,224816,2,0,L|406:253,2,60,8|2|8,0:0|0:0|0:3,0:0:0:0:
469,101,225739,1,8,0:3:0:0:
367,65,226200,2,0,L|350:0,2,60,0|8|8,0:0|0:0|0:0,0:0:0:0:
263,95,227123,6,0,P|214:117|148:104,1,120,4|8,0:0|0:0,0:0:0:0:
59,46,228047,2,0,L|41:186,1,120,8|8,0:3|0:0,0:0:0:0:
43,218,228739,2,0,L|59:338,2,120,2|2|2,0:0|0:0|0:0,0:0:0:0:
148,193,230123,2,0,L|146:125,2,60,2|8|2,0:0|0:0|0:0,0:0:0:0:
187,230,230816,6,0,P|248:253|314:237,1,120,8|8,0:3|0:0,0:0:0:0:
351,148,231739,1,8,0:3:0:0:
448,193,232200,1,8,0:0:0:0:
448,193,232431,2,0,B|459:266|459:266|397:263|361:329,1,180,2|8,0:0|0:0,0:0:0:0:
338,357,233354,2,0,B|281:385|219:353|219:353|203:288,1,180,2|8,0:0|0:0,0:0:0:0:
216,191,234508,5,4,0:0:0:0:
110,168,234970,1,8,0:0:0:0:
90,274,235431,1,8,0:3:0:0:
195,299,235893,1,8,0:0:0:0:
195,299,236123,2,0,P|264:306|328:293,2,120,2|2|2,0:0|0:0|0:0,0:0:0:0:
89,274,237508,2,0,L|69:336,2,60,2|8|2,0:0|0:0|0:0,0:0:0:0:
108,223,238200,6,0,P|127:168|123:107,1,120,8|8,0:3|0:0,0:0:0:0:
190,22,239123,1,8,0:3:0:0:
281,79,239585,2,0,L|350:80,1,60,8|2,0:0|0:0,0:0:0:0:
256,192,240047,12,4,241893,0:0:0:0:
