osu file format v14

[General]
AudioFilename: Hi-Fi day1.mp3
AudioLeadIn: 2500
PreviewTime: 59123
Countdown: 0
SampleSet: Normal
StackLeniency: 0.7
Mode: 1
LetterboxInBreaks: 1
EpilepsyWarning: 1
WidescreenStoryboard: 1

[Editor]
DistanceSpacing: 1
BeatDivisor: 4
GridSize: 32
TimelineZoom: 1

[Metadata]
Title:Hi-Fi day
TitleUnicode:Hi-Fi day
Artist:U
ArtistUnicode:U
Creator:Flask
Version:Muzukashii
Source:
Tags:gwave superfeature's vol.12 ultra u2 hifi Loneight smallboat bossandy l1106188 Broze qoot8123
BeatmapID:644389
BeatmapSetID:285279

[Difficulty]
HPDrainRate:5
CircleSize:4
OverallDifficulty:4
ApproachRate:2
SliderMultiplier:1.4
SliderTickRate:1

[Events]
//Background and Video events
0,0,"37497740.jpg",0,0
//Break Periods
2,190170,196025
//Storyboard Layer 0 (Background)
//Storyboard Layer 1 (Fail)
//Storyboard Layer 2 (Pass)
//Storyboard Layer 3 (Foreground)
//Storyboard Sound Samples

[TimingPoints]
47,461.538461538462,4,1,0,60,1,0
59123,-100,4,1,0,60,0,1
88662,-100,4,1,0,60,0,0
147739,-100,4,1,0,60,0,1
177277,-100,4,1,0,60,0,0
212354,-100,4,1,0,60,0,1
241893,-100,4,1,0,60,0,0

[HitObjects]
257,191,47,5,0,0:0:0:0:
256,192,508,1,8,0:0:0:0:
256,192,1431,1,8,0:0:0:0:
256,192,2354,1,8,0:0:0:0:
256,192,2585,1,0,0:0:0:0:
256,192,3047,1,0,0:0:0:0:
256,192,3277,1,8,0:0:0:0:
256,192,3739,1,0,0:0:0:0:
256,192,4200,1,8,0:0:0:0:
256,192,5123,1,8,0:0:0:0:
256,192,5354,1,0,0:0:0:0:
256,192,5816,1,8,0:0:0:0:
256,192,6047,1,0,0:0:0:0:
256,192,6277,1,8,0:0:0:0:
256,192,6970,1,8,0:0:0:0:
256,192,7431,1,0,0:0:0:0:
256,192,7893,1,8,0:0:0:0:
256,192,8354,1,0,0:0:0:0:
256,192,8816,1,8,0:0:0:0:
256,192,9047,1,0,0:0:0:0:
256,192,9508,1,0,0:0:0:0:
256,192,9739,1,8,0:0:0:0:
256,192,9970,1,8,0:0:0:0:
256,192,10431,1,0,0:0:0:0:
256,192,10662,1,8,0:0:0:0:
256,192,11123,1,0,0:0:0:0:
256,192,11354,1,0,0:0:0:0:
256,192,11585,1,8,0:0:0:0:
256,192,11816,1,0,0:0:0:0:
256,192,12277,1,0,0:0:0:0:
256,192,12508,1,8,0:0:0:0:
256,192,12739,1,0,0:0:0:0:
256,192,14816,1,0,0:0:0:0:
256,192,15277,1,8,0:0:0:0:
256,192,15970,1,0,0:0:0:0:
256,192,16200,1,8,0:0:0:0:
256,192,16662,1,0,0:0:0:0:
256,192,17123,1,8,0:0:0:0:
256,192,17354,1,0,0:0:0:0:
256,192,17816,1,0,0:0:0:0:
256,192,18047,1,8,0:0:0:0:
256,192,18277,1,8,0:0:0:0:
256,192,18508,1,0,0:0:0:0:
256,192,18970,1,8,0:0:0:0:
256,192,19662,1,0,0:0:0:0:
256,192,19893,1,0,0:0:0:0:
256,192,20123,1,8,0:0:0:0:
256,192,20585,1,8,0:0:0:0:
256,192,20816,1,8,0:0:0:0:
256,192,21047,1,0,0:0:0:0:
256,192,21739,1,8,0:0:0:0:
256,192,22200,1,0,0:0:0:0:
256,192,22662,1,8,0:0:0:0:
256,192,23123,1,0,0:0:0:0:
256,192,23354,1,0,0:0:0:0:
256,192,23585,1,8,0:0:0:0:
256,192,23816,1,0,0:0:0:0:
256,192,24277,1,8,0:0:0:0:
256,192,24508,1,0,0:0:0:0:
256,192,24739,1,8,0:0:0:0:
256,192,25431,1,8,0:0:0:0:
256,192,25662,1,0,0:0:0:0:
256,192,25893,1,0,0:0:0:0:
256,192,26354,1,8,0:0:0:0:
256,192,26816,1,0,0:0:0:0:
256,192,27047,1,0,0:0:0:0:
256,192,27277,1,8,0:0:0:0:
256,192,27508,1,8,0:0:0:0:
256,192,29585,1,8,0:0:0:0:
256,192,30047,1,8,0:0:0:0:
256,192,30508,1,0,0:0:0:0:
256,192,30739,1,0,0:0:0:0:
256,192,30970,1,8,0:0:0:0:
256,192,31200,1,0,0:0:0:0:
256,192,31662,1,8,0:0:0:0:
256,192,31893,1,8,0:0:0:0:
256,192,32123,1,0,0:0:0:0:
256,192,32816,1,8,0:0:0:0:
256,192,33047,1,0,0:0:0:0:
256,192,33277,1,8,0:0:0:0:
256,192,33739,1,8,0:0:0:0:
256,192,34200,1,0,0:0:0:0:
256,192,34431,1,0,0:0:0:0:
256,192,34662,1,8,0:0:0:0:
256,192,34893,1,8,0:0:0:0:
256,192,35354,1,8,0:0:0:0:
256,192,35585,1,0,0:0:0:0:
256,192,35816,1,8,0:0:0:0:
256,192,36508,1,8,0:0:0:0:
256,192,36739,1,0,0:0:0:0:
256,192,36970,1,0,0:0:0:0:
256,192,37431,1,8,0:0:0:0:
256,192,37893,1,0,0:0:0:0:
256,192,38123,1,0,0:0:0:0:
256,192,38354,1,8,0:0:0:0:
256,192,38585,1,8,0:0:0:0:
256,192,39047,1,8,0:0:0:0:
256,192,39277,1,0,0:0:0:0:
256,192,39508,1,8,0:0:0:0:
256,192,40200,1,8,0:0:0:0:
256,192,40431,1,0,0:0:0:0:
256,192,40662,1,0,0:0:0:0:
256,192,41123,1,0,0:0:0:0:
256,192,41585,1,8,0:0:0:0:
256,192,41816,1,0,0:0:0:0:
256,192,42047,1,0,0:0:0:0:
256,192,42277,1,8,0:0:0:0:
256,192,44354,1,8,0:0:0:0:
256,192,44816,1,8,0:0:0:0:
256,192,45047,1,8,0:0:0:0:
256,192,45508,1,8,0:0:0:0:
256,192,45970,1,0,0:0:0:0:
256,192,46431,1,0,0:0:0:0:
256,192,46662,1,0,0:0:0:0:
256,192,46893,1,8,0:0:0:0:
256,192,47123,1,0,0:0:0:0:
256,192,48047,1,8,0:0:0:0:
256,192,48508,1,8,0:0:0:0:
256,192,48739,1,8,0:0:0:0:
256,192,49200,1,8,0:0:0:0:
256,192,49662,1,8,0:0:0:0:
256,192,50123,1,8,0:0:0:0:
256,192,50354,1,0,0:0:0:0:
256,192,50585,1,8,0:0:0:0:
256,192,50816,1,0,0:0:0:0:
256,192,51739,1,0,0:0:0:0:
256,192,52200,1,8,0:0:0:0:
256,192,52431,1,8,0:0:0:0:
256,192,52893,1,8,0:0:0:0:
256,192,53354,1,8,0:0:0:0:
256,192,53816,1,8,0:0:0:0:
256,192,54047,1,0,0:0:0:0:
256,192,54277,1,8,0:0:0:0:
256,192,54508,1,8,0:0:0:0:
256,192,55431,1,0,0:0:0:0:
256,192,55893,1,8,0:0:0:0:
256,192,56354,1,0,0:0:0:0:
256,192,56585,1,0,0:0:0:0:
256,192,56816,1,8,0:0:0:0:
256,192,57047,1,8,0:0:0:0:
256,192,57739,1,8,0:0:0:0:
256,192,58200,1,0,0:0:0:0:
256,192,58431,1,8,0:0:0:0:
256,192,58662,1,8,0:0:0:0:
256,192,58893,1,8,0:0:0:0:
256,192,59123,1,4,0:0:0:0:
256,192,59585,1,8,0:0:0:0:
256,192,60047,1,0,0:0:0:0:
256,192,60277,1,0,0:0:0:0:
256,192,60508,1,8,0:0:0:0:
256,192,60739,1,0,0:0:0:0:
256,192,61200,1,0,0:0:0:0:
256,192,61431,1,8,0:0:0:0:
256,192,61662,1,8,0:0:0:0:
256,192,62123,1,0,0:0:0:0:
256,192,62354,1,8,0:0:0:0:
256,192,62816,1,0,0:0:0:0:
256,192,63277,1,8,0:0:0:0:
256,192,63739,1,0,0:0:0:0:
256,192,63970,1,0,0:0:0:0:
256,192,64200,1,8,0:0:0:0:
256,192,64431,1,0,0:0:0:0:
256,192,64893,1,0,0:0:0:0:
256,192,65123,1,8,0:0:0:0:
256,192,65354,1,0,0:0:0:0:
256,192,65816,1,0,0:0:0:0:
256,192,66047,1,8,0:0:0:0:
256,192,66508,1,12,0:0:0:0:
256,192,66970,1,8,0:0:0:0:
256,192,67431,1,0,0:0:0:0:
256,192,67662,1,0,0:0:0:0:
256,192,67893,1,8,0:0:0:0:
256,192,68123,1,0,0:0:0:0:
256,192,68585,1,0,0:0:0:0:
256,192,68816,1,8,0:0:0:0:
256,192,69047,1,8,0:0:0:0:
256,192,69508,1,8,0:0:0:0:
256,192,69739,1,8,0:0:0:0:
256,192,70200,1,0,0:0:0:0:
256,192,70431,1,0,0:0:0:0:
256,192,70662,1,8,0:0:0:0:
256,192,71123,1,8,0:0:0:0:
256,192,71354,1,0,0:0:0:0:
256,192,71585,1,8,0:0:0:0:
256,192,71816,1,8,0:0:0:0:
256,192,72047,1,0,0:0:0:0:
256,192,72970,1,0,0:0:0:0:
256,192,73200,1,8,0:0:0:0:
256,192,73431,1,8,0:0:0:0:
256,192,73662,1,8,0:0:0:0:
256,192,73893,1,4,0:0:0:0:
256,192,74354,1,8,0:0:0:0:
256,192,74816,1,0,0:0:0:0:
256,192,75047,1,0,0:0:0:0:
256,192,75277,1,8,0:0:0:0:
256,192,75508,1,0,0:0:0:0:
256,192,75970,1,0,0:0:0:0:
256,192,76200,1,8,0:0:0:0:
256,192,76431,1,8,0:0:0:0:
256,192,76893,1,0,0:0:0:0:
256,192,77123,1,8,0:0:0:0:
256,192,77585,1,0,0:0:0:0:
256,192,78047,1,8,0:0:0:0:
256,192,78508,1,0,0:0:0:0:
256,192,78739,1,0,0:0:0:0:
256,192,78970,1,8,0:0:0:0:
256,192,79200,1,0,0:0:0:0:
256,192,79662,1,0,0:0:0:0:
256,192,79893,1,8,0:0:0:0:
256,192,80123,1,0,0:0:0:0:
256,192,80585,1,0,0:0:0:0:
256,192,80816,1,8,0:0:0:0:
256,192,81277,1,12,0:0:0:0:
256,192,81739,1,8,0:0:0:0:
256,192,82200,1,0,0:0:0:0:
256,192,82431,1,0,0:0:0:0:
256,192,82662,1,8,0:0:0:0:
256,192,82893,1,0,0:0:0:0:
256,192,83354,1,0,0:0:0:0:
256,192,83585,1,8,0:0:0:0:
256,192,83816,1,8,0:0:0:0:
256,192,84277,1,0,0:0:0:0:
256,192,84508,1,8,0:0:0:0:
256,192,84970,1,8,0:0:0:0:
256,192,85200,1,0,0:0:0:0:
256,192,85431,1,8,0:0:0:0:
256,192,85893,1,8,0:0:0:0:
256,192,86123,1,0,0:0:0:0:
256,192,86354,1,8,0:0:0:0:
256,192,86585,1,8,0:0:0:0:
256,192,86816,1,0,0:0:0:0:
256,192,88662,1,0,0:0:0:0:
256,192,89123,1,8,0:0:0:0:
256,192,90047,1,8,0:0:0:0:
256,192,90970,1,8,0:0:0:0:
256,192,91200,1,8,0:0:0:0:
256,192,91662,1,0,0:0:0:0:
256,192,91893,1,8,0:0:0:0:
256,192,92123,1,8,0:0:0:0:
256,192,92354,1,0,0:0:0:0:
256,192,92816,1,8,0:0:0:0:
256,192,93739,1,8,0:0:0:0:
256,192,93970,1,0,0:0:0:0:
256,192,94431,1,8,0:0:0:0:
256,192,94662,1,0,0:0:0:0:
256,192,94893,1,8,0:0:0:0:
256,192,95585,1,8,0:0:0:0:
256,192,96047,1,0,0:0:0:0:
256,192,96508,1,8,0:0:0:0:
256,192,96970,1,0,0:0:0:0:
256,192,97431,1,8,0:0:0:0:
256,192,97662,1,0,0:0:0:0:
256,192,98123,1,0,0:0:0:0:
256,192,98354,1,8,0:0:0:0:
256,192,98585,1,8,0:0:0:0:
256,192,99047,1,0,0:0:0:0:
256,192,99277,1,8,0:0:0:0:
256,192,99739,1,0,0:0:0:0:
256,192,99970,1,0,0:0:0:0:
256,192,100200,1,8,0:0:0:0:
256,192,100431,1,0,0:0:0:0:
256,192,100893,1,0,0:0:0:0:
256,192,101123,1,8,0:0:0:0:
256,192,101354,1,0,0:0:0:0:
256,192,103431,1,0,0:0:0:0:
256,192,103893,1,8,0:0:0:0:
256,192,104585,1,0,0:0:0:0:
256,192,104816,1,8,0:0:0:0:
256,192,105277,1,0,0:0:0:0:
256,192,105739,1,8,0:0:0:0:
256,192,105970,1,0,0:0:0:0:
256,192,106431,1,0,0:0:0:0:
256,192,106662,1,8,0:0:0:0:
256,192,106893,1,8,0:0:0:0:
256,192,107123,1,0,0:0:0:0:
256,192,107585,1,8,0:0:0:0:
256,192,108277,1,0,0:0:0:0:
256,192,108508,1,0,0:0:0:0:
256,192,108739,1,8,0:0:0:0:
256,192,109200,1,8,0:0:0:0:
256,192,109431,1,0,0:0:0:0:
256,192,109662,1,8,0:0:0:0:
256,192,110354,1,8,0:0:0:0:
256,192,110816,1,0,0:0:0:0:
256,192,111277,1,8,0:0:0:0:
256,192,111739,1,0,0:0:0:0:
256,192,111970,1,0,0:0:0:0:
256,192,112200,1,8,0:0:0:0:
256,192,112431,1,0,0:0:0:0:
256,192,112893,1,8,0:0:0:0:
256,192,113123,1,0,0:0:0:0:
256,192,113354,1,8,0:0:0:0:
256,192,114047,1,8,0:0:0:0:
256,192,114277,1,0,0:0:0:0:
256,192,114508,1,0,0:0:0:0:
256,192,114970,1,8,0:0:0:0:
256,192,115431,1,8,0:0:0:0:
256,192,115662,1,0,0:0:0:0:
256,192,115893,1,8,0:0:0:0:
256,192,116123,1,8,0:0:0:0:
256,192,118200,1,8,0:0:0:0:
256,192,118662,1,8,0:0:0:0:
256,192,119123,1,0,0:0:0:0:
256,192,119354,1,0,0:0:0:0:
256,192,119585,1,8,0:0:0:0:
256,192,119816,1,0,0:0:0:0:
256,192,120277,1,8,0:0:0:0:
256,192,120508,1,8,0:0:0:0:
256,192,120739,1,0,0:0:0:0:
256,192,121431,1,8,0:0:0:0:
256,192,121662,1,0,0:0:0:0:
256,192,121893,1,8,0:0:0:0:
256,192,122354,1,8,0:0:0:0:
256,192,122816,1,0,0:0:0:0:
256,192,123047,1,0,0:0:0:0:
256,192,123277,1,8,0:0:0:0:
256,192,123508,1,8,0:0:0:0:
256,192,123970,1,8,0:0:0:0:
256,192,124200,1,0,0:0:0:0:
256,192,124431,1,8,0:0:0:0:
256,192,125123,1,8,0:0:0:0:
256,192,125354,1,0,0:0:0:0:
256,192,125585,1,0,0:0:0:0:
256,192,126047,1,8,0:0:0:0:
256,192,126508,1,0,0:0:0:0:
256,192,126739,1,0,0:0:0:0:
256,192,126970,1,8,0:0:0:0:
256,192,127200,1,8,0:0:0:0:
256,192,127662,1,8,0:0:0:0:
256,192,127893,1,0,0:0:0:0:
256,192,128123,1,8,0:0:0:0:
256,192,128816,1,8,0:0:0:0:
256,192,129047,1,0,0:0:0:0:
256,192,129277,1,0,0:0:0:0:
256,192,129739,1,0,0:0:0:0:
256,192,130200,1,8,0:0:0:0:
256,192,130431,1,0,0:0:0:0:
256,192,130662,1,0,0:0:0:0:
256,192,130893,1,8,0:0:0:0:
256,192,132970,1,8,0:0:0:0:
256,192,133431,1,8,0:0:0:0:
256,192,133662,1,8,0:0:0:0:
256,192,134123,1,8,0:0:0:0:
256,192,134354,1,8,0:0:0:0:
256,192,134585,1,0,0:0:0:0:
256,192,135047,1,0,0:0:0:0:
256,192,135277,1,0,0:0:0:0:
256,192,135508,1,8,0:0:0:0:
256,192,135739,1,0,0:0:0:0:
256,192,136662,1,8,0:0:0:0:
256,192,137123,1,8,0:0:0:0:
256,192,137354,1,8,0:0:0:0:
256,192,137816,1,8,0:0:0:0:
256,192,138047,1,8,0:0:0:0:
256,192,138277,1,8,0:0:0:0:
256,192,138739,1,8,0:0:0:0:
256,192,138970,1,0,0:0:0:0:
256,192,139200,1,8,0:0:0:0:
256,192,139431,1,0,0:0:0:0:
256,192,140354,1,0,0:0:0:0:
256,192,140816,1,8,0:0:0:0:
256,192,141047,1,8,0:0:0:0:
256,192,141508,1,8,0:0:0:0:
256,192,141739,1,8,0:0:0:0:
256,192,141970,1,8,0:0:0:0:
256,192,142431,1,8,0:0:0:0:
256,192,142662,1,0,0:0:0:0:
256,192,142893,1,8,0:0:0:0:
256,192,143123,1,8,0:0:0:0:
256,192,144047,1,0,0:0:0:0:
256,192,144508,1,8,0:0:0:0:
256,192,144970,1,0,0:0:0:0:
256,192,145200,1,0,0:0:0:0:
256,192,145431,1,8,0:0:0:0:
256,192,145662,1,8,0:0:0:0:
256,192,146354,1,8,0:0:0:0:
256,192,146816,1,0,0:0:0:0:
256,192,147047,1,8,0:0:0:0:
256,192,147277,1,8,0:0:0:0:
256,192,147508,1,8,0:0:0:0:
256,192,147739,1,4,0:0:0:0:
256,192,148200,1,8,0:0:0:0:
256,192,148662,1,0,0:0:0:0:
256,192,148893,1,0,0:0:0:0:
256,192,149123,1,8,0:0:0:0:
256,192,149354,1,0,0:0:0:0:
256,192,149816,1,0,0:0:0:0:
256,192,150047,1,8,0:0:0:0:
256,192,150277,1,8,0:0:0:0:
256,192,150739,1,0,0:0:0:0:
256,192,150970,1,8,0:0:0:0:
256,192,151431,1,0,0:0:0:0:
256,192,151893,1,8,0:0:0:0:
256,192,152354,1,0,0:0:0:0:
256,192,152585,1,0,0:0:0:0:
256,192,152816,1,8,0:0:0:0:
256,192,153047,1,0,0:0:0:0:
256,192,153508,1,0,0:0:0:0:
256,192,153739,1,8,0:0:0:0:
256,192,153970,1,0,0:0:0:0:
256,192,154431,1,0,0:0:0:0:
256,192,154662,1,8,0:0:0:0:
256,192,155123,1,12,0:0:0:0:
256,192,155585,1,8,0:0:0:0:
256,192,156047,1,0,0:0:0:0:
256,192,156277,1,0,0:0:0:0:
256,192,156508,1,8,0:0:0:0:
256,192,156739,1,0,0:0:0:0:
256,192,157200,1,0,0:0:0:0:
256,192,157431,1,8,0:0:0:0:
256,192,157662,1,8,0:0:0:0:
256,192,158123,1,0,0:0:0:0:
256,192,158354,1,8,0:0:0:0:
256,192,158816,1,0,0:0:0:0:
256,192,159047,1,0,0:0:0:0:
256,192,159277,1,8,0:0:0:0:
256,192,159739,1,8,0:0:0:0:
256,192,159970,1,0,0:0:0:0:
256,192,160200,1,8,0:0:0:0:
256,192,160431,1,8,0:0:0:0:
256,192,160662,1,0,0:0:0:0:
256,192,161585,1,0,0:0:0:0:
256,192,161816,1,8,0:0:0:0:
256,192,162047,1,8,0:0:0:0:
256,192,162277,1,8,0:0:0:0:
256,192,162508,1,4,0:0:0:0:
256,192,162970,1,8,0:0:0:0:
256,192,163431,1,0,0:0:0:0:
256,192,163662,1,0,0:0:0:0:
256,192,163893,1,8,0:0:0:0:
256,192,164123,1,0,0:0:0:0:
256,192,164585,1,0,0:0:0:0:
256,192,164816,1,8,0:0:0:0:
256,192,165047,1,8,0:0:0:0:
256,192,165508,1,0,0:0:0:0:
256,192,165739,1,8,0:0:0:0:
256,192,166200,1,0,0:0:0:0:
256,192,166662,1,8,0:0:0:0:
256,192,167123,1,0,0:0:0:0:
256,192,167354,1,0,0:0:0:0:
256,192,167585,1,8,0:0:0:0:
256,192,167816,1,0,0:0:0:0:
256,192,168277,1,0,0:0:0:0:
256,192,168508,1,8,0:0:0:0:
256,192,168739,1,0,0:0:0:0:
256,192,169200,1,0,0:0:0:0:
256,192,169431,1,8,0:0:0:0:
256,192,169893,1,12,0:0:0:0:
256,192,170354,1,8,0:0:0:0:
256,192,170816,1,0,0:0:0:0:
256,192,171047,1,0,0:0:0:0:
256,192,171277,1,8,0:0:0:0:
256,192,171508,1,0,0:0:0:0:
256,192,171970,1,0,0:0:0:0:
256,192,172200,1,8,0:0:0:0:
256,192,172431,1,8,0:0:0:0:
256,192,172893,1,0,0:0:0:0:
256,192,173123,1,8,0:0:0:0:
256,192,173585,1,8,0:0:0:0:
256,192,173816,1,0,0:0:0:0:
256,192,174047,1,8,0:0:0:0:
256,192,174508,1,8,0:0:0:0:
256,192,174739,1,0,0:0:0:0:
256,192,174970,1,8,0:0:0:0:
256,192,175200,1,8,0:0:0:0:
256,192,175431,1,0,0:0:0:0:
256,192,177277,1,0,0:0:0:0:
256,192,177739,1,8,0:0:0:0:
256,192,178662,1,8,0:0:0:0:
256,192,179585,1,8,0:0:0:0:
256,192,179816,1,8,0:0:0:0:
256,192,180277,1,0,0:0:0:0:
256,192,180508,1,8,0:0:0:0:
256,192,180739,1,8,0:0:0:0:
256,192,180970,1,0,0:0:0:0:
256,192,181431,1,8,0:0:0:0:
256,192,182354,1,8,0:0:0:0:
256,192,182585,1,0,0:0:0:0:
256,192,183047,1,8,0:0:0:0:
256,192,183277,1,0,0:0:0:0:
256,192,183508,1,8,0:0:0:0:
256,192,184200,1,8,0:0:0:0:
256,192,184662,1,0,0:0:0:0:
256,192,185123,1,8,0:0:0:0:
256,192,186047,1,8,0:0:0:0:
256,192,186277,1,0,0:0:0:0:
256,192,186739,1,0,0:0:0:0:
256,192,186970,1,8,0:0:0:0:
256,192,187200,1,8,0:0:0:0:
256,192,187893,1,8,0:0:0:0:
256,192,188354,1,0,0:0:0:0:
256,192,188816,1,8,0:0:0:0:
256,192,189047,1,0,0:0:0:0:
256,192,189508,1,0,0:0:0:0:
256,192,189739,1,8,0:0:0:0:
256,192,189970,1,8,0:0:0:0:
256,192,197585,5,4,0:0:0:0:
256,192,198047,1,8,0:0:0:0:
256,192,198508,1,0,0:0:0:0:
256,192,198970,1,8,0:0:0:0:
256,192,199200,1,0,0:0:0:0:
256,192,199431,1,0,0:0:0:0:
256,192,199893,1,8,0:0:0:0:
256,192,200354,1,0,0:0:0:0:
256,192,200816,1,8,0:0:0:0:
256,192,201047,1,0,0:0:0:0:
256,192,201277,1,0,0:0:0:0:
256,192,201739,1,8,0:0:0:0:
256,192,202200,1,0,0:0:0:0:
256,192,202662,1,8,0:0:0:0:
256,192,202893,1,0,0:0:0:0:
256,192,203123,1,0,0:0:0:0:
256,192,203585,1,8,0:0:0:0:
256,192,203816,1,0,0:0:0:0:
256,192,204047,1,0,0:0:0:0:
256,192,204508,1,8,0:0:0:0:
256,192,204970,1,4,0:0:0:0:
256,192,205893,1,8,0:0:0:0:
256,192,206354,1,0,0:0:0:0:
256,192,206585,1,8,0:0:0:0:
256,192,206816,1,8,0:0:0:0:
256,192,207277,1,0,0:0:0:0:
256,192,207508,1,8,0:0:0:0:
256,192,207739,1,8,0:0:0:0:
256,192,208200,1,8,0:0:0:0:
256,192,208662,1,0,0:0:0:0:
256,192,209585,1,0,0:0:0:0:
256,192,210047,1,8,0:0:0:0:
256,192,210277,1,8,0:0:0:0:
256,192,210508,1,0,0:0:0:0:
256,192,211431,1,0,0:0:0:0:
256,192,211662,1,8,0:0:0:0:
256,192,211893,1,8,0:0:0:0:
256,192,212123,1,8,0:0:0:0:
256,192,212354,1,4,0:0:0:0:
256,192,212816,1,8,0:0:0:0:
256,192,213277,1,0,0:0:0:0:
256,192,213508,1,0,0:0:0:0:
256,192,213739,1,8,0:0:0:0:
256,192,213970,1,0,0:0:0:0:
256,192,214431,1,0,0:0:0:0:
256,192,214662,1,8,0:0:0:0:
256,192,214893,1,8,0:0:0:0:
256,192,215354,1,0,0:0:0:0:
256,192,215585,1,8,0:0:0:0:
256,192,216047,1,0,0:0:0:0:
256,192,216508,1,8,0:0:0:0:
256,192,216970,1,0,0:0:0:0:
256,192,217200,1,0,0:0:0:0:
256,192,217431,1,8,0:0:0:0:
256,192,217662,1,0,0:0:0:0:
256,192,218123,1,0,0:0:0:0:
256,192,218354,1,8,0:0:0:0:
256,192,218585,1,0,0:0:0:0:
256,192,219047,1,0,0:0:0:0:
256,192,219277,1,8,0:0:0:0:
256,192,219739,1,12,0:0:0:0:
256,192,220200,1,8,0:0:0:0:
256,192,220662,1,0,0:0:0:0:
256,192,220893,1,0,0:0:0:0:
256,192,221123,1,8,0:0:0:0:
256,192,221354,1,0,0:0:0:0:
256,192,221816,1,0,0:0:0:0:
256,192,222047,1,8,0:0:0:0:
256,192,222277,1,8,0:0:0:0:
256,192,222739,1,0,0:0:0:0:
256,192,222970,1,8,0:0:0:0:
256,192,223431,1,0,0:0:0:0:
256,192,223662,1,0,0:0:0:0:
256,192,223893,1,8,0:0:0:0:
256,192,224354,1,8,0:0:0:0:
256,192,224585,1,0,0:0:0:0:
256,192,224816,1,8,0:0:0:0:
256,192,225047,1,8,0:0:0:0:
256,192,225277,1,0,0:0:0:0:
256,192,226200,1,0,0:0:0:0:
256,192,226431,1,8,0:0:0:0:
256,192,226662,1,8,0:0:0:0:
256,192,226893,1,8,0:0:0:0:
256,192,227123,1,4,0:0:0:0:
256,192,227585,1,8,0:0:0:0:
256,192,228047,1,0,0:0:0:0:
256,192,228277,1,0,0:0:0:0:
256,192,228508,1,8,0:0:0:0:
256,192,228739,1,0,0:0:0:0:
256,192,229200,1,0,0:0:0:0:
256,192,229431,1,8,0:0:0:0:
256,192,229662,1,8,0:0:0:0:
256,192,230123,1,0,0:0:0:0:
256,192,230354,1,8,0:0:0:0:
256,192,230816,1,0,0:0:0:0:
256,192,231277,1,8,0:0:0:0:
256,192,231739,1,0,0:0:0:0:
256,192,231970,1,0,0:0:0:0:
256,192,232200,1,8,0:0:0:0:
256,192,232431,1,0,0:0:0:0:
256,192,232893,1,0,0:0:0:0:
256,192,233123,1,8,0:0:0:0:
256,192,233354,1,0,0:0:0:0:
256,192,233816,1,0,0:0:0:0:
256,192,234047,1,8,0:0:0:0:
256,192,234508,1,12,0:0:0:0:
256,192,234970,1,8,0:0:0:0:
256,192,235431,1,0,0:0:0:0:
256,192,235662,1,0,0:0:0:0:
256,192,235893,1,8,0:0:0:0:
256,192,236123,1,0,0:0:0:0:
256,192,236585,1,0,0:0:0:0:
256,192,236816,1,8,0:0:0:0:
256,192,237047,1,8,0:0:0:0:
256,192,237508,1,0,0:0:0:0:
256,192,237739,1,8,0:0:0:0:
256,192,238200,1,8,0:0:0:0:
256,192,238431,1,0,0:0:0:0:
256,192,238662,1,8,0:0:0:0:
256,192,239123,1,8,0:0:0:0:
256,192,239354,1,0,0:0:0:0:
256,192,239585,1,8,0:0:0:0:
256,192,239816,1,8,0:0:0:0:
256,192,240047,1,0,0:0:0:0:
256,192,241893,1,0,0:0:0:0:
256,192,242816,1,0,0:0:0:0:
256,192,243508,1,8,0:0:0:0:
256,192,243970,1,8,0:0:0:0:
256,192,244431,1,8,0:0:0:0:
256,192,245123,1,8,0:0:0:0:
256,192,245585,1,0,0:0:0:0:
256,192,246508,1,0,0:0:0:0:
256,192,247200,1,8,0:0:0:0:
256,192,247662,1,8,0:0:0:0:
256,192,248123,1,8,0:0:0:0:
256,192,248816,1,8,0:0:0:0:
256,192,249277,1,0,0:0:0:0:
256,192,250200,1,0,0:0:0:0:
256,192,250893,1,8,0:0:0:0:
256,192,251354,1,8,0:0:0:0:
256,192,251816,1,8,0:0:0:0:
256,192,252508,1,8,0:0:0:0:
256,192,252970,1,0,0:0:0:0:
256,192,253662,1,8,0:0:0:0:
256,192,254354,1,0,0:0:0:0:
256,192,254585,1,8,0:0:0:0:
