osu file format v14

[General]
AudioFilename: Hi-Fi day1.mp3
AudioLeadIn: 2500
PreviewTime: 59123
Countdown: 0
SampleSet: Soft
StackLeniency: 0.7
Mode: 0
LetterboxInBreaks: 1
EpilepsyWarning: 1
WidescreenStoryboard: 1

[Editor]
DistanceSpacing: 1
BeatDivisor: 4
GridSize: 32
TimelineZoom: 1

[Metadata]
Title:Hi-Fi day
TitleUnicode:Hi-Fi day
Artist:U
ArtistUnicode:U
Creator:Flask
Version:Hard
Source:
Tags:gwave superfeature's vol.12 ultra u2 hifi Loneight smallboat bossandy l1106188 Broze qoot8123
BeatmapID:644387
BeatmapSetID:285279

[Difficulty]
HPDrainRate:6
CircleSize:4
OverallDifficulty:6
ApproachRate:7
SliderMultiplier:1.5
SliderTickRate:2

[Events]
//Background and Video events
0,0,"37497740.jpg",0,0
//Break Periods
2,88862,102531
2,177478,196685
//Storyboard Layer 0 (Background)
//Storyboard Layer 1 (Fail)
//Storyboard Layer 2 (Pass)
//Storyboard Layer 3 (Foreground)
//Storyboard Sound Samples

[TimingPoints]
47,461.538461538462,4,2,1,50,1,0
10085,-100,4,2,2,50,0,0
10316,-100,4,2,1,50,0,0
12854,-100,4,2,2,50,0,0
13085,-100,4,2,1,50,0,0
13316,-100,4,2,1,30,0,0
14816,-125,4,2,2,50,0,0
14931,-125,4,2,1,50,0,0
15623,-125,4,2,2,50,0,0
15854,-125,4,2,1,50,0,0
16547,-125,4,2,2,50,0,0
17239,-125,4,2,1,50,0,0
19316,-125,4,2,2,50,0,0
19547,-125,4,2,1,50,0,0
20239,-125,4,2,2,50,0,0
20931,-125,4,2,1,50,0,0
23931,-125,4,2,2,50,0,0
24623,-125,4,2,1,50,0,0
29008,-125,4,2,1,30,0,0
29470,-125,4,2,1,50,0,0
29585,-100,4,2,2,50,0,0
29700,-100,4,2,1,50,0,0
30393,-100,4,2,2,50,0,0
30623,-100,4,2,1,50,0,0
31316,-100,4,2,2,50,0,0
31547,-100,4,2,1,50,0,0
34085,-100,4,2,2,50,0,0
34316,-100,4,2,1,50,0,0
35008,-100,4,2,2,50,0,0
35239,-100,4,2,1,50,0,0
37777,-100,4,2,2,50,0,0
38239,-100,4,2,1,50,0,0
38700,-100,4,2,2,50,0,0
39393,-100,4,2,1,50,0,0
42393,-100,4,2,2,50,0,0
42623,-100,4,2,1,50,0,0
44354,-100,4,2,2,50,0,0
44470,-100,4,2,1,50,0,0
45162,-100,4,2,2,50,0,0
45393,-100,4,2,1,50,0,0
48854,-100,4,2,2,50,0,0
49085,-100,4,2,1,50,0,0
52547,-100,4,2,2,50,0,0
52777,-100,4,2,1,50,0,0
59123,-100,4,2,1,70,0,1
64547,-100,4,2,2,70,0,1
64777,-100,4,2,1,70,0,1
65470,-100,4,2,2,70,0,1
65700,-100,4,2,1,70,0,1
71931,-100,4,2,1,30,0,1
73085,-100,4,2,1,50,0,1
73431,-100,4,2,1,30,0,1
73893,-100,4,2,1,70,0,1
75623,-100,4,2,2,70,0,1
75854,-100,4,2,1,70,0,1
76547,-100,4,2,2,70,0,1
76777,-100,4,2,1,70,0,1
79316,-100,4,2,2,70,0,1
79547,-100,4,2,1,70,0,1
80239,-100,4,2,2,70,0,1
80470,-100,4,2,1,70,0,1
86700,-100,4,2,1,30,0,1
88547,-100,4,2,1,50,0,1
88662,-100,4,2,2,50,0,0
88777,-100,4,2,1,50,0,0
103431,-100,4,2,2,50,0,0
103547,-100,4,2,1,50,0,0
104239,-100,4,2,2,50,0,0
104470,-100,4,2,1,50,0,0
105162,-100,4,2,2,50,0,0
105854,-100,4,2,1,50,0,0
107931,-100,4,2,2,50,0,0
108162,-100,4,2,1,50,0,0
112547,-100,4,2,2,50,0,0
113239,-100,4,2,1,50,0,0
115777,-100,4,2,2,50,0,0
116470,-100,4,2,1,50,0,0
118200,-100,4,2,2,50,0,0
118316,-100,4,2,1,50,0,0
119008,-100,4,2,2,50,0,0
119239,-100,4,2,1,50,0,0
120854,-100,4,2,2,50,0,0
121085,-100,4,2,1,50,0,0
122700,-100,4,2,2,50,0,0
122931,-100,4,2,1,50,0,0
123623,-100,4,2,2,50,0,0
123854,-100,4,2,1,50,0,0
124547,-100,4,2,2,50,0,0
124777,-100,4,2,1,50,0,0
126393,-100,4,2,2,50,0,0
126623,-100,4,2,1,50,0,0
127316,-100,4,2,2,50,0,0
127547,-100,4,2,1,50,0,0
128239,-100,4,2,2,50,0,0
128470,-100,4,2,1,50,0,0
132970,-100,4,2,2,50,0,0
133085,-100,4,2,1,50,0,0
133777,-100,4,2,2,50,0,0
134008,-100,4,2,1,50,0,0
134700,-100,4,2,2,50,0,0
135393,-100,4,2,1,50,0,0
137470,-100,4,2,2,50,0,0
137700,-100,4,2,1,50,0,0
141162,-100,4,2,2,50,0,0
141393,-100,4,2,1,50,0,0
142085,-100,4,2,2,50,0,0
142777,-100,4,2,1,50,0,0
147739,-100,4,2,1,70,0,1
149470,-100,4,2,2,70,0,1
149700,-100,4,2,1,70,0,1
149931,-100,4,2,3,70,0,1
150162,-100,4,2,1,70,0,1
153162,-100,4,2,2,70,0,1
153393,-100,4,2,1,70,0,1
154085,-100,4,2,2,70,0,1
154316,-100,4,2,1,70,0,1
156854,-100,4,2,2,70,0,1
157085,-100,4,2,1,70,0,1
164239,-100,4,2,2,70,0,1
164470,-100,4,2,1,70,0,1
165162,-100,4,2,2,70,0,1
165393,-100,4,2,1,70,0,1
167931,-100,4,2,2,70,0,1
168162,-100,4,2,1,70,0,1
168854,-100,4,2,2,70,0,1
169085,-100,4,2,1,70,0,1
177277,-100,4,2,2,50,0,0
177393,-100,4,2,1,30,0,0
197585,-100,4,2,1,70,0,1
197700,-100,4,2,1,70,0,0
212354,-100,4,2,1,70,0,1
217777,-100,4,2,2,70,0,1
218008,-100,4,2,1,70,0,1
218700,-100,4,2,2,70,0,1
218931,-100,4,2,1,70,0,1
232547,-100,4,2,2,70,0,1
232777,-100,4,2,1,70,0,1
233470,-100,4,2,2,70,0,1
233700,-100,4,2,1,70,0,1
241893,-100,4,2,1,50,0,0

[Colours]
Combo1 : 70,163,255
Combo2 : 255,117,117
Combo3 : 255,255,121
Combo4 : 255,143,89
Combo5 : 98,249,158

[HitObjects]
84,40,47,6,0,P|92:84|88:120,1,75,0|0,0:0|0:0,0:0:0:0:
64,192,508,1,2,0:0:0:0:
12,256,739,2,0,P|72:276|140:216,1,150,0|0,0:0|0:0,0:0:0:0:
196,172,1431,1,2,0:0:0:0:
248,108,1662,2,0,P|308:68|396:100,1,150,0|0,0:0|0:0,0:0:0:0:
324,148,2354,1,2,0:0:0:0:
456,48,2585,2,0,B|480:104|448:148|448:148|484:208|444:276,1,225,2|2,0:0|0:0,0:0:0:0:
356,356,3508,1,0,0:0:0:0:
236,252,3739,6,0,L|160:244,2,75,0|0|2,0:0|0:0|0:0,0:0:0:0:
284,320,4431,1,0,0:0:0:0:
204,332,4662,2,0,L|120:324,1,75,0|2,0:0|0:0,0:0:0:0:
56,364,5123,1,0,0:0:0:0:
80,228,5354,2,0,P|92:152|40:92,1,150,2|2,0:0|0:0,0:0:0:0:
20,172,6047,1,0,0:0:0:0:
164,224,6277,2,0,P|164:144|132:72,1,150,2|0,0:0|0:0,0:0:0:0:
0,20,6970,2,0,P|40:28|76:28,1,75,2|0,0:0|0:0,0:0:0:0:
236,28,7431,6,0,P|276:20|328:28,1,75,8|0,0:3|0:0,0:0:0:0:
356,92,7893,2,0,P|340:134|310:171,1,75,10|0,0:3|0:0,0:0:0:0:
240,164,8354,2,0,P|211:129|194:84,2,75,8|0|10,0:3|0:0|0:3,0:0:0:0:
288,232,9047,1,0,0:0:0:0:
368,240,9277,2,0,P|404:235|450:238,1,75,8|0,0:3|0:0,0:0:0:0:
318,309,9739,1,10,0:3:0:0:
214,230,9970,2,0,P|155:200|84:234,1,150,2|0,0:0|0:0,0:0:0:0:
199,381,10662,2,0,P|221:349|231:314,1,75,10|0,0:3|0:0,0:0:0:0:
62,321,11123,6,0,P|78:356|104:382,2,75,8|0|10,0:3|0:0|0:3,0:0:0:0:
14,252,11816,1,0,0:0:0:0:
38,173,12047,2,0,P|33:135|32:89,1,75,8|2,0:3|0:0,0:0:0:0:
116,197,12508,1,10,0:3:0:0:
256,192,12739,12,8,13893,0:3:0:0:
188,116,14354,5,8,0:3:0:0:
200,197,14585,1,8,0:3:0:0:
280,183,14816,2,0,L|355:177,1,60,6|0,0:0|0:0,0:0:0:0:
406,218,15277,1,8,0:3:0:0:
338,257,15508,2,0,P|388:295|451:284,1,120,2|2,0:0|0:0,0:0:0:0:
486,224,16200,1,8,0:3:0:0:
453,153,16431,2,0,L|463:22,2,120,2|2|2,0:0|0:0|0:0,0:0:0:0:
375,145,17585,2,0,L|301:139,1,60,8|0,0:3|0:0,0:0:0:0:
201,214,18047,2,0,L|267:207,1,60,10|8,0:3|0:3,0:0:0:0:
137,149,18508,5,10,0:3:0:0:
114,233,18739,1,0,0:0:0:0:
201,214,18970,1,10,0:3:0:0:
137,149,19200,2,0,P|78:149|32:196,1,120,2|2,0:0|0:0,0:0:0:0:
36,266,19893,1,8,0:3:0:0:
90,324,20123,2,0,P|37:349|-18:326,2,120,2|2|2,0:0|0:0|0:0,0:0:0:0:
168,272,21277,2,0,P|177:312|177:338,1,60,8|0,0:3|0:0,0:0:0:0:
261,291,21739,2,0,P|265:255|276:230,1,60,10|8,0:3|0:3,0:0:0:0:
345,197,22200,5,10,0:3:0:0:
420,220,22430,1,0,0:0:0:0:
464,156,22661,1,10,0:3:0:0:
417,93,22892,1,0,0:0:0:0:
344,119,23123,2,0,L|272:113,1,60,10|2,0:3|0:0,0:0:0:0:
205,108,23585,1,8,0:3:0:0:
234,180,23816,2,0,P|169:180|106:174,2,120,2|2|2,0:0|0:0|0:0,0:0:0:0:
309,228,24970,2,0,P|315:200|317:156,1,60,8|0,0:3|0:0,0:0:0:0:
233,258,25431,5,10,0:3:0:0:
246,334,25662,1,8,0:3:0:0:
165,353,25893,2,0,P|132:355|96:353,1,60,10|0,0:3|0:0,0:0:0:0:
25,271,26354,2,0,P|61:279|96:279,1,60,10|0,0:3|0:0,0:0:0:0:
169,190,26816,1,8,0:3:0:0:
169,190,27047,2,0,P|128:202|100:204,1,60,2|8,0:0|0:3,0:0:0:0:
256,192,27508,12,0,28662,0:0:0:0:
256,192,29123,5,8,0:3:0:0:
256,192,29354,1,8,0:3:0:0:
256,192,29585,2,0,P|296:200|336:196,1,75,6|2,0:0|0:0,0:0:0:0:
410,155,30047,1,8,0:3:0:0:
484,208,30277,2,0,P|488:282|488:372,1,150,2|2,0:0|0:0,0:0:0:0:
404,324,30970,1,8,0:3:0:0:
316,344,31200,6,0,P|273:349|199:344,1,112.5,2|0,0:0|0:0,0:0:0:0:
171,313,31662,2,0,L|166:227,2,75,2|8|2,0:0|0:3|0:0,0:0:0:0:
46,345,32354,1,8,0:3:0:0:
46,345,32470,1,0,0:0:0:0:
46,345,32585,1,2,0:0:0:0:
32,228,32816,2,0,P|33:197|28:151,1,75,8|10,0:3|0:3,0:0:0:0:
156,82,33277,6,0,P|166:122|164:159,2,75,8|2|8,0:3|0:0|0:3,0:0:0:0:
230,30,33970,2,0,P|285:57|382:36,1,150,2|2,0:0|0:0,0:0:0:0:
443,95,34662,1,8,0:3:0:0:
371,149,34893,2,0,B|359:191|376:237|376:237|340:226|300:237,1,150,2|2,0:0|0:0,0:0:0:0:
420,308,35585,2,0,P|448:277|451:230,1,75,8|2,0:3|0:0,0:0:0:0:
249,344,36047,1,8,0:3:0:0:
249,344,36162,1,0,0:0:0:0:
249,344,36277,1,2,0:0:0:0:
340,359,36508,2,0,L|420:368,1,75,8|10,0:3|0:3,0:0:0:0:
195,272,36970,6,0,L|110:282,1,75,8|2,0:3|0:0,0:0:0:0:
64,209,37431,1,8,0:3:0:0:
133,151,37662,2,0,P|169:103|130:22,1,150,2|2,0:0|0:0,0:0:0:0:
50,3,38354,1,8,0:3:0:0:
81,88,38585,2,0,L|237:88,2,150,2|2|2,0:0|0:0|0:0,0:0:0:0:
30,162,39739,2,0,P|31:207|36:248,1,75,8|2,0:3|0:0,0:0:0:0:
191,225,40200,1,8,0:3:0:0:
275,193,40431,1,10,0:3:0:0:
111,205,40662,6,0,P|119:265|166:304,1,112.5,8|0,0:3|0:0,0:0:0:0:
199,307,41123,2,0,P|241:294|266:268,1,75,8|2,0:3|0:0,0:0:0:0:
345,223,41585,1,8,0:3:0:0:
421,270,41816,2,0,P|431:314|431:349,1,75,2|8,0:0|0:3,0:0:0:0:
256,192,42277,12,8,43893,0:3:0:0:
150,98,44354,6,0,L|136:173,1,75,4|2,0:0|0:0,0:0:0:0:
163,257,44816,1,8,0:3:0:0:
249,231,45047,2,0,P|305:218|391:253,1,150,2|2,0:0|0:0,0:0:0:0:
408,338,45739,1,8,0:3:0:0:
481,285,45970,6,0,L|492:201,1,75,2|8,0:0|0:3,0:0:0:0:
386,145,46431,2,0,L|392:222,1,75,2|8,0:0|0:3,0:0:0:0:
260,275,46893,1,2,0:0:0:0:
293,191,47123,2,0,L|268:103,1,75,8|2,0:3|0:0,0:0:0:0:
210,52,47585,1,10,0:3:0:0:
188,139,47816,1,0,0:0:0:0:
295,38,48047,6,0,P|336:33|384:40,1,75,8|2,0:3|0:0,0:0:0:0:
210,52,48508,1,8,0:3:0:0:
125,78,48739,2,0,B|72:95|13:76|13:76|22:126,1,150,2|2,0:0|0:0,0:0:0:0:
33,200,49431,1,8,0:3:0:0:
104,255,49662,6,0,P|121:210|116:173,1,75,2|8,0:0|0:3,0:0:0:0:
110,344,50123,2,0,P|157:335|188:298,1,75,2|8,0:0|0:3,0:0:0:0:
25,302,50585,1,2,0:0:0:0:
25,302,50816,2,0,P|8:341|9:380,1,75,8|2,0:3|0:0,0:0:0:0:
110,344,51277,2,0,L|203:353,1,75,10|0,0:3|0:0,0:0:0:0:
283,220,51739,6,0,L|201:229,2,75,8|2|8,0:3|0:0|0:3,0:0:0:0:
360,266,52431,2,0,P|374:211|321:134,1,150,2|2,0:0|0:0,0:0:0:0:
236,131,53123,1,8,0:3:0:0:
288,57,53354,6,0,L|292:-21,1,75,2|8,0:0|0:3,0:0:0:0:
205,55,53816,2,0,L|135:90,1,75,2|8,0:0|0:3,0:0:0:0:
236,131,54277,1,2,0:0:0:0:
236,131,54508,2,0,L|301:173,1,75,8|2,0:3|0:0,0:0:0:0:
374,122,54970,1,10,0:3:0:0:
437,185,55200,1,2,0:0:0:0:
374,315,55431,6,0,P|365:284|365:240,2,75,8|2|8,0:3|0:0|0:3,0:0:0:0:
233,295,56123,2,0,P|241:336|243:375,2,75,2|8|2,0:0|0:3|0:0,0:0:0:0:
111,257,56816,2,0,P|66:260|33:255,1,75,8|2,0:3|0:0,0:0:0:0:
66,97,57277,2,0,P|136:71|214:106,2,150,8|8|8,0:3|0:3|0:3,0:0:0:0:
138,192,58431,1,8,0:0:0:0:
269,159,58662,2,0,B|301:123|288:72|288:72|321:93,1,112.5,8|0,0:0|0:0,0:0:0:0:
344,101,59123,6,0,P|388:113|433:111,1,75,4|0,0:0|0:0,0:0:0:0:
414,203,59585,2,0,P|456:194|487:167,1,75,8|2,0:0|0:0,0:0:0:0:
339,253,60047,2,0,P|333:318|385:384,1,150,8|8,0:3|0:0,0:0:0:0:
492,303,60739,2,0,P|446:295|404:304,1,75,2|8,0:0|0:3,0:0:0:0:
303,339,61200,2,0,P|261:348|223:348,1,75,2|8,0:0|0:0,0:0:0:0:
126,295,61662,2,0,P|88:288|50:293,1,75,2|8,0:0|0:3,0:0:0:0:
115,125,62123,5,2,0:0:0:0:
202,102,62354,1,8,0:0:0:0:
226,188,62585,1,2,0:0:0:0:
139,214,62816,2,0,P|100:215|55:197,1,75,8|2,0:3|0:0,0:0:0:0:
67,32,63277,2,0,P|106:31|151:49,1,75,8|2,0:0|0:0,0:0:0:0:
292,99,63739,1,8,0:3:0:0:
202,103,63970,1,2,0:0:0:0:
250,180,64200,1,8,0:0:0:0:
376,119,64431,6,0,P|377:75|288:15,1,150,2|2,0:0|0:0,0:0:0:0:
342,209,65123,1,8,0:0:0:0:
468,67,65354,2,0,B|481:129|445:189|445:189|474:217,1,150,2|2,0:0|0:0,0:0:0:0:
399,354,66047,2,0,P|390:319|392:279,1,75,8|2,0:0|0:0,0:0:0:0:
278,242,66508,6,0,P|228:228|133:259,1,150,4|8,0:0|0:0,0:0:0:0:
90,333,67200,1,2,0:0:0:0:
35,261,67431,2,0,B|50:207|30:133|30:133|-1:153,1,150,8|8,0:3|0:0,0:0:0:0:
85,53,68123,2,0,P|126:56|160:67,1,75,2|8,0:0|0:3,0:0:0:0:
230,143,68585,2,0,P|273:147|309:138,1,75,2|8,0:0|0:0,0:0:0:0:
390,63,69047,2,0,P|434:58|470:66,1,75,2|8,0:0|0:3,0:0:0:0:
423,215,69508,5,2,0:0:0:0:
486,150,69739,1,8,0:0:0:0:
504,238,69970,1,2,0:0:0:0:
356,264,70200,2,0,P|343:226|350:180,1,75,8|2,0:3|0:0,0:0:0:0:
224,323,70662,2,0,P|236:273|212:177,1,150,8|8,0:0|0:3,0:0:0:0:
100,220,71354,2,0,L|92:305,2,75,2|8|2,0:0|0:0|0:0,0:0:0:0:
136,136,72047,6,0,B|145:100|145:100|128:35|185:3,2,150,8|8|8,0:3|0:3|0:3,0:0:0:0:
46,146,73200,1,8,0:0:0:0:
219,172,73431,2,0,L|339:183,1,112.5,8|0,0:0|0:0,0:0:0:0:
373,198,73893,6,0,P|370:151|374:119,1,75,4|0,0:0|0:0,0:0:0:0:
451,266,74354,1,8,0:0:0:0:
451,266,74585,1,0,0:0:0:0:
359,295,74816,2,0,L|319:295|285:295,1,75,8|2,0:3|0:0,0:0:0:0:
118,327,75277,1,8,0:0:0:0:
202,357,75508,2,0,P|206:303|137:236,1,150,2|2,0:0|0:0,0:0:0:0:
30,335,76200,1,8,0:0:0:0:
61,250,76431,2,0,P|71:190|57:89,1,150,2|2,0:0|0:0,0:0:0:0:
133,33,77123,2,0,L|147:115,1,75,8|2,0:0|0:0,0:0:0:0:
219,181,77585,5,8,0:3:0:0:
239,93,77816,1,2,0:0:0:0:
325,116,78047,1,8,0:0:0:0:
305,203,78277,1,2,0:0:0:0:
277,117,78508,1,8,0:3:0:0:
365,99,78739,2,0,L|445:87,1,75,2|8,0:0|0:0,0:0:0:0:
490,253,79200,6,0,L|339:284,1,150,2|2,0:0|0:0,0:0:0:0:
257,312,79893,1,8,0:0:0:0:
168,283,80123,2,0,L|22:253,1,150,2|2,0:0|0:0,0:0:0:0:
20,373,80816,2,0,P|56:368|84:339,1,75,8|8,0:0|0:3,0:0:0:0:
95,178,81277,6,0,P|92:131|8:69,1,150,4|8,0:0|0:0,0:0:0:0:
8,159,81970,1,0,0:0:0:0:
94,178,82200,2,0,B|132:164|173:194|173:194|212:222|254:211,1,150,8|8,0:3|0:0,0:0:0:0:
300,150,82893,2,0,P|306:113|299:61,1,75,2|8,0:0|0:3,0:0:0:0:
360,229,83354,2,0,L|372:318,1,75,2|8,0:0|0:0,0:0:0:0:
437,169,83816,2,0,P|479:175|530:173,1,75,2|8,0:0|0:3,0:0:0:0:
378,94,84277,5,2,0:0:0:0:
361,228,84508,1,8,0:0:0:0:
260,146,84739,1,2,0:0:0:0:
181,234,84970,2,0,P|142:237|106:233,1,75,8|2,0:3|0:0,0:0:0:0:
252,321,85431,2,0,P|332:327|403:320,1,150,8|8,0:0|0:3,0:0:0:0:
461,228,86123,2,0,P|470:189|467:151,2,75,2|8|2,0:0|0:0|0:0,0:0:0:0:
351,231,86816,6,0,P|343:166|356:62,2,150,8|8|8,0:3|0:3|0:3,0:0:0:0:
352,231,88200,2,0,L|359:317,1,75,8|8,0:3|0:3,0:0:0:0:
281,353,88662,1,6,0:0:0:0:
116,140,103431,6,0,L|104:56,1,75,4|2,0:0|0:0,0:0:0:0:
28,116,103893,1,8,0:3:0:0:
52,204,104123,2,0,P|124:232|184:200,1,150,2|2,0:0|0:0,0:0:0:0:
260,152,104816,1,8,0:3:0:0:
328,208,105047,2,0,L|324:376,2,150,2|2|2,0:0|0:0|0:0,0:0:0:0:
412,176,106200,2,0,L|488:164,1,75,0|2,0:0|0:0,0:0:0:0:
504,252,106662,1,8,0:3:0:0:
416,272,106893,1,8,0:3:0:0:
332,124,107123,6,0,P|319:89|312:48,1,75,8|2,0:3|0:0,0:0:0:0:
260,184,107585,1,8,0:3:0:0:
316,260,107816,2,0,B|328:300|324:344|324:344|296:352|256:336,1,150,2|2,0:0|0:0,0:0:0:0:
181,293,108508,1,8,0:3:0:0:
96,324,108739,2,0,P|64:340|20:340,1,75,2|8,0:0|0:3,0:0:0:0:
48,186,109200,2,0,P|50:150|72:112,1,75,2|8,0:0|0:3,0:0:0:0:
189,206,109662,2,0,P|218:225|240:263,1,75,2|8,0:0|0:3,0:0:0:0:
291,332,110123,1,2,0:0:0:0:
368,286,110354,2,0,P|383:243|383:196,1,75,8|8,0:3|0:3,0:0:0:0:
363,49,110816,5,8,0:3:0:0:
340,136,111047,1,2,0:0:0:0:
428,113,111277,2,0,L|504:106,1,75,8|2,0:3|0:0,0:0:0:0:
276,72,111739,1,8,0:3:0:0:
255,159,111970,2,0,L|166:166,1,75,2|8,0:0|0:3,0:0:0:0:
318,230,112431,2,0,P|361:241|472:222,2,150,2|2|2,0:0|0:0|0:0,0:0:0:0:
229,248,113585,2,0,P|234:289|237:328,1,75,8|2,0:3|0:0,0:0:0:0:
321,353,114047,2,0,P|377:348|436:355,1,112.5,8|0,0:3|0:0,0:0:0:0:
475,367,114508,5,8,0:3:0:0:
465,277,114739,1,2,0:0:0:0:
375,267,114970,1,8,0:3:0:0:
342,183,115200,1,2,0:0:0:0:
273,241,115431,1,8,0:3:0:0:
220,167,115662,2,0,P|211:110|228:16,1,150,2|2,0:0|0:0,0:0:0:0:
256,192,116354,12,8,117739,0:3:0:0:
77,119,118200,6,0,L|67:212,2,75,6|2|8,0:0|0:0|0:3,0:0:0:0:
149,64,118893,2,0,P|202:97|290:64,1,150,2|2,0:0|0:0,0:0:0:0:
359,28,119585,1,8,0:3:0:0:
434,77,119816,2,0,P|439:120|437:162,1,75,2|8,0:0|0:3,0:0:0:0:
343,257,120277,2,0,P|338:218|341:168,1,75,2|8,0:0|0:3,0:0:0:0:
443,317,120739,2,0,P|390:366|307:362,1,150,2|2,0:0|0:0,0:0:0:0:
244,309,121431,1,8,0:3:0:0:
154,320,121662,1,8,0:3:0:0:
68,290,121893,6,0,P|65:335|72:368,2,75,8|2|8,0:3|0:0|0:3,0:0:0:0:
154,320,122585,2,0,P|159:257|93:202,1,150,2|2,0:0|0:0,0:0:0:0:
10,221,123277,1,8,0:3:0:0:
43,137,123508,2,0,B|54:98|50:51|50:51|84:62|115:63,1,150,2|2,0:0|0:0,0:0:0:0:
196,31,124200,1,8,0:3:0:0:
273,76,124431,2,0,P|285:147|237:217,1,150,2|0,0:0|0:0,0:0:0:0:
189,280,125123,1,8,0:3:0:0:
260,334,125354,1,8,0:3:0:0:
344,301,125585,6,0,P|392:289|468:303,1,112.5,8|0,0:3|0:0,0:0:0:0:
489,324,126047,1,8,0:3:0:0:
504,235,126277,2,0,L|507:154,1,75,2|0,0:0|0:0,0:0:0:0:
399,159,126739,2,0,L|402:82,1,75,2|8,0:0|0:3,0:0:0:0:
267,58,127200,2,0,L|274:137,1,75,2|0,0:0|0:0,0:0:0:0:
151,99,127662,2,0,L|158:178,1,75,2|8,0:0|0:3,0:0:0:0:
47,170,128123,2,0,P|55:236|39:330,1,150,2|2,0:0|0:0,0:0:0:0:
122,361,128816,1,8,0:3:0:0:
210,344,129047,1,8,0:3:0:0:
221,255,129277,6,0,P|226:221|228:180,1,75,8|2,0:3|0:0,0:0:0:0:
299,312,129739,2,0,P|339:324|377:324,1,75,8|2,0:3|0:0,0:0:0:0:
427,253,130200,1,8,0:3:0:0:
392,169,130431,2,0,P|352:157|314:157,1,75,2|8,0:0|0:3,0:0:0:0:
256,192,130893,12,8,132508,0:3:0:0:
165,115,132970,5,6,0:0:0:0:
145,202,133200,1,2,0:0:0:0:
231,178,133431,1,8,0:3:0:0:
165,115,133662,2,0,P|99:123|10:119,1,150,2|2,0:0|0:0,0:0:0:0:
55,200,134354,1,8,0:3:0:0:
145,202,134585,2,0,P|211:194|300:198,2,150,2|2|2,0:0|0:0|0:0,0:0:0:0:
95,277,135739,1,8,0:3:0:0:
130,359,135970,1,2,0:0:0:0:
215,333,136200,2,0,P|254:329|305:329,1,75,8|2,0:3|0:0,0:0:0:0:
456,330,136662,5,8,0:3:0:0:
374,368,136893,1,2,0:0:0:0:
456,330,137123,1,8,0:3:0:0:
419,247,137354,2,0,P|414:180|418:78,1,150,2|2,0:0|0:0,0:0:0:0:
356,30,138047,1,8,0:3:0:0:
299,99,138277,2,0,P|302:146|299:183,1,75,2|8,0:0|0:3,0:0:0:0:
298,264,138739,2,0,P|255:243|225:222,1,75,2|8,0:0|0:3,0:0:0:0:
153,184,139200,1,2,0:0:0:0:
153,184,139431,2,0,P|192:157|225:141,1,75,8|2,0:3|0:0,0:0:0:0:
299,99,139893,1,8,0:3:0:0:
384,127,140123,1,2,0:0:0:0:
464,86,140354,6,0,L|456:6,2,75,8|2|8,0:3|0:0|0:3,0:0:0:0:
458,176,141047,2,0,L|474:337,1,150,2|2,0:0|0:0,0:0:0:0:
391,364,141739,1,8,0:3:0:0:
312,320,141970,2,0,P|262:300|170:327,2,150,2|2|2,0:0|0:0|0:0,0:0:0:0:
391,278,143123,2,0,L|484:272,1,75,8|2,0:3|0:0,0:0:0:0:
360,200,143585,2,0,L|453:194,1,75,8|2,0:3|0:0,0:0:0:0:
335,120,144047,5,8,0:3:0:0:
277,188,144277,1,2,0:0:0:0:
208,129,144508,2,0,P|120:113|72:149,1,150,8|8,0:3|0:3,0:0:0:0:
130,274,145200,2,0,P|146:239|148:189,2,75,2|8|2,0:0|0:3|0:0,0:0:0:0:
256,192,145893,12,8,147277,0:0:0:0:
88,103,147739,5,4,0:0:0:0:
102,282,148200,1,8,0:0:0:0:
281,268,148662,2,0,P|341:277|402:351,1,150,8|8,0:3|0:0,0:0:0:0:
480,302,149354,2,0,P|492:233|481:150,2,150,2|2|2,0:0|0:0|0:0,0:0:0:0:
398,341,150508,1,8,0:3:0:0:
322,291,150739,2,0,P|322:255|326:207,1,75,2|8,0:0|0:0,0:0:0:0:
352,130,151200,1,2,0:0:0:0:
425,182,151431,6,0,P|464:184|509:185,1,75,8|2,0:3|0:0,0:0:0:0:
264,153,151893,2,0,P|225:151|180:150,1,75,8|2,0:0|0:0,0:0:0:0:
330,224,152354,1,8,0:3:0:0:
406,271,152585,2,0,P|445:273|490:274,1,75,2|8,0:0|0:0,0:0:0:0:
328,320,153047,2,0,B|284:319|284:319|265:384|199:380,1,150,2|2,0:0|0:0,0:0:0:0:
196,288,153739,1,8,0:0:0:0:
106,275,153970,2,0,P|133:223|228:208,1,150,2|2,0:0|0:0,0:0:0:0:
304,223,154662,2,0,P|348:228|386:227,1,75,8|0,0:0|0:0,0:0:0:0:
451,173,155123,6,0,P|446:104|456:19,1,150,4|8,0:0|0:0,0:0:0:0:
196,175,156047,2,0,P|200:243|191:329,1,150,8|8,0:3|0:0,0:0:0:0:
113,367,156739,2,0,P|188:362|276:372,1,150,2|2,0:0|0:0,0:0:0:0:
352,375,157431,1,8,0:0:0:0:
430,330,157662,2,0,P|437:290|432:256,1,75,2|8,0:0|0:3,0:0:0:0:
351,215,158123,6,0,P|345:254|352:290,2,75,2|8|2,0:0|0:0|0:0,0:0:0:0:
426,165,158816,2,0,P|470:156|503:135,1,75,8|2,0:3|0:0,0:0:0:0:
341,122,159277,2,0,P|273:119|187:89,1,150,8|8,0:0|0:3,0:0:0:0:
116,137,159970,2,0,P|116:174|109:211,2,75,2|8|2,0:0|0:0|0:0,0:0:0:0:
29,113,160662,6,0,B|43:62|28:26|28:26|80:38|124:29,2,150,8|8|8,0:3|0:3|0:3,0:0:0:0:
28,259,161816,1,8,0:0:0:0:
84,189,162047,2,0,P|112:228|106:299,1,112.5,8|0,0:0|0:0,0:0:0:0:
89,330,162508,6,0,P|129:323|172:322,1,75,4|2,0:0|0:0,0:0:0:0:
251,340,162970,2,0,P|293:343|348:340,1,75,8|2,0:0|0:0,0:0:0:0:
407,380,163431,2,0,B|424:337|400:287|400:287|423:229,1,150,8|8,0:3|0:0,0:0:0:0:
419,147,164123,2,0,B|400:97|400:97|424:47|407:4,1,150,2|2,0:0|0:0,0:0:0:0:
327,47,164816,1,8,0:0:0:0:
321,136,165047,2,0,B|341:186|341:186|304:229|254:226,1,150,2|2,0:0|0:0,0:0:0:0:
176,264,165739,2,0,P|173:227|179:188,1,75,8|2,0:0|0:0,0:0:0:0:
255,313,166200,5,8,0:3:0:0:
176,357,166431,1,2,0:0:0:0:
97,313,166662,2,0,P|60:311|19:312,1,75,8|2,0:0|0:0,0:0:0:0:
0,224,167123,2,0,P|37:226|78:225,1,75,8|2,0:3|0:0,0:0:0:0:
120,147,167585,1,8,0:0:0:0:
72,70,167816,2,0,P|125:56|204:122,1,150,2|2,0:0|0:0,0:0:0:0:
255,176,168508,1,8,0:0:0:0:
296,256,168739,2,0,P|350:303|422:293,1,150,2|2,0:0|0:0,0:0:0:0:
476,220,169431,2,0,P|471:187|470:131,1,75,8|0,0:0|0:0,0:0:0:0:
364,56,169893,6,0,P|372:102|363:218,1,150,4|8,0:0|0:0,0:0:0:0:
167,347,170816,2,0,P|159:301|168:185,1,150,8|8,0:3|0:0,0:0:0:0:
125,118,171508,2,0,B|95:97|62:79,1,75,2|8,0:0|0:3,0:0:0:0:
216,123,171970,2,0,B|249:107|282:87,1,75,2|8,0:0|0:0,0:0:0:0:
165,199,172431,2,0,B|161:235|162:273,1,75,2|8,0:0|0:3,0:0:0:0:
208,351,172893,1,2,0:0:0:0:
287,308,173123,1,8,0:0:0:0:
356,364,173354,1,2,0:0:0:0:
416,297,173585,6,0,P|428:257|431:212,1,75,8|2,0:3|0:0,0:0:0:0:
367,160,174047,2,0,P|436:189|521:159,1,150,8|8,0:0|0:3,0:0:0:0:
443,105,174739,2,0,P|439:68|442:25,2,75,2|8|2,0:0|0:0|0:0,0:0:0:0:
359,71,175431,2,0,P|285:86|198:65,2,150,8|8|8,0:3|0:3|0:3,0:0:0:0:
359,71,176816,1,8,0:3:0:0:
354,160,177047,1,2,0:0:0:0:
348,249,177278,1,4,0:0:0:0:
87,181,197585,6,0,P|95:129|92:29,2,150,4|8|10,0:0|0:0|0:3,0:0:0:0:
38,256,198739,1,0,0:0:0:0:
92,327,198970,2,0,P|130:333|172:331,1,75,8|0,0:0|0:0,0:0:0:0:
245,289,199431,2,0,P|295:275|392:318,1,150,10|8,0:3|0:0,0:0:0:0:
450,369,200123,1,0,0:0:0:0:
490,288,200354,2,0,L|496:211,1,75,10|2,0:3|0:0,0:0:0:0:
405,213,200816,2,0,L|396:111,1,75,8|0,0:0|0:0,0:0:0:0:
318,180,201277,6,0,P|246:189|167:178,1,150,10|8,0:3|0:0,0:0:0:0:
93,227,201970,1,0,0:0:0:0:
155,291,202200,2,0,P|198:288|237:293,1,75,2|0,0:3|0:0,0:0:0:0:
66,311,202662,2,0,P|37:338|19:378,1,75,8|0,0:0|0:0,0:0:0:0:
93,227,203123,2,0,B|133:184|101:122|101:122|159:97,1,150,10|8,0:3|0:0,0:0:0:0:
209,57,203816,1,2,0:0:0:0:
278,114,204047,2,0,B|291:152|291:152|349:120|408:151,1,150,10|8,0:3|0:0,0:0:0:0:
491,340,204970,6,0,P|445:357|352:328,1,150,4|8,0:0|0:0,0:0:0:0:
277,277,205662,1,0,0:0:0:0:
199,230,205893,2,0,P|140:226|80:295,1,150,10|8,0:3|0:0,0:0:0:0:
7,340,206585,1,0,0:0:0:0:
4,249,206816,2,0,P|21:187|-2:98,1,150,10|8,0:3|0:0,0:0:0:0:
65,41,207508,1,0,0:0:0:0:
128,104,207739,2,0,B|179:91|179:91|228:134|294:106,1,150,10|8,0:3|0:0,0:0:0:0:
473,189,208662,6,0,L|481:112,1,75,10|0,0:3|0:0,0:0:0:0:
399,253,209123,2,0,L|359:181,1,75,8|0,0:0|0:0,0:0:0:0:
410,342,209585,2,0,L|255:324,1,150,10|8,0:3|0:0,0:0:0:0:
172,341,210277,1,2,0:0:0:0:
256,192,210508,12,8,211893,0:0:0:0:
330,180,212354,6,0,B|330:235|330:235|304:277|243:302,1,150,4|8,0:0|0:0,0:0:0:0:
168,289,213047,1,2,0:0:0:0:
87,248,213277,2,0,P|66:211|105:113,1,150,8|8,0:3|0:0,0:0:0:0:
174,65,213970,2,0,L|248:57,1,75,2|8,0:0|0:3,0:0:0:0:
349,151,214431,2,0,L|275:141,1,75,2|8,0:0|0:0,0:0:0:0:
179,244,214893,2,0,L|253:232,1,75,2|8,0:0|0:3,0:0:0:0:
408,308,215354,1,2,0:0:0:0:
322,335,215585,1,8,0:0:0:0:
233,318,215816,1,2,0:0:0:0:
180,244,216047,6,0,P|183:209|180:159,1,75,8|2,0:3|0:0,0:0:0:0:
97,202,216508,2,0,P|62:198|12:202,1,75,8|2,0:0|0:0,0:0:0:0:
54,285,216970,1,8,0:3:0:0:
54,285,217200,2,0,P|50:319|54:370,1,75,2|8,0:0|0:0,0:0:0:0:
137,327,217662,2,0,P|171:330|294:326,1,150,2|2,0:0|0:0,0:0:0:0:
338,253,218354,1,8,0:0:0:0:
286,178,218585,2,0,P|252:175|129:179,1,150,2|2,0:0|0:0,0:0:0:0:
52,210,219277,2,0,L|43:131,1,75,8|2,0:0|0:0,0:0:0:0:
232,30,219739,6,0,L|216:194,1,150,4|8,0:0|0:0,0:0:0:0:
283,240,220431,1,2,0:0:0:0:
362,197,220662,2,0,P|434:189|485:252,1,150,8|8,0:3|0:0,0:0:0:0:
475,331,221354,2,0,L|396:333,1,75,2|8,0:0|0:3,0:0:0:0:
312,356,221816,2,0,L|233:358,1,75,2|8,0:0|0:0,0:0:0:0:
152,327,222277,2,0,L|73:329,1,75,2|8,0:0|0:3,0:0:0:0:
37,172,222739,1,2,0:0:0:0:
9,257,222970,1,8,0:0:0:0:
96,238,223200,1,2,0:0:0:0:
124,152,223431,6,0,P|131:116|135:73,1,75,8|2,0:3|0:0,0:0:0:0:
203,198,223893,2,0,P|256:236|341:242,1,150,8|8,0:0|0:3,0:0:0:0:
421,207,224585,1,2,0:0:0:0:
470,282,224816,1,8,0:0:0:0:
416,354,225047,1,2,0:0:0:0:
332,320,225277,6,0,P|283:311|209:373,2,150,8|8|8,0:3|0:3|0:3,0:0:0:0:
417,292,226431,2,0,L|468:302,5,37.5,8|0|8|0|8|0,0:0|0:0|0:0|0:0|0:3|0:0,0:0:0:0:
498,294,227123,6,0,P|508:244|487:145,1,150,4|8,0:0|0:0,0:0:0:0:
404,114,227816,1,2,0:0:0:0:
318,141,228047,2,0,P|254:158|168:141,1,150,8|8,0:3|0:0,0:0:0:0:
102,86,228739,2,0,L|112:-4,1,75,2|8,0:0|0:3,0:0:0:0:
35,152,229200,2,0,L|39:240,1,75,2|8,0:0|0:0,0:0:0:0:
104,295,229662,2,0,L|95:369,1,75,2|8,0:0|0:3,0:0:0:0:
165,228,230123,1,2,0:0:0:0:
233,286,230354,1,8,0:0:0:0:
294,220,230585,1,2,0:0:0:0:
369,268,230816,6,0,L|459:272,1,75,8|2,0:3|0:0,0:0:0:0:
484,190,231277,2,0,L|394:186,1,75,8|2,0:0|0:0,0:0:0:0:
381,100,231739,1,8,0:3:0:0:
381,100,231970,2,0,L|471:104,1,75,2|8,0:0|0:0,0:0:0:0:
313,39,232431,2,0,P|251:26|188:81,1,150,2|2,0:0|0:0,0:0:0:0:
173,167,233123,1,8,0:0:0:0:
232,234,233354,2,0,P|294:247|357:192,1,150,2|2,0:0|0:0,0:0:0:0:
417,128,234047,2,0,P|456:123|494:131,1,75,8|2,0:0|0:0,0:0:0:0:
500,313,234508,6,0,P|430:322|349:307,1,150,4|8,0:0|0:0,0:0:0:0:
276,259,235200,1,2,0:0:0:0:
211,203,235431,2,0,P|137:189|63:198,1,150,8|8,0:3|0:0,0:0:0:0:
106,277,236123,2,0,P|101:318|109:356,1,75,2|8,0:0|0:3,0:0:0:0:
191,317,236585,2,0,L|272:321,1,75,2|8,0:0|0:0,0:0:0:0:
350,352,237047,2,0,P|356:315|347:276,1,75,2|8,0:0|0:3,0:0:0:0:
327,110,237508,1,2,0:0:0:0:
278,184,237739,1,8,0:0:0:0:
367,193,237970,1,2,0:0:0:0:
327,110,238200,6,0,L|241:93,1,75,8|2,0:3|0:0,0:0:0:0:
187,161,238662,2,0,L|39:182,1,150,8|8,0:0|0:3,0:0:0:0:
75,264,239354,2,0,L|154:253,2,75,2|8|2,0:0|0:0|0:0,0:0:0:0:
58,352,240047,6,0,L|206:331,2,150,8|8|8,0:3|0:3|0:3,0:0:0:0:
9,276,241200,2,0,L|8:227,6,37.5,2|2|2|0|2|2|4,0:0|0:0|0:0|0:0|0:0|0:0|0:0,0:0:0:0:
