osu file format v14

[General]
AudioFilename: Hi-Fi day1.mp3
AudioLeadIn: 2500
PreviewTime: 59123
Countdown: 0
SampleSet: Soft
StackLeniency: 0.7
Mode: 0
LetterboxInBreaks: 1
EpilepsyWarning: 1
WidescreenStoryboard: 1

[Editor]
DistanceSpacing: 1
BeatDivisor: 4
GridSize: 32
TimelineZoom: 1

[Metadata]
Title:Hi-Fi day
TitleUnicode:Hi-Fi day
Artist:U
ArtistUnicode:U
Creator:Flask
Version:Collab
Source:
Tags:gwave superfeature's vol.12 ultra u2 hifi Loneight smallboat bossandy l1106188 Broze qoot8123
BeatmapID:644373
BeatmapSetID:285279

[Difficulty]
HPDrainRate:6
CircleSize:4
OverallDifficulty:7
ApproachRate:8
SliderMultiplier:1.7
SliderTickRate:2

[Events]
//Background and Video events
0,0,"37497740.jpg",0,0
//Break Periods
2,88862,102681
2,177477,196835
//Storyboard Layer 0 (Background)
//Storyboard Layer 1 (Fail)
//Storyboard Layer 2 (Pass)
//Storyboard Layer 3 (Foreground)
Sprite,Foreground,Centre,"SB\Loneight.png",320,240 S,0,43077,,0.7 F,0,73893,74293,0,1 M,0,73893,88662,57,81 F,0,88262,88662,1,0 F,0,118200,118600,0,1 M,0,118200,132970,57,81 F,0,132570,132970,1,0 F,0,197585,197985,0,1 M,0,197585,212354,57,81 F,0,211954,212354,1,0
Sprite,Foreground,Centre,"SB\Small boat.png",320,240 S,0,43077,,0.7 F,0,44354,44754,0,1 M,0,44354,59123,57,81 F,0,58723,59123,1,0 F,0,147739,148139,0,1 M,0,147739,177277,57,81 F,0,176877,177277,1,0
Sprite,Foreground,Centre,"SB\bossandy.png",320,240 F,0,47,447,0,1 M,0,47,14816,57,81 F,0,14416,14816,1,0 F,0,29585,29985,0,1 M,0,29585,44354,57,81 S,0,43077,,0.7 F,0,43854,44354,1,0 M,0,102931,118200,57,81 F,0,102957,103457,0,1 F,0,117800,118200,1,0 F,0,212354,212754,0,1 M,0,212354,227123,57,81 F,0,226723,227123,1,0
Sprite,Foreground,Centre,"SB\Flask.png",320,240 F,0,14816,15216,0,1 M,0,14816,29585,57,81 F,0,29185,29585,1,0 S,0,43077,,0.7 F,0,59123,59523,0,1 M,0,59123,73893,57,81 F,0,73493,73893,1,0 F,0,132970,133470,0,1 M,0,132970,147739,57,81 F,0,147339,147739,1,0 F,0,226723,227123,0,1 M,0,227123,241893,57,81 F,0,241493,241893,1,0
//Storyboard Sound Samples

[TimingPoints]
47,461.538461538462,4,2,1,50,1,0
10085,-100,4,2,2,50,0,0
10316,-100,4,2,1,50,0,0
12854,-100,4,2,2,50,0,0
13085,-100,4,2,1,50,0,0
13316,-100,4,2,1,30,0,0
14816,-125,4,2,2,50,0,0
14931,-125,4,2,1,50,0,0
15623,-125,4,2,2,50,0,0
15854,-125,4,2,1,50,0,0
16547,-125,4,2,2,50,0,0
17239,-125,4,2,1,50,0,0
19316,-125,4,2,2,50,0,0
19547,-125,4,2,1,50,0,0
20239,-125,4,2,2,50,0,0
20931,-125,4,2,1,50,0,0
23931,-125,4,2,2,50,0,0
24623,-125,4,2,1,50,0,0
29008,-125,4,2,1,30,0,0
29470,-125,4,2,1,50,0,0
29585,-100,4,2,2,50,0,0
29700,-100,4,2,1,50,0,0
30393,-100,4,2,2,50,0,0
30623,-100,4,2,1,50,0,0
30854,-100,4,2,2,50,0,0
31085,-100,4,2,1,50,0,0
32239,-100,4,2,2,50,0,0
32470,-100,4,2,1,50,0,0
34085,-100,4,2,2,50,0,0
34316,-100,4,2,1,50,0,0
35008,-100,4,2,2,50,0,0
35239,-100,4,2,1,50,0,0
37777,-100,4,2,2,50,0,0
38470,-100,4,2,1,50,0,0
39623,-100,4,2,2,50,0,0
39854,-100,4,2,1,50,0,0
42393,-100,4,2,2,50,0,0
42623,-100,4,2,1,50,0,0
44354,-100,4,2,2,50,0,0
44470,-100,4,2,1,50,0,0
59123,-100,4,2,1,70,0,1
64547,-100,4,2,2,70,0,1
64777,-100,4,2,1,70,0,1
65470,-100,4,2,2,70,0,1
65700,-100,4,2,1,70,0,1
71931,-100,4,2,1,30,0,1
73085,-100,4,2,1,50,0,1
73431,-200,4,2,1,30,0,1
73893,-100,4,2,1,70,0,1
79316,-100,4,2,2,70,0,1
79547,-100,4,2,1,70,0,1
80239,-100,4,2,2,70,0,1
80470,-100,4,2,1,70,0,1
86700,-100,4,2,1,30,0,1
88547,-100,4,2,1,50,0,1
88662,-100,4,2,2,50,0,0
88777,-100,4,2,1,50,0,0
103431,-100,4,2,2,50,0,0
103547,-100,4,2,1,50,0,0
104700,-100,4,2,2,50,0,0
105393,-100,4,2,1,50,0,0
108393,-100,4,2,2,50,0,0
109085,-100,4,2,1,50,0,0
112547,-100,4,2,2,50,0,0
113239,-100,4,2,1,50,0,0
115777,-100,4,2,2,50,0,0
116470,-100,4,2,1,50,0,0
118200,-100,4,2,2,50,0,0
118316,-100,4,2,1,50,0,0
120854,-100,4,2,2,50,0,0
121085,-100,4,2,1,50,0,0
123623,-100,4,2,2,50,0,0
123854,-100,4,2,1,50,0,0
124547,-100,4,2,2,50,0,0
124777,-100,4,2,1,50,0,0
126393,-100,4,2,2,50,0,0
126623,-100,4,2,1,50,0,0
127316,-100,4,2,2,50,0,0
127547,-100,4,2,1,50,0,0
128239,-100,4,2,2,50,0,0
128470,-100,4,2,1,50,0,0
132970,-100,4,2,2,50,0,0
133085,-100,4,2,1,50,0,0
133777,-100,4,2,2,50,0,0
134008,-100,4,2,1,50,0,0
137470,-100,4,2,2,50,0,0
137700,-100,4,2,1,50,0,0
141162,-100,4,2,2,50,0,0
141393,-100,4,2,1,50,0,0
147739,-100,4,2,1,70,0,1
153162,-100,4,2,2,70,0,1
153393,-100,4,2,1,70,0,1
160547,-100,4,2,2,70,0,1
160777,-100,4,2,1,70,0,1
167931,-100,4,2,2,70,0,1
168162,-100,4,2,1,70,0,1
175316,-100,4,2,2,70,0,1
175547,-100,4,2,1,70,0,1
177277,-100,4,2,2,50,0,0
177393,-100,4,2,1,30,0,0
197585,-100,4,2,1,70,0,1
197700,-100,4,2,1,70,0,0
212354,-100,4,2,1,70,0,1
214085,-100,4,2,2,70,0,1
214316,-100,4,2,1,70,0,1
214547,-100,4,2,3,70,0,1
214777,-100,4,2,1,70,0,1
217777,-100,4,2,2,70,0,1
218008,-100,4,2,1,70,0,1
221470,-100,4,2,2,70,0,1
221700,-100,4,2,1,70,0,1
222393,-100,4,2,2,70,0,1
222623,-100,4,2,1,70,0,1
232547,-100,4,2,2,70,0,1
232777,-100,4,2,1,70,0,1
233470,-100,4,2,2,70,0,1
233700,-100,4,2,1,70,0,1
241893,-100,4,2,1,50,0,0

[Colours]
Combo1 : 70,163,255
Combo2 : 255,117,117
Combo3 : 255,255,121
Combo4 : 255,143,89
Combo5 : 98,249,158

[HitObjects]
256,280,47,5,0,0:0:0:0:
176,252,277,1,0,0:0:0:0:
132,180,508,2,0,P|128:140|140:80,1,85,2|0,0:0|0:0,0:0:0:0:
216,116,970,1,0,0:0:0:0:
328,36,1200,1,0,0:0:0:0:
292,172,1431,1,2,0:0:0:0:
240,36,1662,1,0,0:0:0:0:
356,116,1893,6,0,L|448:96,2,85,0|0|2,0:0|0:0|0:0,0:0:0:0:
460,240,2585,2,0,B|416:312|276:288|292:172,1,255,2|2,0:0|0:0,0:0:0:0:
360,36,3508,1,0,0:0:0:0:
192,80,3739,6,0,P|145:75|108:48,2,85,0|0|2,0:0|0:0|0:0,0:0:0:0:
272,56,4431,1,0,0:0:0:0:
176,160,4662,1,0,0:0:0:0:
304,148,4893,1,2,0:0:0:0:
140,280,5354,6,0,P|232:284|280:196,1,170,2|2,0:0|0:0,0:0:0:0:
360,252,6047,2,0,L|388:144,1,85,0|2,0:0|0:0,0:0:0:0:
381,169,6739,1,0,0:0:0:0:
484,248,6970,1,2,0:0:0:0:
504,124,7200,1,0,0:0:0:0:
396,56,7431,6,0,L|312:36,1,85,8|0,0:3|0:0,0:0:0:0:
168,76,7893,2,0,L|252:96,1,85,10|0,0:3|0:0,0:0:0:0:
72,98,8354,2,0,L|92:16,1,85,8|0,0:3|0:0,0:0:0:0:
131,161,8816,2,0,L|112:244,1,85,10|0,0:3|0:0,0:0:0:0:
72,98,9277,5,8,0:3:0:0:
168,76,9508,1,0,0:0:0:0:
48,188,9739,1,10,0:3:0:0:
216,152,9970,2,0,B|264:144|292:176|292:176|332:208|384:188,1,170,2|0,0:0|0:0,0:0:0:0:
360,64,10662,1,10,0:3:0:0:
360,64,10893,1,0,0:0:0:0:
424,116,11123,6,0,P|460:216|416:272,1,170,8|10,0:3|0:3,0:0:0:0:
308,308,11816,2,0,P|292:324|280:348,2,42.5,0|0|8,0:0|0:0|0:3,0:0:0:0:
344,232,12277,1,2,0:0:0:0:
400,348,12508,1,10,0:3:0:0:
344,232,12739,2,0,P|252:224|192:288,1,170,2|0,0:0|0:0,0:0:0:0:
172,308,13431,5,8,0:3:0:0:
136,324,13893,1,8,0:3:0:0:
96,320,14354,5,8,0:3:0:0:
96,320,14585,1,8,0:3:0:0:
76,220,14816,6,0,P|77:188|80:148,1,68,6|0,0:0|0:0,0:0:0:0:
139,288,15277,1,8,0:3:0:0:
228,258,15508,2,0,P|286:245|370:267,1,136,2|2,0:0|0:0,0:0:0:0:
208,348,16200,1,8,0:3:0:0:
161,201,16431,2,0,P|166:142|172:60,2,136,2|2|2,0:0|0:0|0:0,0:0:0:0:
290,169,17585,2,0,L|285:97,1,68,8|0,0:3|0:0,0:0:0:0:
415,213,18047,2,0,L|420:133,1,68,10|8,0:3|0:3,0:0:0:0:
422,139,18393,1,0,0:0:0:0:
425,133,18508,5,10,0:3:0:0:
505,184,18739,1,0,0:0:0:0:
481,275,18970,1,10,0:3:0:0:
320,271,19200,2,0,P|252:250|194:219,1,136,2|2,0:0|0:0,0:0:0:0:
232,341,19893,1,8,0:3:0:0:
301,173,20123,2,0,P|365:155|424:107,2,136,2|2|2,0:0|0:0|0:0,0:0:0:0:
238,62,21277,1,8,0:3:0:0:
195,189,21508,1,0,0:0:0:0:
195,189,21623,1,0,0:0:0:0:
195,189,21739,1,10,0:3:0:0:
102,36,21970,1,8,0:3:0:0:
105,173,22200,6,0,P|112:210|114:250,1,68,10|0,0:3|0:0,0:0:0:0:
163,106,22662,1,10,0:3:0:0:
194,276,22893,1,0,0:0:0:0:
32,220,23123,1,10,0:3:0:0:
132,198,23354,1,2,0:0:0:0:
122,350,23585,1,8,0:3:0:0:
281,308,23816,2,0,P|350:304|435:304,2,136,2|2|2,0:0|0:0|0:0,0:0:0:0:
436,204,24970,2,0,P|470:211|510:218,1,68,8|0,0:3|0:0,0:0:0:0:
306,157,25431,2,0,P|270:151|237:143,1,68,10|8,0:3|0:3,0:0:0:0:
233,141,25777,1,0,0:0:0:0:
227,139,25893,5,10,0:3:0:0:
262,30,26123,1,0,0:0:0:0:
265,242,26354,1,10,0:3:0:0:
156,73,26585,1,0,0:0:0:0:
337,150,26816,1,8,0:3:0:0:
159,220,27047,1,2,0:0:0:0:
378,251,27277,1,8,0:3:0:0:
256,192,27508,12,0,28893,0:0:0:0:
257,189,29123,5,8,0:3:0:0:
257,189,29354,1,8,0:3:0:0:
108,240,29585,6,0,L|24:224,2,85,6|2|8,0:0|0:0|0:3,0:0:0:0:
172,336,30278,2,0,L|352:368,2,170,2|2|2,0:0|0:0|0:0,0:0:0:0:
200,256,31432,5,8,0:3:0:0:
88,352,31662,1,2,0:0:0:0:
108,240,31893,1,8,0:3:0:0:
180,368,32124,2,0,B|228:372|228:372|304:340|304:340|364:344,1,170,2|2,0:0|0:0,0:0:0:0:
420,308,32816,2,0,P|443:262|444:216,1,85,8|10,0:3|0:3,0:0:0:0:
424,104,33278,5,8,0:3:0:0:
388,180,33509,1,2,0:0:0:0:
424,104,33740,1,8,0:3:0:0:
308,216,33970,2,0,P|208:196|152:140,1,170,2|2,0:0|0:0,0:0:0:0:
152,24,34662,1,8,0:3:0:0:
232,124,34893,2,0,P|212:224|156:280,1,170,2|2,0:0|0:0,0:0:0:0:
40,252,35585,1,8,0:3:0:0:
96,312,35816,1,2,0:0:0:0:
136,192,36047,1,8,0:3:0:0:
216,352,36278,5,2,0:0:0:0:
256,344,36509,1,8,0:3:0:0:
292,336,36740,1,10,0:3:0:0:
328,328,36970,6,0,L|344:240,2,85,8|2|8,0:3|0:0|0:3,0:0:0:0:
416,220,37662,2,0,P|352:168|280:200,2,170,2|2|2,0:0|0:0|0:0,0:0:0:0:
436,304,38816,5,8,0:3:0:0:
416,220,39047,1,2,0:0:0:0:
512,336,39278,1,8,0:3:0:0:
436,304,39508,2,0,B|388:312|352:284|340:260|340:260|288:288,1,170,2|2,0:0|0:0,0:0:0:0:
220,336,40201,2,0,L|140:384,1,85,0|10,0:3|0:3,0:0:0:0:
88,264,40662,5,8,0:3:0:0:
44,336,40892,1,2,0:0:0:0:
28,196,41124,1,8,0:3:0:0:
72,124,41354,1,2,0:0:0:0:
88,264,41585,1,8,0:3:0:0:
28,196,41816,1,2,0:0:0:0:
196,228,42278,6,0,P|256:152|224:148,1,170,2|2,0:0|0:0,0:0:0:0:
184,124,42970,1,8,0:3:0:0:
216,44,43432,1,8,0:3:0:0:
300,64,43894,5,8,0:3:0:0:
300,64,44124,1,8,0:3:0:0:
197,50,44354,5,4,0:0:0:0:
315,50,44585,1,2,0:0:0:0:
162,117,44816,1,8,0:3:0:0:
350,117,45047,1,2,0:0:0:0:
164,236,45277,1,8,0:3:0:0:
348,236,45508,1,2,0:0:0:0:
91,149,45739,1,8,0:3:0:0:
421,149,45970,1,2,0:0:0:0:
200,300,46200,6,0,L|118:322,1,85,8|2,0:3|0:0,0:0:0:0:
311,300,46662,2,0,L|394:322,1,85,8|2,0:3|0:0,0:0:0:0:
165,236,47123,2,0,L|80:258,1,85,8|2,0:3|0:0,0:0:0:0:
347,236,47585,2,0,L|432:258,1,85,10|0,0:3|0:0,0:0:0:0:
374,50,48047,5,8,0:3:0:0:
308,142,48277,1,2,0:0:0:0:
204,142,48508,1,8,0:3:0:0:
138,50,48739,1,2,0:0:0:0:
364,61,48970,5,8,0:3:0:0:
298,153,49200,1,2,0:0:0:0:
194,153,49431,1,8,0:3:0:0:
128,61,49662,1,2,0:0:0:0:
355,79,49893,5,8,0:3:0:0:
289,171,50123,1,2,0:0:0:0:
185,171,50354,1,8,0:3:0:0:
119,79,50585,1,2,0:0:0:0:
169,250,50816,2,0,P|131:268|89:268,1,85,8|2,0:3|0:0,0:0:0:0:
342,250,51277,2,0,P|380:268|422:268,1,85,10|0,0:3|0:0,0:0:0:0:
477,145,51739,5,8,0:3:0:0:
414,23,51970,1,2,0:0:0:0:
399,192,52200,1,8,0:3:0:0:
491,56,52431,1,2,0:0:0:0:
327,141,52662,1,8,0:3:0:0:
470,231,52893,1,2,0:0:0:0:
341,60,53123,1,8,0:3:0:0:
402,272,53354,1,2,0:0:0:0:
328,366,53585,6,0,L|310:282,1,85,8|2,0:3|0:0,0:0:0:0:
201,282,54047,2,0,L|184:366,1,85,8|2,0:3|0:0,0:0:0:0:
193,143,54508,2,0,P|136:140|102:103,1,85,8|2,0:3|0:0,0:0:0:0:
319,143,54970,2,0,P|376:140|410:103,1,85,10|2,0:3|0:0,0:0:0:0:
255,46,55431,5,8,0:3:0:0:
365,248,55662,1,2,0:0:0:0:
147,248,55893,1,8,0:3:0:0:
332,66,56123,1,2,0:0:0:0:
180,66,56354,1,8,0:3:0:0:
256,245,56585,1,2,0:0:0:0:
117,113,56816,1,8,0:3:0:0:
395,113,57047,1,2,0:0:0:0:
365,248,57277,6,0,L|330:157,1,85,8|2,0:3|0:0,0:0:0:0:
177,168,57739,2,0,L|147:248,1,85,8|2,0:3|0:0,0:0:0:0:
255,46,58200,1,8,0:3:0:0:
255,46,58431,1,8,0:0:0:0:
395,113,58662,2,0,L|474:143,1,85,8|8,0:0|0:3,0:0:0:0:
472,332,59123,6,0,P|420:332|340:340,1,127.5,4|0,0:0|0:0,0:0:0:0:
240,344,59585,2,0,P|192:348|144:344,1,85,8|2,0:0|0:0,0:0:0:0:
348,224,60047,2,0,P|392:228|444:224,1,85,8|2,0:3|0:0,0:0:0:0:
244,128,60508,1,8,0:0:0:0:
144,176,60739,2,0,P|100:184|56:184,1,85,2|8,0:0|0:3,0:0:0:0:
344,72,61200,1,2,0:0:0:0:
344,72,61316,1,0,0:0:0:0:
344,72,61431,1,8,0:0:0:0:
240,240,61662,2,0,P|248:280|244:328,1,85,2|8,0:0|0:3,0:0:0:0:
156,68,62123,5,2,0:0:0:0:
244,128,62354,1,8,0:0:0:0:
144,176,62585,1,2,0:0:0:0:
68,20,62816,5,8,0:3:0:0:
68,240,63047,1,2,0:0:0:0:
244,128,63277,1,8,0:0:0:0:
20,128,63508,1,2,0:0:0:0:
240,240,63739,1,8,0:3:0:0:
152,328,63970,1,2,0:0:0:0:
244,128,64200,1,8,0:0:0:0:
473,279,64431,6,0,B|503:277|520:240|520:240|476:216|416:236,1,170,2|2,0:0|0:0,0:0:0:0:
232,340,65123,1,8,0:0:0:0:
348,340,65354,2,0,B|353:323|344:292|344:292|312:224|360:168,1,170,2|2,0:0|0:0,0:0:0:0:
444,28,66047,2,0,L|460:116,1,85,8|2,0:0|0:0,0:0:0:0:
273,78,66508,6,0,P|213:82|141:82,1,127.5,4|0,0:0|0:0,0:0:0:0:
17,154,66970,2,0,P|57:154|109:162,1,85,8|2,0:0|0:0,0:0:0:0:
321,230,67431,2,0,P|273:234|229:250,1,85,8|2,0:3|0:0,0:0:0:0:
4,348,67893,1,8,0:0:0:0:
104,352,68123,2,0,P|144:360|196:360,1,85,2|8,0:0|0:3,0:0:0:0:
482,315,68585,1,2,0:0:0:0:
482,315,68700,1,0,0:0:0:0:
482,315,68816,1,8,0:0:0:0:
376,314,69047,2,0,P|332:315|291:321,1,85,2|8,0:0|0:3,0:0:0:0:
449,114,69508,5,2,0:0:0:0:
425,215,69739,1,8,0:0:0:0:
353,59,69970,1,2,0:0:0:0:
268,290,70200,6,0,P|294:256|299:207,1,85,8|2,0:3|0:0,0:0:0:0:
95,83,70662,2,0,P|97:135|143:197,1,127.5,8|0,0:0|0:0,0:0:0:0:
214,218,71123,1,8,0:3:0:0:
181,113,71354,1,2,0:0:0:0:
131,298,71585,2,0,P|91:300|33:292,1,85,8|2,0:0|0:0,0:0:0:0:
69,65,72047,5,8,0:3:0:0:
94,152,72508,1,8,0:3:0:0:
68,236,72970,1,8,0:3:0:0:
11,125,73200,1,8,0:0:0:0:
35,238,73431,6,0,P|32:264|23:240,1,63.75,8|0,0:0|0:0,0:0:0:0:
68,236,73893,6,0,P|132:244|200:232,1,127.5,4|0,0:0|0:0,0:0:0:0:
324,254,74354,2,0,P|384:244|456:248,1,127.5,8|0,0:0|0:0,0:0:0:0:
468,216,74816,2,0,P|464:172|464:132,1,85,8|2,0:3|0:0,0:0:0:0:
292,40,75277,1,8,0:0:0:0:
140,152,75508,2,0,P|96:152|56:148,1,85,2|8,0:0|0:3,0:0:0:0:
188,40,75970,1,2,0:0:0:0:
188,40,76085,1,0,0:0:0:0:
188,40,76200,1,8,0:0:0:0:
376,32,76431,2,0,P|420:32|480:40,1,85,2|8,0:0|0:3,0:0:0:0:
312,216,76893,5,2,0:0:0:0:
484,140,77123,1,8,0:0:0:0:
296,104,77354,1,2,0:0:0:0:
420,264,77585,6,0,P|420:304|416:352,1,85,8|2,0:3|0:0,0:0:0:0:
95,348,78047,2,0,P|92:306|92:264,1,85,8|2,0:0|0:0,0:0:0:0:
368,128,78508,2,0,P|357:166|341:211,1,85,8|2,0:3|0:0,0:0:0:0:
169,209,78970,1,8,0:0:0:0:
364,108,79200,6,0,P|380:196|380:288,1,170,2|2,0:0|0:0,0:0:0:0:
304,320,79777,1,0,0:0:0:0:
304,320,79893,1,8,0:0:0:0:
488,264,80123,2,0,P|472:176|472:84,1,170,2|2,0:0|0:0,0:0:0:0:
392,232,80816,5,8,0:0:0:0:
328,32,81047,1,8,0:3:0:0:
328,32,81277,6,0,L|320:168,1,127.5,4|0,0:0|0:0,0:0:0:0:
191,159,81739,2,0,L|184:32,1,127.5,8|0,0:0|0:0,0:0:0:0:
332,24,82200,2,0,P|368:40|408:64,1,85,8|2,0:3|0:0,0:0:0:0:
508,20,82662,1,8,0:0:0:0:
384,160,82893,2,0,P|384:200|396:256,1,85,2|8,0:0|0:3,0:0:0:0:
407,63,83354,1,2,0:0:0:0:
407,63,83470,1,0,0:0:0:0:
407,63,83585,1,8,0:0:0:0:
228,216,83816,2,0,P|248:250|286:293,1,85,2|8,0:0|0:3,0:0:0:0:
384,160,84277,5,2,0:0:0:0:
152,276,84508,1,8,0:0:0:0:
380,276,84739,1,2,0:0:0:0:
76,208,84970,6,0,P|32:204|-12:196,1,85,8|2,0:3|0:0,0:0:0:0:
152,276,85431,2,0,L|156:116,1,127.5,8|0,0:0|0:0,0:0:0:0:
216,56,85893,2,0,P|256:56|312:64,1,85,8|2,0:3|0:0,0:0:0:0:
512,196,86354,2,0,P|478:204|436:208,1,85,8|2,0:0|0:0,0:0:0:0:
301,62,86816,5,8,0:3:0:0:
260,56,87277,1,8,0:3:0:0:
216,56,87739,1,8,0:3:0:0:
176,72,88200,1,8,0:3:0:0:
176,72,88431,1,8,0:3:0:0:
301,62,88662,5,6,0:0:0:0:
116,120,103431,5,4,0:0:0:0:
196,92,103662,2,0,L|280:60,1,85,2|8,0:0|0:3,0:0:0:0:
428,84,104123,2,0,L|344:116,1,85,2|8,0:0|0:3,0:0:0:0:
340,200,104585,6,0,L|528:124,2,170,2|2|2,0:0|0:0|0:0,0:0:0:0:
456,256,105739,1,8,0:3:0:0:
324,288,105970,1,2,0:0:0:0:
324,288,106431,1,2,0:0:0:0:
192,320,106662,1,8,0:3:0:0:
192,320,106777,1,0,0:0:0:0:
192,320,106893,1,8,0:3:0:0:
124,272,107123,6,0,P|108:231|108:188,1,85,8|2,0:3|0:0,0:0:0:0:
132,108,107585,2,0,P|91:92|48:92,2,85,8|2|8,0:3|0:0|0:3,0:0:0:0:
204,156,108277,6,0,P|300:152|376:112,2,170,2|2|2,0:0|0:0|0:0,0:0:0:0:
212,72,109431,1,8,0:3:0:0:
308,232,109662,2,0,P|280:277|228:312,2,85,2|8|2,0:0|0:3|0:0,0:0:0:0:
424,288,110355,1,8,0:3:0:0:
424,288,110470,1,0,0:0:0:0:
424,288,110585,1,8,0:3:0:0:
460,212,110816,6,0,L|448:124,1,85,8|2,0:3|0:0,0:0:0:0:
364,144,111277,2,0,L|309:73,1,85,8|2,0:3|0:0,0:0:0:0:
252,140,111739,2,0,L|169:106,1,85,8|2,0:3|0:0,0:0:0:0:
146,190,112200,1,8,0:3:0:0:
92,124,112431,6,0,B|80:60|128:24|164:20|164:20|212:40,2,170,2|2|2,0:0|0:0|0:0,0:0:0:0:
146,190,113585,1,8,0:3:0:0:
20,164,113816,1,2,0:0:0:0:
20,164,113932,1,0,0:0:0:0:
20,164,114047,1,8,0:3:0:0:
173,107,114277,1,8,0:3:0:0:
252,140,114508,6,0,L|328:104,1,85,8|2,0:3|0:0,0:0:0:0:
368,28,114970,2,0,P|404:12|460:20,2,85,8|2|8,0:3|0:0|0:3,0:0:0:0:
420,96,115662,2,0,B|428:143|428:143|467:205|467:205|476:252,2,170,2|2|2,0:0|0:0|0:0,0:0:0:0:
343,120,116816,6,0,L|360:204,1,85,8|2,0:3|0:0,0:0:0:0:
200,255,117277,2,0,L|184:172,1,85,8|2,0:3|0:0,0:0:0:0:
296,272,117739,5,8,0:3:0:0:
200,256,117970,1,8,0:3:0:0:
392,304,118200,6,0,P|400:260|404:216,1,85,6|2,0:0|0:0,0:0:0:0:
348,108,118662,1,8,0:3:0:0:
108,219,118893,2,0,P|112:262|120:304,1,85,2|8,0:0|0:3,0:0:0:0:
164,108,119355,1,2,0:0:0:0:
164,108,119470,1,0,0:0:0:0:
164,108,119585,1,8,0:3:0:0:
12,32,119816,6,0,P|4:68|0:124,1,85,2|8,0:0|0:3,0:0:0:0:
176,192,120277,2,0,P|172:149|163:108,1,85,2|8,0:0|0:3,0:0:0:0:
360,24,120739,2,0,B|336:76|344:144|344:144|388:128|444:128,1,212.5,2|0,0:0|0:0,0:0:0:0:
512,92,121431,2,0,L|504:180,1,85,8|8,0:3|0:3,0:0:0:0:
332,276,121893,6,0,P|364:260|428:248,1,85,8|2,0:3|0:0,0:0:0:0:
500,340,122354,1,8,0:3:0:0:
208,344,122585,2,0,P|164:336|126:319,1,85,2|8,0:0|0:3,0:0:0:0:
328,116,123047,2,0,P|372:124|409:140,1,85,2|8,0:0|0:3,0:0:0:0:
136,196,123508,6,0,P|120:153|116:56,1,127.5,2|0,0:0|0:0,0:0:0:0:
188,28,123970,2,0,L|280:20,1,85,2|8,0:0|0:3,0:0:0:0:
136,196,124431,2,0,B|68:204|16:188|16:188|28:240|20:288,1,212.5,2|0,0:0|0:0,0:0:0:0:
80,348,125123,2,0,P|120:352|176:352,1,85,8|8,0:3|0:3,0:0:0:0:
356,304,125585,6,0,P|360:236|360:152,1,127.5,8|0,0:3|0:0,0:0:0:0:
356,144,126047,2,0,L|360:88,1,42.5,8|0,0:3|0:0,0:0:0:0:
432,48,126277,2,0,P|436:88|440:188,1,127.5,2|0,0:0|0:0,0:0:0:0:
356,144,126739,2,0,P|304:148|256:144,1,85,2|8,0:0|0:3,0:0:0:0:
168,32,127200,6,0,P|96:32|28:40,1,127.5,2|0,0:0|0:0,0:0:0:0:
0,120,127662,2,0,P|8:164|32:228,1,85,2|8,0:0|0:3,0:0:0:0:
184,48,128123,2,0,B|236:24|300:32|300:32|296:80|316:132,1,212.5,2|0,0:0|0:0,0:0:0:0:
392,184,128816,2,0,P|392:228|380:292,1,85,8|8,0:3|0:3,0:0:0:0:
125,268,129277,6,0,P|119:226|120:184,1,85,8|2,0:3|0:0,0:0:0:0:
386,99,129739,2,0,P|391:141|391:183,1,85,8|2,0:3|0:0,0:0:0:0:
300,248,130200,1,8,0:3:0:0:
480,244,130431,2,0,P|492:200|496:136,1,85,2|8,0:0|0:3,0:0:0:0:
472,36,130893,1,2,0:0:0:0:
256,192,131008,12,8,132047,0:3:0:0:
256,192,132508,5,8,0:3:0:0:
256,192,132739,1,8,0:3:0:0:
192,120,132970,5,6,0:0:0:0:
355,166,133200,1,2,0:0:0:0:
233,284,133431,1,8,0:3:0:0:
192,120,133662,2,0,B|208:71|190:12|190:12|184:43|154:69,1,170,2|2,0:0|0:0,0:0:0:0:
36,260,134354,1,8,0:3:0:0:
111,326,134585,6,0,P|152:333|208:334,1,85,2|8,0:0|0:3,0:0:0:0:
353,189,135047,2,0,P|306:191|260:206,1,85,2|8,0:0|0:3,0:0:0:0:
386,335,135508,1,2,0:0:0:0:
481,355,135739,2,0,P|501:313|510:266,1,85,8|2,0:3|0:0,0:0:0:0:
303,90,136200,1,8,0:3:0:0:
300,132,136316,1,0,0:0:0:0:
298,174,136431,1,2,0:0:0:0:
404,56,136662,5,8,0:3:0:0:
219,34,136893,1,2,0:0:0:0:
396,164,137123,1,8,0:3:0:0:
216,228,137354,2,0,P|137:231|41:216,1,170,2|2,0:0|0:0,0:0:0:0:
294,295,138047,1,8,0:3:0:0:
368,223,138277,6,0,P|376:174|373:134,1,85,2|8,0:0|0:3,0:0:0:0:
173,37,138739,2,0,P|171:81|179:126,1,85,2|8,0:0|0:3,0:0:0:0:
468,112,139200,1,2,0:0:0:0:
401,50,139431,2,0,P|364:33|316:24,1,85,8|2,0:3|0:0,0:0:0:0:
180,225,139893,1,8,0:3:0:0:
222,223,140008,1,0,0:0:0:0:
262,210,140123,1,2,0:0:0:0:
50,51,140354,6,0,L|40:140|40:140,2,85,8|2|8,0:3|0:0|0:3,0:0:0:0:
147,274,141047,2,0,P|151:190|167:102,1,170,2|2,0:0|0:0,0:0:0:0:
72,346,141739,1,8,0:3:0:0:
39,258,141970,6,0,P|41:215|37:156,1,85,2|8,0:0|0:3,0:0:0:0:
228,353,142431,2,0,L|235:259,1,85,2|8,0:0|0:3,0:0:0:0:
341,59,142893,1,2,0:0:0:0:
417,127,143123,2,0,P|423:174|423:225,1,85,8|2,0:3|0:0,0:0:0:0:
337,343,143585,1,8,0:3:0:0:
337,343,143700,1,0,0:0:0:0:
337,343,143816,1,2,0:0:0:0:
318,231,144047,5,8,0:3:0:0:
451,320,144277,1,2,0:0:0:0:
225,306,144508,2,0,P|212:261|230:160,1,127.5,8|0,0:3|0:0,0:0:0:0:
233,155,144970,1,8,0:3:0:0:
110,244,145200,1,2,0:0:0:0:
205,375,145431,1,8,0:3:0:0:
256,192,145663,12,8,146816,0:3:0:0:
195,130,147047,5,8,0:0:0:0:
352,167,147278,1,8,0:0:0:0:
241,284,147509,1,8,0:3:0:0:
196,130,147739,6,0,L|101:152,1,85,4|0,0:0|0:0,0:0:0:0:
316,130,148200,2,0,L|398:149,1,85,8|2,0:0|0:0,0:0:0:0:
446,296,148662,2,0,P|404:311|350:291,1,85,8|2,0:3|0:0,0:0:0:0:
402,225,149123,1,8,0:0:0:0:
291,328,149354,2,0,P|245:315|217:261,2,85,2|8|2,0:0|0:3|0:0,0:0:0:0:
255,210,150047,2,0,P|217:203|153:227,1,85,8|2,0:0|0:0,0:0:0:0:
68,296,150508,1,8,0:3:0:0:
173,361,150739,5,2,0:0:0:0:
207,147,150970,1,8,0:0:0:0:
87,229,151200,1,2,0:0:0:0:
228,287,151431,1,8,0:3:0:0:
149,91,151662,1,2,0:0:0:0:
148,285,151893,1,8,0:0:0:0:
284,128,152123,1,2,0:0:0:0:
85,148,152354,1,8,0:3:0:0:
286,217,152585,1,2,0:0:0:0:
229,64,152816,1,8,0:0:0:0:
362,169,153047,6,0,P|442:152|470:77,1,170,2|2,0:0|0:0,0:0:0:0:
348,15,153739,2,0,P|355:58|397:93,1,85,8|2,0:0|0:0,0:0:0:0:
274,2,154200,1,8,0:3:0:0:
205,143,154431,1,2,0:0:0:0:
90,34,154662,1,8,0:0:0:0:
90,34,155123,6,0,L|-5:56,1,85,4|2,0:0|0:0,0:0:0:0:
122,124,155584,2,0,L|204:143,1,85,8|2,0:0|0:0,0:0:0:0:
114,256,156046,2,0,P|72:271|18:251,1,85,8|2,0:3|0:0,0:0:0:0:
214,263,156507,1,8,0:0:0:0:
176,336,156738,2,0,P|130:323|102:269,1,85,2|8,0:0|0:3,0:0:0:0:
327,380,157200,2,0,P|373:367|401:313,1,85,2|8,0:0|0:0,0:0:0:0:
258,181,157662,2,0,P|290:210|305:249,1,85,2|8,0:0|0:3,0:0:0:0:
256,360,158123,5,2,0:0:0:0:
144,233,158354,1,8,0:0:0:0:
368,233,158584,1,2,0:0:0:0:
219,114,158815,1,8,0:3:0:0:
314,295,159046,1,2,0:0:0:0:
293,114,159277,1,8,0:0:0:0:
198,295,159507,1,2,0:0:0:0:
358,155,159738,1,8,0:3:0:0:
154,155,159969,1,2,0:0:0:0:
391,310,160200,1,8,0:0:0:0:
121,310,160431,6,0,P|71:273|81:169,1,170,2|2,0:0|0:0,0:0:0:0:
296,34,161123,2,0,P|307:75|283:125,1,85,8|2,0:0|0:0,0:0:0:0:
129,65,161584,1,8,0:3:0:0:
129,65,161815,1,8,0:0:0:0:
61,249,162047,2,0,L|164:224,1,85,8|8,0:0|0:3,0:0:0:0:
368,228,162508,6,0,L|451:249,1,85,4|2,0:0|0:0,0:0:0:0:
388,131,162969,2,0,L|306:112,1,85,8|2,0:0|0:0,0:0:0:0:
210,240,163431,2,0,P|251:233|282:205,1,85,8|2,0:3|0:0,0:0:0:0:
212,147,163892,1,8,0:0:0:0:
369,229,164123,2,0,P|416:228|457:183,2,85,2|8|2,0:0|0:3|0:0,0:0:0:0:
339,70,164816,2,0,P|296:66|256:78,1,85,8|2,0:0|0:0,0:0:0:0:
135,190,165277,1,8,0:3:0:0:
308,282,165508,5,2,0:0:0:0:
212,147,165739,1,8,0:0:0:0:
179,291,165969,1,2,0:0:0:0:
293,136,166200,1,8,0:3:0:0:
134,106,166431,1,2,0:0:0:0:
326,206,166662,1,8,0:0:0:0:
206,64,166892,1,2,0:0:0:0:
214,223,167123,1,8,0:3:0:0:
306,64,167354,1,2,0:0:0:0:
138,29,167585,1,8,0:0:0:0:
144,181,167816,6,0,P|70:149|66:68,1,170,2|2,0:0|0:0,0:0:0:0:
145,259,168508,2,0,P|174:291|228:297,1,85,8|2,0:0|0:0,0:0:0:0:
367,181,168969,1,8,0:3:0:0:
299,352,169200,1,2,0:0:0:0:
436,152,169431,1,8,0:0:0:0:
436,152,169892,6,0,L|444:67,1,85,4|2,0:0|0:0,0:0:0:0:
419,313,170354,2,0,L|427:228,1,85,8|2,0:0|0:0,0:0:0:0:
370,105,170815,2,0,P|331:88|274:100,1,85,8|2,0:3|0:0,0:0:0:0:
192,147,171276,1,8,0:0:0:0:
200,273,171507,2,0,P|159:263|131:232,1,85,2|8,0:0|0:3,0:0:0:0:
312,273,171970,2,0,P|352:263|380:232,1,85,2|8,0:0|0:0,0:0:0:0:
338,32,172431,2,0,P|306:61|291:100,1,85,2|8,0:0|0:3,0:0:0:0:
256,329,172892,5,2,0:0:0:0:
132,234,173123,1,8,0:0:0:0:
380,234,173353,1,2,0:0:0:0:
129,308,173584,1,8,0:3:0:0:
383,308,173815,1,2,0:0:0:0:
256,144,174046,1,8,0:0:0:0:
188,350,174276,1,0,0:0:0:0:
334,153,174507,1,8,0:3:0:0:
178,153,174738,1,2,0:0:0:0:
324,350,174969,1,8,0:0:0:0:
132,234,175200,6,0,P|85:166|112:89,1,170,2|2,0:0|0:0,0:0:0:0:
336,72,175892,2,0,P|348:113|334:152,1,85,8|2,0:3|0:0,0:0:0:0:
199,273,176353,1,8,0:3:0:0:
178,153,176584,1,2,0:0:0:0:
352,60,176816,2,0,P|363:100|349:139,1,85,8|2,0:3|0:0,0:0:0:0:
199,273,177277,5,4,0:0:0:0:
476,64,197585,6,0,P|412:52|316:52,1,127.5,4|0,0:0|0:0,0:0:0:0:
272,84,198047,2,0,P|232:84|164:76,1,85,8|0,0:0|0:0,0:0:0:0:
148,64,198393,1,0,0:0:0:0:
105,60,198508,1,10,0:3:0:0:
64,74,198623,1,0,0:0:0:0:
43,111,198739,1,0,0:0:0:0:
47,153,198854,1,0,0:0:0:0:
70,188,198970,1,8,0:0:0:0:
97,220,199085,1,0,0:0:0:0:
107,261,199200,1,0,0:0:0:0:
94,301,199316,1,0,0:0:0:0:
62,329,199431,6,0,L|14:321,3,42.5,10|0|0|0,0:3|0:0|0:0|0:0,0:0:0:0:
168,352,199893,2,0,L|216:344,3,42.5,8|0|0|0,0:0|0:0|0:0|0:0,0:0:0:0:
312,332,200354,2,0,L|324:276,1,42.5,10|0,0:3|0:0,0:0:0:0:
256,168,200585,2,0,L|272:224,1,42.5,2|0,0:0|0:0,0:0:0:0:
368,160,200816,1,8,0:0:0:0:
368,160,200931,2,0,P|408:152|456:152,1,85,2|0,0:0|0:0,0:0:0:0:
456,244,201277,5,10,0:3:0:0:
456,244,201393,2,0,L|427:247,2,28.3333333333333,0|0|0,0:0|0:0|0:0,0:0:0:0:
456,48,201739,5,8,0:0:0:0:
468,56,201854,2,0,P|424:56|368:64,1,85,2|0,0:0|0:0,0:0:0:0:
308,88,202200,1,2,0:3:0:0:
308,88,202316,2,0,L|244:80,1,42.5
196,32,202547,2,0,P|152:36|120:36,1,63.75,0|0,0:0|0:0,0:0:0:0:
108,48,202777,2,0,L|48:44,1,42.5,2|0,0:0|0:0,0:0:0:0:
232,16,203123,5,10,0:3:0:0:
176,168,203354,1,0,0:0:0:0:
308,88,203585,2,0,P|344:92|388:92,1,63.75,8|0,0:0|0:0,0:0:0:0:
392,92,203816,2,0,L|436:88,1,42.5,2|0,0:0|0:0,0:0:0:0:
500,28,204047,2,0,P|468:112|508:180,1,170,10|8,0:3|0:0,0:0:0:0:
496,204,204739,1,0,0:0:0:0:
484,232,204970,6,0,L|420:224,1,42.5,4|0,0:0|0:0,0:0:0:0:
372,160,205200,1,2,0:0:0:0:
380,172,205316,2,0,P|332:168|288:176,1,85,0|2,0:0|0:0,0:0:0:0:
224,224,205662,2,0,L|168:220,1,42.5
76,188,205893,1,10,0:3:0:0:
88,180,206008,2,0,P|84:232|92:276,1,85,0|2,0:0|0:0,0:0:0:0:
180,312,206354,1,8,0:0:0:0:
168,328,206470,2,0,P|208:320|268:328,1,85
340,336,206816,6,0,P|376:336|444:328,1,85,10|0,0:3|0:0,0:0:0:0:
488,268,207162,2,0,P|492:224|488:172,1,85,2|2,0:0|0:0,0:0:0:0:
432,120,207508,2,0,L|376:116,1,42.5,0|0,0:0|0:0,0:0:0:0:
452,28,207739,2,0,P|408:28|344:44,1,85,10|0,0:3|0:0,0:0:0:0:
144,35,208200,2,0,P|102:27|60:28,1,85,8|0,0:0|0:0,0:0:0:0:
89,281,208662,5,10,0:3:0:0:
123,256,208777,1,0,0:0:0:0:
150,223,208893,1,0,0:0:0:0:
156,181,209008,1,0,0:0:0:0:
148,108,209123,5,8,0:0:0:0:
174,141,209239,1,0,0:0:0:0:
209,164,209354,1,0,0:0:0:0:
250,173,209470,1,0,0:0:0:0:
292,168,209585,6,0,L|352:160,1,42.5,10|0,0:3|0:0,0:0:0:0:
436,72,209816,2,0,L|432:128,1,42.5,2|0,0:0|0:0,0:0:0:0:
404,296,210047,2,0,P|396:244|404:196,1,85,8|2,0:0|0:0,0:0:0:0:
484,184,210393,1,0,0:0:0:0:
256,192,210508,12,8,211662,0:0:0:0:
256,192,211893,5,8,0:0:0:0:
256,192,212123,1,8,0:3:0:0:
172,80,212354,6,0,L|-8:64,1,170,4|8,0:0|0:0,0:0:0:0:
148,228,213047,1,2,0:0:0:0:
204,164,213277,2,0,L|384:180,1,170,8|8,0:3|0:0,0:0:0:0:
364,264,213970,6,0,P|450:303|506:240,2,170,2|2|2,0:0|0:0|0:0,0:0:0:0:
432,216,215123,1,8,0:3:0:0:
364,264,215354,1,2,0:0:0:0:
504,176,215585,1,8,0:0:0:0:
500,261,215816,1,2,0:0:0:0:
432,132,216047,6,0,L|384:52,1,85,8|2,0:3|0:0,0:0:0:0:
472,40,216508,1,8,0:0:0:0:
340,148,216739,2,0,L|249:125,1,85,2|8,0:0|0:3,0:0:0:0:
303,54,217200,1,2,0:0:0:0:
432,132,217431,1,8,0:0:0:0:
404,280,217662,6,0,P|336:328|248:296,1,170,2|2,0:0|0:0,0:0:0:0:
196,248,218354,2,0,L|160:148,1,85,8|2,0:0|0:0,0:0:0:0:
80,248,218816,2,0,L|116:348,1,85,8|2,0:3|0:0,0:0:0:0:
284,176,219277,2,0,L|248:76,1,85,8|2,0:0|0:0,0:0:0:0:
176,60,219739,6,0,P|284:100|344:72,2,170,4|8|8,0:0|0:0|0:3,0:0:0:0:
156,144,220893,1,2,0:0:0:0:
92,36,221123,1,8,0:0:0:0:
92,192,221354,6,0,B|136:236|188:216|188:216|224:272,1,170,2|2,0:0|0:0,0:0:0:0:
156,144,222047,1,8,0:0:0:0:
152,300,222277,2,0,P|196:344|284:312,1,127.5,2|0,0:0|0:0,0:0:0:0:
257,338,222739,1,2,0:0:0:0:
344,244,222970,1,8,0:0:0:0:
448,320,223200,1,2,0:0:0:0:
256,252,223431,6,0,L|172:224,2,85,8|2|8,0:3|0:0|0:0,0:0:0:0:
344,244,224123,1,2,0:0:0:0:
328,160,224354,1,8,0:3:0:0:
436,224,224585,1,2,0:0:0:0:
504,116,224816,1,8,0:0:0:0:
396,52,225047,1,2,0:0:0:0:
256,192,225277,12,0,226200,0:0:0:0:
256,192,226431,5,8,0:0:0:0:
256,192,226547,1,0,0:0:0:0:
256,192,226662,1,8,0:0:0:0:
196,252,226893,1,8,0:3:0:0:
356,346,227123,6,0,P|365:298|355:206,1,127.5,4|0,0:0|0:0,0:0:0:0:
360,122,227585,2,0,L|368:30,1,85,8|2,0:0|0:0,0:0:0:0:
144,37,228047,2,0,L|152:122,1,85,8|2,0:3|0:0,0:0:0:0:
394,246,228508,1,8,0:0:0:0:
476,171,228739,2,0,P|479:128|477:82,1,85,2|8,0:0|0:3,0:0:0:0:
281,237,229200,1,2,0:0:0:0:
281,237,229316,1,0,0:0:0:0:
281,237,229431,1,8,0:0:0:0:
412,357,229662,2,0,P|457:358|504:360,1,85,2|8,0:0|0:3,0:0:0:0:
181,325,230123,5,2,0:0:0:0:
60,344,230354,1,8,0:0:0:0:
106,227,230585,1,2,0:0:0:0:
25,142,230816,5,8,0:3:0:0:
60,344,231047,1,2,0:0:0:0:
220,222,231277,1,8,0:0:0:0:
106,227,231508,1,2,0:0:0:0:
314,186,231739,1,8,0:3:0:0:
161,136,231970,1,2,0:0:0:0:
210,313,232200,1,8,0:0:0:0:
390,257,232431,6,0,P|410:201|386:131,1,127.5,2|0,0:0|0:0,0:0:0:0:
365,109,232893,2,0,L|373:59,1,42.5,2|0,0:0|0:0,0:0:0:0:
257,137,233123,2,0,L|261:188,1,42.5,8|0,0:0|0:0,0:0:0:0:
182,71,233354,2,0,P|129:48|59:83,1,127.5,2|0,0:0|0:0,0:0:0:0:
118,184,233816,2,0,P|129:156|128:130,1,42.5,2|0,0:0|0:0,0:0:0:0:
22,196,234047,2,0,L|29:291,1,85,8|2,0:0|0:0,0:0:0:0:
365,317,234508,6,0,P|312:275|239:291,1,127.5,4|0,0:0|0:0,0:0:0:0:
198,352,234970,2,0,P|147:356|101:348,1,85,8|2,0:0|0:0,0:0:0:0:
374,207,235431,2,0,P|417:204|464:206,1,85,8|2,0:3|0:0,0:0:0:0:
257,46,235893,1,8,0:0:0:0:
231,149,236123,2,0,L|238:240,1,85,2|8,0:0|0:3,0:0:0:0:
336,118,236585,1,2,0:0:0:0:
336,118,236700,1,0,0:0:0:0:
336,118,236816,1,8,0:0:0:0:
131,139,237047,2,0,L|106:228,1,85,2|8,0:0|0:3,0:0:0:0:
205,322,237508,5,2,0:0:0:0:
327,262,237739,1,8,0:0:0:0:
233,224,237970,1,2,0:0:0:0:
306,357,238200,2,0,L|396:362,1,85,8|2,0:3|0:0,0:0:0:0:
141,255,238662,2,0,B|44:240|44:240|72:213,1,127.5,8|0,0:0|0:0,0:0:0:0:
162,167,239123,1,8,0:3:0:0:
270,145,239354,1,2,0:0:0:0:
317,316,239585,1,8,0:0:0:0:
364,216,239816,1,2,0:0:0:0:
503,347,240047,6,0,L|479:178,2,170,8|8|8,0:3|0:3|0:3,0:0:0:0:
454,210,241200,1,2,0:0:0:0:
458,176,241316,1,2,0:0:0:0:
462,142,241431,1,2,0:0:0:0:
465,107,241547,1,0,0:0:0:0:
469,73,241663,1,2,0:0:0:0:
473,39,241778,1,2,0:0:0:0:
478,5,241893,5,4,0:0:0:0:
