osu file format v5

[General]
AudioFilename: 275651_SMW_OVERWORLD_REMIX.mp3
AudioLeadIn: 0
PreviewTime: -1
Countdown: 1
SampleSet: Normal
StackLeniency: 0.7
Mode: 0
LetterboxInBreaks: 1

[Editor]
Bookmarks: 7362
DistanceSpacing: 0.800000011920929
BeatDivisor: 4
GridSize: 8

[Metadata]
Title:Weegee - SMW REmix
Artist:Typhlanar
Creator:malleoiscreepy
Version:Easy
Source:
Tags:

[Difficulty]
HPDrainRate:3
CircleSize:5
OverallDifficulty:3
SliderMultiplier:0.4
SliderTickRate:0.5

[Events]
//Background and Video events
0,0,"backgrounds.jpg"
//Break Periods
//Storyboard Layer 0 (Background)
//Storyboard Layer 1 (Fail)
//Storyboard Layer 2 (Pass)
//Storyboard Layer 3 (Foreground)
//Storyboard Sound Samples
//Background Colour Transformations
3,100,0,255,64

[TimingPoints]
0,129.171151776103,4,1,0,100,1,0

[HitObjects]
96,88,889,1,0
200,248,1271,1,0
224,184,1618,1,0
272,136,1867,1,0
208,152,2116,1,0
272,120,2427,1,0
248,120,2738,2,0,B|472:120|480:120,1,230
432,128,4543,5,0
392,144,4854,1,0
264,184,5228,1,0
360,88,5601,1,0
352,160,5912,1,0
336,208,6410,1,8
256,192,6721,12,0,10082
177,201,10580,5,0
269,81,10829,1,0
90,73,11265,1,0
75,334,11701,1,0
439,95,12136,1,0
318,301,12448,1,0
77,106,12821,2,0,B|359:105|434:278|283:358|104:316|127:214|227:84|349:59|383:60|394:60,1,690
301,189,15629,2,0,B|201:189,2,90
167,213,16663,5,0
296,106,17082,1,0
414,212,17567,1,0
293,329,17954,1,0
69,277,18277,1,0
141,142,18536,1,0
249,226,19085,1,0
80,97,22152,5,0
132,156,22378,1,0
196,116,22637,1,0
252,136,22863,1,0
276,204,23089,1,0
341,162,23379,1,0
364,99,23606,1,0
429,127,23864,1,0
423,181,24058,1,0
396,234,24251,1,0
346,259,24445,1,0
287,265,24639,1,0
226,250,24897,1,0
189,281,25123,1,0
140,284,25446,1,0
124,238,25705,1,0
157,182,25963,1,0
210,162,26221,1,0
256,141,26447,1,0
256,192,28159,12,0,31420
220,190,32260,6,0,B|307:192,4,80
110,115,34779,1,0
165,162,35037,1,0
238,102,35328,1,0
321,162,35618,1,0
407,112,35844,1,0
460,168,36103,1,0
99,234,36393,5,0
152,291,36684,1,0
214,243,36942,1,0
272,294,37201,1,0
357,231,37459,1,0
416,283,37685,1,0
463,242,38008,1,0
119,177,39590,2,0,B|101:332|278:324|365:320|413:284|435:231|438:186|430:111|389:46|314:20|240:15|196:24|167:37|131:89|117:117|109:151|120:186,2,870
129,127,46437,5,0
192,126,46986,1,0
272,125,47470,1,0
363,165,47857,1,0
319,274,48342,1,0
175,227,48794,1,0
92,114,49246,1,0
350,85,49730,1,0
373,304,50215,1,0
241,172,50667,1,0
72,297,51119,1,0
131,97,51571,1,0
54,60,51926,2,0,B|469:354,1,500
256,192,55091,12,0,56964
65,82,57578,5,0
153,218,57900,1,0
257,89,58353,1,0
407,201,58805,1,0
103,267,59160,5,0
244,197,59580,1,0
294,48,59999,1,0
447,136,60452,1,0
384,321,60871,1,0
101,273,61259,1,0
262,94,61711,1,0
189,187,62970,2,0,B|262:188,6,70
98,87,64617,1,0
391,82,64973,1,0
253,188,67201,1,4
