osu file format v14

[General]
AudioFilename: track10.ogg
AudioLeadIn: 0
PreviewTime: 36733
Countdown: 0
SampleSet: Soft
StackLeniency: 0.7
Mode: 0
LetterboxInBreaks: 1
WidescreenStoryboard: 0

[Editor]
DistanceSpacing: 1
BeatDivisor: 4
GridSize: 8
TimelineZoom: 1

[Metadata]
Title:Maiden
TitleUnicode:
Artist:Type-Moon
ArtistUnicode:
Creator:tieff
Version:Normal
Source:Kagetsu Tohya
Tags:Tsukihime
BeatmapID:2721651
BeatmapSetID:8768

[Difficulty]
HPDrainRate:4
CircleSize:4
OverallDifficulty:6
ApproachRate:6
SliderMultiplier:1.4
SliderTickRate:0.5

[Events]
//Background and Video events
0,0,"Akiha.jpg",0,0
//Break Periods
//Storyboard Layer 0 (Background)
//Storyboard Layer 1 (Fail)
//Storyboard Layer 2 (Pass)
//Storyboard Layer 3 (Foreground)
//Storyboard Layer 4 (Overlay)
//Storyboard Sound Samples

[TimingPoints]
18190,600,4,2,1,41,1,0
115783,-100,4,2,1,31,0,0
118783,-100,4,2,1,14,0,0
121183,-100,4,2,1,8,0,0
122383,-100,4,2,1,0,0,0

[Colours]
Combo1 : 255,255,128
Combo2 : 0,0,64
Combo3 : 192,192,192
Combo4 : 251,28,28

[HitObjects]
144,80,18190,6,0,B|48:80,2,70,0|2|0,0:0|0:0|0:0,0:0:0:0:
216,80,19090,2,0,B|360:80,1,140,2|2,0:0|0:0,0:0:0:0:
328,144,19990,1,0,0:0:0:0:
288,200,20290,1,2,0:0:0:0:
248,256,20590,6,0,B|200:320,2,70,0|2|0,0:0|0:0|0:0,0:0:0:0:
288,200,21490,2,0,B|160:128,1,140,2|2,0:0|0:0,0:0:0:0:
168,200,22390,1,0,0:0:0:0:
168,272,22690,1,2,0:0:0:0:
104,232,22990,5,0,0:0:0:0:
48,184,23290,1,2,0:0:0:0:
104,136,23590,1,0,0:0:0:0:
48,88,23890,2,0,B|208:88,1,140,2|2,0:0|0:0,0:0:0:0:
240,40,24790,1,0,0:0:0:0:
296,88,25090,1,2,0:0:0:0:
232,120,25390,6,0,B|232:200,2,70,0|2|0,0:0|0:0|0:0,0:0:0:0:
160,120,26290,2,0,B|160:264,1,140,2|2,0:0|0:0,0:0:0:0:
90,261,27190,2,0,B|90:181,1,70,0|2,0:0|0:0,0:0:0:0:
88,120,27790,5,0,0:0:0:0:
160,120,28090,2,0,B|256:120,1,70,2|0,0:0|0:0,0:0:0:0:
240,192,28690,2,0,B|416:192,1,140,2|0,0:0|0:0,0:0:0:0:
352,128,29590,1,2,0:0:0:0:
320,64,29890,1,0,0:0:0:0:
320,64,30190,5,0,0:0:0:0:
256,96,30490,1,2,0:0:0:0:
288,160,30790,1,0,0:0:0:0:
224,192,31090,2,0,B|152:320,1,140,2|0,0:0|0:0,0:0:0:0:
96,280,31990,1,2,0:0:0:0:
96,280,32290,1,0,0:0:0:0:
128,216,32590,5,0,0:0:0:0:
72,176,32890,2,0,B|136:112,1,70,2|0,0:0|0:0,0:0:0:0:
24,128,33490,2,0,B|128:24,1,140,2|2,0:0|0:0,0:0:0:0:
176,72,34390,1,0,0:0:0:0:
128,120,34690,1,2,0:0:0:0:
168,176,34990,6,0,B|200:248,1,70,0|2,0:0|0:0,0:0:0:0:
104,192,35590,2,0,B|104:272,1,70,0|2,0:0|0:0,0:0:0:0:
240,256,36490,1,2,0:0:0:0:
312,256,36790,6,0,B|312:96,1,140,4|4,0:0|0:0,0:0:0:0:
168,112,37990,1,2,0:0:0:0:
168,184,38290,2,0,B|168:328,1,140,4|0,0:0|0:0,0:0:0:0:
232,288,39190,2,0,B|232:136,1,140,2|0,0:0|0:0,0:0:0:0:
368,112,40390,5,0,0:0:0:0:
416,160,40690,2,0,B|328:288,1,140,4|0,0:0|0:0,0:0:0:0:
288,224,41590,2,0,B|208:344,1,140,4|0,0:0|0:0,0:0:0:0:
96,248,42790,5,2,0:0:0:0:
96,176,43090,1,0,0:0:0:0:
200,80,43690,1,0,0:0:0:0:
272,80,43990,1,2,0:0:0:0:
408,80,44590,1,2,0:0:0:0:
400,288,45490,5,4,0:0:0:0:
272,240,46090,1,2,0:0:0:0:
208,208,46390,1,4,0:0:0:0:
240,144,46690,1,2,0:0:0:0:
280,88,46990,1,4,0:0:0:0:
72,80,47890,5,2,0:0:0:0:
208,80,48490,1,0,0:0:0:0:
280,80,48790,2,0,B|280:232,1,140,2|0,0:0|0:0,0:0:0:0:
280,220,49990,5,0,0:0:0:0:
280,220,50290,1,4,0:0:0:0:
136,216,50890,1,2,0:0:0:0:
96,272,51190,2,0,B|248:272,1,140,4|0,0:0|0:0,0:0:0:0:
376,272,52390,5,2,0:0:0:0:
432,224,52690,2,0,B|264:224,1,140,4|0,0:0|0:0,0:0:0:0:
312,160,53590,2,0,B|480:160,1,140,4|4,0:0|0:0,0:0:0:0:
328,96,54790,6,0,B|224:96,2,70,2|0|2,0:0|0:0|0:0,0:0:0:0:
328,96,55990,1,2,0:0:0:0:
280,224,56590,6,0,B|248:296,1,70,0|2,0:0|0:0,0:0:0:0:
224,352,57190,1,0,0:0:0:0:
296,344,57490,2,0,B|368:192,1,140,2|2,0:0|0:0,0:0:0:0:
312,160,58390,1,0,0:0:0:0:
240,176,58690,1,2,0:0:0:0:
240,248,58990,6,0,B|152:248,1,70,0|2,0:0|0:0,0:0:0:0:
200,320,59590,2,0,B|112:320,1,70,0|2,0:0|0:0,0:0:0:0:
96,184,60490,1,2,0:0:0:0:
96,112,60790,1,0,0:0:0:0:
96,184,61090,1,2,0:0:0:0:
96,256,61390,6,0,B|264:256,1,140,0|2,0:0|0:0,0:0:0:0:
200,328,62290,2,0,B|24:328,1,140,2|0,0:0|0:0,0:0:0:0:
96,256,63190,1,2,0:0:0:0:
144,200,63490,1,0,0:0:0:0:
96,256,63790,6,0,B|32:200,1,70,0|2,0:0|0:0,0:0:0:0:
96,256,64390,2,0,B|160:312,1,70,0|2,0:0|0:0,0:0:0:0:
72,184,65290,2,0,B|16:120,2,70,2|0|2,0:0|0:0|0:0,0:0:0:0:
128,232,66190,5,0,0:0:0:0:
184,280,66490,1,2,0:0:0:0:
240,232,66790,1,0,0:0:0:0:
184,184,67090,2,0,B|184:32,1,140,2|0,0:0|0:0,0:0:0:0:
256,64,67990,2,0,B|256:160,1,70,0|2,0:0|0:0,0:0:0:0:
256,208,68590,5,0,0:0:0:0:
256,280,68890,1,2,0:0:0:0:
256,352,69190,1,2,0:0:0:0:
256,280,69490,2,0,B|344:256|312:152,1,140,0|2,0:0|0:0,0:0:0:0:
256,208,70390,1,2,0:0:0:0:
256,280,70690,1,0,0:0:0:0:
256,208,70990,6,0,B|256:104,1,70,0|2,0:0|0:0,0:0:0:0:
256,138,71590,2,0,B|256:48,1,70,0|2,0:0|0:0,0:0:0:0:
256,208,72490,2,0,B|256:296,2,70,0|2|0,0:0|0:0|0:0,0:0:0:0:
184,208,73390,5,0,0:0:0:0:
112,208,73690,1,2,0:0:0:0:
80,272,73990,1,0,0:0:0:0:
152,272,74290,1,2,0:0:0:0:
296,272,74890,1,2,0:0:0:0:
256,208,75190,1,0,0:0:0:0:
224,272,75490,1,2,0:0:0:0:
296,272,75790,6,0,B|448:272,1,140,0|2,0:0|0:0,0:0:0:0:
416,200,76690,2,0,B|248:200,1,140,2|2,0:0|0:0,0:0:0:0:
296,128,77590,2,0,B|384:128,1,70,0|2,0:0|0:0,0:0:0:0:
352,56,78190,6,0,B|248:56,1,70,0|2,0:0|0:0,0:0:0:0:
224,96,78790,2,0,B|136:96,1,70,0|2,0:0|0:0,0:0:0:0:
128,232,79690,1,2,0:0:0:0:
200,232,79990,1,0,0:0:0:0:
272,232,80290,1,2,0:0:0:0:
240,296,80590,6,0,B|392:296,1,140,0|2,0:0|0:0,0:0:0:0:
412,233,81490,2,0,B|268:233,1,140,2|2,0:0|0:0,0:0:0:0:
280,160,82390,1,0,0:0:0:0:
352,160,82690,1,2,0:0:0:0:
280,160,82990,5,0,0:0:0:0:
208,160,83290,1,2,0:0:0:0:
168,216,83590,1,2,0:0:0:0:
160,288,83890,2,0,B|320:288,1,140,0|2,0:0|0:0,0:0:0:0:
312,216,84790,1,0,0:0:0:0:
240,216,85090,1,2,0:0:0:0:
168,216,85390,6,0,B|88:216,1,70,0|2,0:0|0:0,0:0:0:0:
24,216,85990,1,0,0:0:0:0:
56,280,86290,2,0,B|216:280,1,140,2|2,0:0|0:0,0:0:0:0:
248,328,87190,1,0,0:0:0:0:
304,280,87490,1,2,0:0:0:0:
248,232,87790,6,0,B|248:152,1,70,0|2,0:0|0:0,0:0:0:0:
176,160,88390,2,0,B|176:248,1,70,0|2,0:0|0:0,0:0:0:0:
32,240,89290,1,2,0:0:0:0:
80,184,89590,1,0,0:0:0:0:
40,120,89890,1,2,0:0:0:0:
80,64,90190,6,0,B|232:64,1,140,0|2,0:0|0:0,0:0:0:0:
192,128,91090,1,0,0:0:0:0:
144,256,91690,2,0,B|224:256,2,70,0|2|0,0:0|0:0|0:0,0:0:0:0:
176,192,92590,6,0,B|344:192,1,140,2|0,0:0|0:0,0:0:0:0:
384,192,93490,1,2,0:0:0:0:
280,96,94090,1,2,0:0:0:0:
208,96,94390,5,4,0:0:0:0:
208,96,94990,1,4,0:0:0:0:
112,192,95590,1,2,0:0:0:0:
80,256,95890,2,0,B|224:336,1,140,4|2,0:0|0:0,0:0:0:0:
232,256,96790,2,0,B|384:336,1,140,4|2,0:0|0:0,0:0:0:0:
368,184,97990,5,0,0:0:0:0:
328,128,98290,1,2,0:0:0:0:
184,128,98890,1,0,0:0:0:0:
128,176,99190,2,0,B|256:280,1,140,4|4,0:0|0:0,0:0:0:0:
104,320,100390,5,2,0:0:0:0:
56,272,100690,2,0,B|176:168,1,140
184,248,101590,2,0,B|344:248,1,140,2|2,0:0|0:0,0:0:0:0:
416,64,103090,5,4,0:0:0:0:
384,128,103390,1,0,0:0:0:0:
336,176,103690,1,4,0:0:0:0:
352,240,103990,2,0,B|200:280,1,140,4|4,0:0|0:0,0:0:0:0:
104,96,105490,6,0,B|272:80,1,140,2|0,0:0|0:0,0:0:0:0:
224,152,106390,1,2,0:0:0:0:
136,264,106990,2,0,B|304:240,1,140,4|2,0:0|0:0,0:0:0:0:
256,312,107890,1,0,0:0:0:0:
384,256,108490,1,0,0:0:0:0:
440,224,108790,2,0,B|344:112,1,140,2|2,0:0|0:0,0:0:0:0:
144,160,110290,6,4,B|296:312,1,210
256,192,111790,12,2,112990,0:0:0:0:
120,104,114190,5,0,0:0:0:0:
72,152,114490,2,0,B|0:216,2,70,2|0|2,0:0|0:0|0:0,0:0:0:0:
120,280,115690,2,0,B|224:280,2,70,2|0|2,0:0|0:0|0:0,0:0:0:0:
152,216,116590,5,0,0:0:0:0:
192,160,116890,1,2,0:0:0:0:
152,216,117190,1,0,0:0:0:0:
192,160,117490,2,0,B|336:160,1,140,2|2,0:0|0:0,0:0:0:0:
312,224,118390,1,0,0:0:0:0:
336,160,118690,1,2,0:0:0:0:
312,224,118990,6,0,B|264:312,1,70,0|2,0:0|0:0,0:0:0:0:
224,240,119590,2,0,B|184:312,1,70,0|2,0:0|0:0,0:0:0:0:
104,192,120490,1,2,0:0:0:0:
40,160,120790,1,0,0:0:0:0:
104,192,121090,1,2,0:0:0:0:
112,120,121390,5,0,0:0:0:0:
168,80,121690,1,2,0:0:0:0:
224,120,121990,1,0,0:0:0:0:
280,80,122290,1,2,0:0:0:0:
256,192,122590,12,0,123790,0:0:0:0:
