osu file format v7

[General]
AudioFilename: Gunnyuu Shissou.mp3
AudioLeadIn: 0
PreviewTime: 94616
Countdown: 0
SampleSet: Soft
StackLeniency: 0.7
Mode: 0
LetterboxInBreaks: 1

[Editor]
DistanceSpacing: 1
BeatDivisor: 4
GridSize: 8

[Metadata]
Title:Gunnyuu Shissou
Artist:Type-Moon
Creator:kodomonoyume
Version:Normal
Source:Fate/Stay Night
Tags:natsumerin bgm

[Difficulty]
HPDrainRate:3
CircleSize:3
OverallDifficulty:3
SliderMultiplier:1.4
SliderTickRate:1

[Events]
//Background and Video events
0,0,"bg2.jpg"
//Break Periods
2,40679,45807
2,69101,74679
2,86695,93175
//Storyboard Layer 0 (Background)
//Storyboard Layer 1 (Fail)
//Storyboard Layer 2 (Pass)
//Storyboard Layer 3 (Foreground)
//Storyboard Sound Samples
//Background Colour Transformations
3,100,163,162,255

[TimingPoints]
781,451.127819548872,4,2,0,80,1,0
11495,-100,4,2,0,55,0,0
11720,-100,4,2,0,80,0,0
13299,-100,4,2,0,70,0,0
15104,-100,4,2,0,55,0,0
15329,-100,4,2,0,80,0,0
18713,-100,4,2,0,55,0,0
19051,-100,4,2,0,70,0,0
19502,-100,4,2,0,85,0,0
19953,-100,4,2,0,80,0,0
20517,-100,4,2,0,70,0,0
22322,-100,4,2,0,55,0,0
22547,-100,4,2,0,80,0,0
24126,-100,4,2,0,55,0,0
24352,-100,4,2,0,80,0,0
25931,-100,4,2,0,55,0,0
26156,-100,4,2,0,80,0,0
28187,-100,4,2,0,55,0,0
28412,-100,4,2,0,80,0,0
29089,-100,4,2,0,55,0,0
29765,-100,4,2,0,80,0,0
31344,-100,4,2,0,55,0,0
31570,-100,4,2,0,80,0,0
38562,-100,4,2,0,55,0,0
38788,-100,4,2,0,80,0,0
47134,-100,4,2,0,70,0,0
52547,-100,4,2,0,55,0,0
52773,-100,4,2,0,80,0,0
56156,-100,4,2,0,55,0,0
56382,-100,4,2,0,20,0,0
57735,-100,4,2,0,80,0,0
59765,-100,4,2,0,55,0,0
59991,-100,4,2,0,80,0,0
62472,-100,4,2,0,65,0,0
63374,-100,4,2,0,80,0,0
64277,-100,4,2,0,65,0,0
66758,-100,4,2,0,20,0,0
69014,-100,4,2,0,80,0,0
76457,-100,4,2,0,55,0,0
76683,-100,4,2,0,80,0,0
78262,-100,4,2,0,55,0,0
78487,-100,4,2,0,80,0,0
81871,-100,4,2,0,65,0,0
83675,-100,4,2,0,20,0,0
94502,-100,4,2,0,55,0,0
94615,-100,4,2,0,55,0,1
94728,-100,4,2,0,80,0,1
98111,-100,4,2,0,55,0,1
98337,-100,4,2,0,80,0,1
99465,-100,4,2,0,60,0,1
99690,-100,4,2,0,80,0,1
99916,-100,4,2,0,55,0,1
100141,-100,4,2,0,80,0,1
104878,-100,4,2,0,55,0,1
105104,-100,4,2,0,80,0,1
108938,-100,4,2,0,55,0,1
109051,-100,4,2,0,55,0,0
109164,-100,4,2,0,80,0,0
110743,-100,4,2,0,55,0,0
110968,-100,4,2,0,80,0,0
112547,-100,4,2,0,55,0,0
112773,-100,4,2,0,80,0,0
114690,-100,4,2,0,60,0,0
115141,-100,4,2,0,80,0,0
115593,-100,4,2,0,60,0,0
116044,-100,4,2,0,55,0,0
116382,-100,4,2,0,80,0,0
120104,-100,4,2,0,60,0,0
120555,-100,4,2,0,80,0,0
121006,-100,4,2,0,60,0,0
121457,-100,4,2,0,80,0,0
122923,-100,4,2,0,55,0,0
123149,-100,4,2,0,80,0,0
128337,-100,4,2,0,55,0,0
128562,-100,4,2,0,20,0,0
132171,-100,4,2,0,80,0,0
138262,-100,4,2,0,55,0,0
138374,-100,4,2,0,55,0,1
138600,-100,4,2,0,55,0,0

[HitObjects]
50,301,7999,2,0,B|177:366|341:325,1,280
453,280,9352,2,0,B|501:259|492:198,1,70
493,227,9803,1,2
391,131,10254,2,0,B|343:152|351:212,1,70
351,184,10705,1,2
413,309,11156,2,0,B|373:327|322:321,1,70
274,329,11608,6,0,B|104:348|22:210,1,280,4|0
37,84,12961,1,0
37,84,13187,1,0
37,84,13412,2,0,B|93:25|192:31,1,140,2|0
302,27,14314,2,0,B|396:36|448:88,1,140,2|0
469,208,15217,6,0,B|451:282|357:316,1,140,4|0
377,307,16119,1,2
240,337,16570,1,0
177,306,16796,1,0
235,268,17021,1,2
149,157,17472,1,0
95,202,17698,1,0
82,133,17923,1,2
189,43,18374,2,0,B|243:29|280:42,1,70
328,41,18826,5,2
252,158,19277,1,2
391,164,19728,1,2
468,280,20179,2,0,B|428:256|374:263,1,70
361,319,20630,1,2
361,319,20856,2,0,B|305:334|258:319,1,70
155,285,21532,1,2
155,285,21757,2,0,B|94:285|65:307,1,70
217,345,22435,5,4
217,345,22886,2,0,B|279:296|289:207,1,140,0|2
192,122,23788,2,0,B|163:148|151:213,1,70
154,252,24239,5,4
265,336,24690,2,0,B|350:325|412:256,1,140,0|2
349,143,25593,2,0,B|310:144|257:190,1,70
254,231,26044,6,0,B|173:263|88:226,1,140,4|0
21,134,26946,2,0,B|25:188|77:206,1,70,2|0
117,168,27397,2,0,B|137:118|180:102,1,70,2|0
221,81,27848,5,2
360,73,28299,1,2
460,170,28750,1,2
435,308,29202,1,2
300,346,29653,6,0,B|144:348|32:267,1,280,4|0
10,131,31006,1,2
117,41,31457,6,0,B|273:39|385:120,1,280,4|0
418,252,32811,1,2
310,341,33262,6,0,B|392:354|472:329,1,140
496,203,34164,2,0,B|468:130|399:81,1,140,2|0
282,43,35066,1,2
228,172,35517,1,2
366,155,35968,1,2
302,279,36420,6,0,B|271:306|222:311,1,70,0|0
169,312,36871,1,2
169,312,37096,2,0,B|121:329|80:297,1,70,0|0
104,169,37773,1,2
104,169,37999,2,0,B|152:152|193:184,1,70,0|0
308,200,38675,2,0,B|204:160|340:0|548:144|428:360|308:336|236:312|188:272|156:208|177:136,1,560,4|0
283,65,47247,6,0,B|235:51|191:74,2,70,0|0|2
421,47,48149,1,0
428,116,48374,1,0
371,157,48600,1,2
264,247,49051,2,0,B|311:262|359:237,2,70,0|0|2
132,294,49953,1,0
86,240,50179,1,0
139,194,50405,1,2
277,176,50856,6,0,B|341:130|314:35,1,140,0|2
178,45,51758,1,0
194,113,51984,1,0
126,93,52209,1,2
53,212,52660,1,4
145,317,53111,2,0,B|272:370|425:319,1,280,0|0
488,198,54465,6,0,B|483:122|430:62,1,140,0|2
306,120,55367,2,0,B|311:196|364:256,1,140,0|2
376,109,56269,1,4
256,192,56495,12,0,57623
256,192,58074,5,0
190,168,58299,1,0
123,146,58525,1,2
216,249,58976,1,0
256,191,59202,1,0
299,136,59427,1,2
197,39,59878,1,4
61,74,60329,2,0,B|15:159|34:231,2,140,2|2|2
189,130,61683,6,0,B|256:132|351:94,1,140,0|2
454,48,62585,1,2
420,109,62811,2,0,B|460:124|506:102,1,70,2|2
394,211,63487,2,0,B|324:238|257:236,1,140,0|2
125,189,64390,1,2
59,170,64616,2,0,B|76:132|124:115,1,70,2|2
237,68,65292,5,0
306,67,65517,1,0
359,112,65743,1,2
389,248,66194,1,0
353,308,66420,1,0
292,342,66645,1,2
256,192,66871,12,0,68901
46,302,76119,5,0
103,340,76344,1,0
171,353,76570,2,0,B|235:361|315:353,1,140,4|0
379,342,77247,1,2
485,251,77698,2,0,B|508:206|505:161,1,70,0|2
431,65,78374,6,0,B|370:16|279:28,1,140,4|0
230,33,79051,1,2
116,115,79502,2,0,B|79:156|104:204,1,70,0|2
211,257,80179,5,0
230,189,80405,1,0
162,206,80630,1,2
297,240,81081,1,0
365,227,81307,1,0
319,173,81532,1,2
188,122,81984,6,0,B|228:34,1,70,2|0
264,109,82435,2,0,B|304:21,1,70,2|0
339,98,82886,2,0,B|379:10,1,70,2|0
415,85,83337,2,0,B|455:-3,1,70,2|2
256,192,83788,12,0,86495
92,290,94615,6,0,B|17:230|40:139,2,140,4|0|2
218,350,95968,2,0,B|288:386|370:344,1,140,0|2
479,290,96871,2,0,B|518:224|504:135,1,140,0|2
436,34,97773,1,0
317,108,98224,5,4
359,241,98675,1,2
243,320,99126,1,0
103,304,99577,1,2
39,275,99803,1,2
16,208,100029,2,0,B|-8:132|42:54|145:17|255:14|344:68,1,420,4|0
455,104,101833,5,2
455,104,102284,1,0
323,150,102735,2,0,B|300:239|400:264,1,140,2|0
445,289,103412,2,0,B|460:351|397:368,1,70,0|2
288,356,104089,2,0,B|240:366|186:347,2,70,0|0|2
224,231,104991,5,4
293,218,105217,1,0
248,164,105442,1,2
164,52,105893,2,0,B|73:48|30:145,1,140,0|2
64,253,106796,1,0
123,288,107021,1,0
184,321,107247,2,0,B|263:381|405:377|484:310|522:205|510:156,1,420,2|0
448,60,109051,5,4
327,130,109502,1,2
211,48,109953,2,0,B|143:113,1,70,0|0
90,86,110405,2,0,B|120:162,1,70,0|0
68,204,110856,5,4
135,326,111307,1,2
274,335,111758,2,0,B|361:317,1,70,0|0
411,310,112209,2,0,B|364:250,1,70,0|0
401,193,112660,6,0,B|323:177|282:84,1,140,4|0
387,4,113562,2,0,B|307:60,1,70,2|0
259,45,114014,2,0,B|179:101,1,70,0|2
145,42,114465,5,2
28,120,114916,1,2
26,259,115367,1,2
144,330,115818,1,2
283,343,116269,6,0,B|367:344|430:269,1,140,4|0
280,235,117171,2,0,B|194:216|181:114,1,140,2|2
186,142,117848,1,0
186,141,118074,6,0,B|213:56|300:41,1,140,2|0
419,44,118976,2,0,B|486:54|516:145,1,140,0|2
474,195,119653,1,0
407,215,119878,5,2
267,214,120329,1,2
358,107,120780,1,2
218,109,121232,1,2
122,211,121683,2,0,B|80:267,1,70,0|2
22,227,122134,2,0,B|70:163,1,70,0|2
64,172,122585,1,2
157,67,123036,5,4
225,53,123262,1,0
292,70,123487,2,0,B|318:92|358:68,1,70,2|0
357,69,123938,1,2
449,174,124390,2,0,B|417:142|361:190,1,70,2|0
385,173,124841,1,2
354,309,125292,6,0,B|310:321|250:309,4,70,2|0|2|0|2
248,216,126645,1,0
139,127,127096,6,0,B|183:115|243:127,4,70,2|0|2|0|2
247,216,128450,1,4
256,192,128675,12,0,132059
314,49,132510,6,0,B|287:94|225:95|195:50,1,140,2|0
184,192,133412,1,0
256,192,133638,1,0
328,192,133863,1,0
198,335,134314,6,0,B|225:290|287:289|317:334,1,140,2|0
328,192,135217,1,0
256,192,135442,1,0
184,192,135668,1,0
288,99,136119,6,0,B|350:115|367:189,1,105,0|2
224,277,137021,6,0,B|161:260|144:186,1,105,0|2
256,192,138374,5,4
